#TITLE:10,000,000,000;
#SUBTITLE: ;
#ARTIST:TAG feat. 96;
#TITLETRANSLIT:;
#SUBTITLETRANSLIT:;
#ARTISTTRANSLIT:;
#GENRE:;
#CREDIT:;
#MUSIC:10,000,000,000.ogg;
#BANNER:;
#BACKGROUND:;
#CDTITLE:;
#SAMPLESTART:51.680;
#SAMPLELENGTH:18.732;
#SELECTABLE:YES;
#OFFSET:1.003;
#BPMS:0.000=205.000;
#STOPS:;
#BGCHANGES:;
#FGCHANGES:;

//--------------- dance-single - about-blank ----------------
#NOTES:
     dance-single:
     about-blank:
     Beginner:
     6:
     0,0,0,0,0:
0000
0000
0000
0000
,
0000
0000
0000
0000
,
0000
0000
0000
0000
,
0000
0000
0000
0000
,
0000
0000
0000
0000
,
0000
0000
0000
0000
,
0000
0000
0000
0000
,
0000
0000
0000
0000
,
0000
0000
0000
0000
,
1000
0000
1000
0000
,
0001
0000
0001
0000
,
0010
0000
0010
0000
,
0100
0000
0100
0000
,
1000
0000
1000
0000
,
0001
0000
0001
0000
,
0100
0000
0100
0000
,
1001
0000
0000
0000
,
0001
1000
0001
0000
,
0010
0000
0010
0000
,
0001
1000
0001
0000
,
0001
1000
0001
0000
,
1001
0000
0100
0000
,
1001
0000
0010
0000
,
1001
0000
0100
0000
,
0001
1000
0001
0000
,
1000
0001
1000
0000
,
0010
0000
0010
0000
,
1000
0001
1000
0000
,
1000
0001
1000
0000
,
1001
0000
0010
0000
,
1001
0000
0100
0000
,
1000
0001
1000
0000
,
0010
0100
0010
0000
,
0110
0000
0001
0000
,
0100
0000
1000
0000
,
0110
0000
1000
0000
,
0100
0000
0001
0000
,
0110
0000
0001
0000
,
0100
0000
1000
0000
,
0010
0000
0001
0000
,
0100
0000
1000
0000
,
1001
0000
0000
0000
,
0010
0000
0010
0000
,
1001
0000
0100
0000
,
1001
0000
0000
0000
,
1000
0000
0100
0000
,
1000
0100
1000
0000
,
0001
0000
0010
0000
,
0001
0010
0001
0000
,
1000
0000
0100
0000
,
1000
0100
1000
0000
,
0001
0010
0001
0000
,
1000
0100
1000
0000
,
0001
0000
0100
0000
,
0001
0100
0001
0000
,
1000
0000
0010
0000
,
1000
0010
1000
0000
,
0001
0100
0001
0000
,
1000
0010
1000
0000
,
0001
0100
0001
0000
,
1000
0010
1000
0000
,
2002
0000
3003
0000
,
0001
1000
0001
0000
,
0010
0000
0010
0000
,
0010
0000
0010
0000
,
0100
0000
0100
0000
,
0100
0000
0100
0000
,
1000
0000
1000
0000
,
1000
0000
1000
0000
,
0001
0000
0001
0000
,
0001
0000
0001
0000
,
0100
0001
0100
0000
,
0010
1000
0010
0000
,
0100
0001
0100
0000
,
0010
1000
0010
0000
,
1000
0001
1000
0001
,
1000
0001
1000
0000
,
0010
0100
0010
0100
,
1001
0000
0110
0000
,
1001
0000
0000
0000
;

//--------------- dance-single - about-blank ----------------
#NOTES:
     dance-single:
     about-blank:
     Easy:
     11:
     0,0,0,0,0:
0000
0000
0000
0000
,
0000
0000
0000
0000
,
0000
0000
0000
0000
,
0000
0000
0000
0000
,
0000
0000
0000
0000
,
0000
0000
0000
0000
,
0000
0000
0000
0000
,
0000
0000
0000
0000
,
0000
0000
0000
0000
,
1000
1000
1000
1000
,
0001
0001
0001
0001
,
0100
0100
0100
0100
,
0001
0000
0010
0000
0100
1000
0001
0000
,
1010
0010
0010
0010
,
0100
0100
0100
0100
,
0001
0000
1000
0001
0000
1000
0001
0000
,
0010
0100
0010
0100
0010
0100
0010
0000
,
0001
0000
1000
0000
0010
0100
0010
0000
,
1000
0100
0010
0001
,
1000
0000
0001
0000
0100
0001
0100
0000
,
0001
0010
0101
1100
,
1000
0000
0001
0000
0100
0010
0100
0000
,
0001
0000
1000
0000
0100
0010
0100
0000
,
1000
0000
0010
0000
1000
0010
0100
0000
,
0001
0000
0010
0100
0010
0001
0100
0000
,
0001
0000
0001
0000
1000
0001
0100
0000
,
0010
1000
0010
0100
,
0001
0000
0010
0000
0100
0010
0001
0000
,
0100
0001
1000
0010
,
0101
1000
0100
0010
,
0011
1000
0001
0100
,
0110
0000
0010
1000
0010
0000
0100
0000
,
0001
0001
2000
0000
,
3001
0010
0000
0010
,
0000
0010
0000
0010
,
0100
1000
0010
0000
0000
0000
0010
0000
,
0000
0010
0000
0010
,
0100
0001
0010
0000
0000
0000
0010
0000
,
0100
1000
0001
0100
,
0001
1000
0010
0000
0000
0000
0010
0000
,
1000
0001
0010
0000
0200
0000
0000
0000
,
1300
0000
0001
0000
1000
0000
0100
1000
,
0000
0100
0010
0001
,
1000
0001
0100
0001
,
0010
0100
0000
0110
0000
0110
0000
0000
,
1000
0000
0001
0000
0010
0001
0010
0000
,
0001
0000
1000
0000
0100
1000
0100
0000
,
1000
0000
0001
0000
0010
0001
0010
0000
,
0001
0000
1000
0000
0100
1000
0100
0000
,
0010
0001
0100
1000
,
0010
0001
0100
1000
,
0110
0001
1000
0010
,
0110
0001
1000
0100
,
0010
0000
0100
0000
1000
0001
1000
0000
,
0010
0000
0100
0000
0001
1000
0001
0000
,
0010
0000
0100
0000
1000
0001
1000
0000
,
0010
0000
0100
0000
0001
1000
0001
0000
,
0011
1000
0010
0100
,
0101
1000
0100
0010
,
0001
1000
0001
0100
,
0010
0000
0000
0110
0000
0000
0001
0000
,
1000
0000
0000
0100
0010
0000
0001
0000
,
2000
0000
3002
0000
,
0013
0010
0010
0010
,
0100
0100
0100
0100
,
1000
1000
1000
1000
,
0001
0000
1000
0000
0010
0100
0001
0000
,
0011
0010
0010
0010
,
0100
0100
0100
0100
,
1000
1000
1000
1000
,
0010
0000
0100
0000
0001
1000
0001
0000
,
0001
0010
0001
0010
0001
0010
0001
0000
,
1000
0100
1000
0100
1000
0100
1000
0000
,
0010
0100
0010
0100
0010
0100
0010
0000
,
1000
0001
1000
0001
1000
0001
1000
0000
,
1000
0100
1000
0100
1000
0100
1000
0000
,
0001
0010
0001
0010
0001
0010
0001
0000
,
1000
0001
1000
0001
0100
0010
0100
0010
,
1000
0000
0001
0010
0100
0000
1000
0000
,
0110
0000
0000
0110
0000
0000
0220
0000
,
0000
0000
0000
0000
,
0000
0000
0000
0000
,
0330
0000
0000
0000
;

//--------------- dance-single - about-blank ----------------
#NOTES:
     dance-single:
     about-blank:
     Medium:
     13:
     0,0,0,0,0:
0000
0000
0000
0000
,
0000
0000
0000
0000
,
0000
0000
0000
0000
,
0000
0000
0000
0000
,
0000
0000
0000
0000
,
0000
0000
0000
0000
,
0000
0000
0000
0000
,
0000
0000
0000
0000
,
0000
0000
0000
0000
,
0101
0101
0101
0101
,
1010
1010
1010
1010
,
0011
0011
0011
0011
,
1000
0000
0001
0000
0010
0100
1000
0000
,
1100
1100
1100
1100
,
1001
1001
1001
1001
,
0110
0110
0011
0011
,
0001
0000
1000
0001
0000
1001
0000
0000
,
0010
0001
0010
0001
0010
0001
0010
0001
,
0100
0001
0100
0001
0100
0001
0100
0001
,
1000
0001
1000
0001
1000
0001
1000
0001
,
1000
0010
1000
0010
0100
0001
1000
0000
,
0101
0000
1000
0000
0010
0100
0001
0000
,
0011
0000
1000
0000
0100
0010
0001
0000
,
2100
3010
0002
0103
,
1000
0001
1000
0001
0010
0100
1000
1000
,
0002
0000
0103
0000
0001
0010
0001
0100
,
0010
1000
0010
1000
0010
1000
0010
1000
,
0001
0010
0001
0010
0001
0010
0001
0010
,
0100
1000
0100
1000
0001
1000
0100
0000
,
0120
0000
0031
0000
1000
0100
0001
0000
,
0120
0000
1030
0000
0001
0100
1000
0000
,
0001
0010
0001
0000
1000
0100
1000
0000
,
0010
0100
0010
0100
0002
0000
0000
0000
,
1003
0000
0100
0000
0000
0010
0001
0000
,
1000
0000
0001
0000
0100
0001
0100
0000
,
0001
0000
0010
0200
0000
0000
1300
0000
,
0010
0010
1000
0100
0000
1000
0001
0000
,
0200
1000
0000
1300
,
0001
0001
0010
1000
0000
0100
0010
0000
,
0001
0000
0100
0001
0000
0001
1000
0000
,
0010
0010
1000
0010
0000
0100
0001
0000
,
0011
0000
0010
0100
0000
0100
1000
0000
,
0010
0000
0100
0001
0000
0001
1000
0000
,
0001
0010
0001
0000
1000
0010
1000
0000
,
0001
1000
0000
0110
0000
1001
0000
0000
,
0001
1000
0001
1000
0100
0010
0100
0010
,
0001
1000
0001
1000
0010
0100
0010
0100
,
0001
1000
0001
1000
0100
0010
0100
0010
,
0001
1000
0001
1000
0010
0100
0010
0100
,
0001
0010
0001
0010
0001
0100
0001
0100
,
0010
1000
0010
1000
0100
1000
0100
1000
,
0001
1000
0010
0100
0001
1000
0100
0010
,
0001
1000
0000
0110
0000
0001
1000
0001
,
0100
0010
0100
0010
1000
0010
1000
0010
,
1000
0100
1000
0100
0010
0001
0010
0001
,
0100
0010
0100
0010
1000
0010
1000
0010
,
1000
0001
1000
0001
1000
0010
0100
0001
,
0010
0001
0010
0001
0100
0001
0100
0001
,
1000
0001
1000
0001
0100
0010
0100
0010
,
1000
0001
0010
0100
1000
0001
0100
0010
,
1000
0001
0000
0011
0000
0010
0100
1000
,
0020
0000
0000
0100
0130
0000
0001
1000
,
0100
0010
0000
0101
0000
1100
0000
0000
,
1010
1010
1010
1010
,
0101
0101
0101
0101
,
1100
1100
1100
1100
,
0001
0010
0100
0000
1000
0010
0100
0000
,
0101
0101
0101
0101
,
1010
1010
1010
1010
,
0011
0011
1100
1100
,
0001
0010
0100
1000
0010
0100
0001
1000
,
0001
0100
1000
0100
0001
0100
1000
0100
,
0001
0010
1000
0010
0001
0010
1000
0010
,
0001
0100
0010
0100
0001
0100
0010
0100
,
0001
0010
0100
0010
0001
0010
0100
1000
,
0010
1000
0100
1000
0010
1000
0100
1000
,
0010
0100
0001
0100
0010
0100
0001
0100
,
0010
1000
0100
0010
0001
0100
0010
1000
,
0001
0000
1000
0100
0010
0001
0100
0010
,
0110
0000
0000
1001
0000
0000
1001
2002
,
0000
0000
0000
0000
,
0000
0000
0000
0000
,
3003
0000
0000
0000
;

//--------------- dance-single - about-blank ----------------
#NOTES:
     dance-single:
     about-blank:
     Hard:
     14:
     0,0,0,0,0:
0000
0000
0000
0000
,
0000
0000
0000
0000
,
0000
0000
0000
0000
,
0000
0000
0000
0000
,
0000
0000
0000
0000
,
0000
0000
0000
0000
,
0000
0000
0000
0000
,
0000
0000
0000
0000
,
0000
0000
0000
0000
,
1020
0001
1030
0001
,
1200
0001
1300
0001
,
0201
1000
0301
1000
,
0001
0010
0001
0100
1000
0100
0001
0010
,
0021
0100
1000
0031
,
1020
0100
0001
1030
,
0102
0103
2010
3010
,
0001
0010
0100
1000
0010
0100
0001
1000
,
0020
0000
0100
0000
0130
0000
0010
0100
,
0001
1000
0001
1000
0001
0010
0100
1000
,
0002
0000
0103
0020
0000
1030
0001
2000
,
0100
0000
3100
0000
1000
0001
0011
0000
,
2001
0000
3010
0000
0010
1000
0100
0010
,
0002
0000
1003
0000
0010
0100
0010
0000
,
1200
0301
0021
1030
,
0001
0000
0010
0000
1000
0000
0010
0000
0001
0000
1000
0000
0010
0100
0010
0000
,
0120
0000
1030
0000
0010
1000
0010
1000
,
0001
0100
0010
1000
0001
0010
0100
1000
,
0002
0000
1003
0020
0000
0031
1000
0200
,
0010
0000
0301
0000
1000
0001
1100
0000
,
1020
0000
0031
0000
1000
0100
0001
0000
,
0021
0000
1030
0000
0001
0100
1000
0000
,
1020
0000
0031
0010
1010
0000
0110
0000
,
0001
0100
0001
1000
0010
0010
0100
0100
,
1002
0000
0000
0000
0013
0100
1000
0010
,
0000
0010
0001
0000
0010
0000
1000
0000
,
1002
0100
0000
0103
,
0001
0000
1000
0000
0001
0010
0000
0001
,
0020
1000
0000
1030
,
0002
0100
0000
0103
,
1000
0000
0010
1010
0000
0101
0000
1000
,
0020
0001
0100
0031
,
0201
0000
0000
0000
1300
0001
0010
1000
,
0000
0100
0010
0000
0001
0000
1000
0000
,
0120
0000
0000
1030
0002
0000
0100
0003
,
1000
1100
0000
0101
0000
1001
0000
0000
,
1000
0010
1000
0100
1000
0010
0100
0001
,
0010
0001
0100
0001
0010
0001
2000
0000
,
3001
0010
0001
0100
0010
1000
0100
1000
,
0010
1000
0100
1000
0001
1000
0200
0000
,
0320
0000
0031
1000
0010
0100
0001
1000
,
0100
0001
0100
1000
0001
0100
1000
0100
,
0002
0000
1003
0010
1000
0001
0100
0100
,
0010
1000
0000
1001
0000
1100
0000
1000
,
0001
0100
0010
0100
0001
0010
0100
1000
,
0010
1000
0001
1000
0100
1000
0020
0000
,
1030
0100
1000
0001
1000
0100
0010
0001
,
0010
0100
0010
0001
1000
0010
0100
0001
,
0200
0000
0310
1000
0001
0100
0010
0100
,
0001
0010
0100
0010
0001
0010
0100
1000
,
0001
0100
1000
0100
0001
0010
1000
0010
,
0001
0100
0000
0101
0000
0001
0010
0100
,
1001
0000
0000
1000
0001
0000
0100
0010
,
1000
0001
0000
0110
0000
1001
0000
0000
,
1001
0000
0010
1000
0010
0000
0101
0000
,
0001
0010
0001
0000
1010
0000
1000
0100
,
0110
0000
0010
0001
0010
0000
1001
0000
,
0001
1000
0010
0100
0001
0010
0100
1000
,
1001
0000
0001
0100
0001
0000
0011
0000
,
1000
0010
1000
0000
1100
0000
0100
0010
,
0011
0000
0001
0100
1000
0000
1001
0000
,
0001
1000
0010
0100
0001
0010
0100
1000
,
0001
0100
0010
0100
0001
0100
0010
1000
,
0001
0010
0100
0010
0001
0010
0100
1000
,
0100
1000
0010
1000
0100
1000
0010
1000
,
0010
0100
1000
0100
0001
0010
1000
0010
,
0001
1000
0100
1000
0001
1000
0100
1000
,
0001
1000
0010
1000
0001
1000
0010
1000
,
0001
0010
1000
0001
0100
1000
0010
0100
,
0000
0001
0100
0010
1000
0100
0010
0001
,
1001
0000
0000
1001
0000
0000
2000
0002
,
0000
0000
0000
0000
,
3003
0000
0000
0000
;
