#TITLE:0/1 ANGEL;
#SUBTITLE:;
#ARTIST:V.C.O. featuring Alt;
#TITLETRANSLIT:;
#SUBTITLETRANSLIT:;
#ARTISTTRANSLIT:;
#GENRE:;
#CREDIT:;
#MUSIC:0-1 ANGEL.ogg;
#BANNER:;
#BACKGROUND:;
#CDTITLE:;
#SAMPLESTART:54.280;
#SAMPLELENGTH:15.000;
#SELECTABLE:YES;
#OFFSET:0.550;
#BPMS:0.000=140.000;
#STOPS:;
#BGCHANGES:;
#FGCHANGES:;

//--------------- dance-single - forcednature ----------------
#NOTES:
     dance-single:
     forcednature:
     Beginner:
     2:
     0,0,0,0,0:
0000
0000
0000
0000
,
0000
0000
0000
0000
,
0000
0000
0000
0000
,
0000
0000
0000
0000
,
0000
0000
0000
0000
,
0000
0000
0000
0000
,
0001
0000
0000
0000
,
1000
0000
0000
0000
,
0010
0000
0000
0000
,
0100
0000
0100
0000
,
0001
0000
0000
0000
,
1000
0000
0000
0000
,
0100
0000
0000
0000
,
0010
0000
0010
0000
,
0010
0000
0000
0000
,
0001
0000
0000
0000
,
1000
0000
0000
0000
,
0010
0000
0010
0000
,
0100
0000
0000
0000
,
0001
0000
0000
0000
,
1000
0000
0000
0000
,
0100
0000
0100
0000
,
0100
0000
0000
0000
,
0010
0000
0000
0000
,
0001
0000
0001
0000
,
0001
0000
0000
0000
,
1000
0000
0000
0000
,
0010
0000
0000
0000
,
0100
0000
0100
0000
,
0100
0000
0000
0000
,
0001
0000
0001
0000
,
0001
0000
0000
0000
,
1001
0000
0000
0000
,
1000
0000
0000
0000
,
0010
0000
0010
0000
,
0010
0000
0010
0000
,
0100
0000
0000
0000
,
0001
0000
0000
0000
,
0010
0000
0010
0000
,
0010
0000
0010
0000
,
0100
0000
0000
0000
,
1000
0000
0000
0000
,
0100
0000
0100
0000
,
0100
0000
0100
0000
,
0010
0000
0000
0000
,
0001
0000
0000
0000
,
0100
0000
0000
0000
,
0010
0000
0000
0000
,
1000
0000
0001
0000
,
1000
0000
0000
0000
,
0010
0000
0100
0000
,
0001
0000
0000
0000
,
0010
0000
0100
0000
,
0010
0000
0000
0000
,
0001
0000
0100
0000
,
0010
0000
0000
0000
,
1000
0000
0000
0000
;

//--------------- dance-single - forcednature ----------------
#NOTES:
     dance-single:
     forcednature:
     Easy:
     6:
     0,0,0,0,0:
0000
0000
0000
0000
,
0000
0000
0000
0000
,
0000
0000
0000
0000
,
0000
0000
0000
0000
,
0000
0000
0000
0000
,
0000
0000
0000
0000
,
1000
0001
0100
0000
,
0001
1000
0100
0000
,
0010
0001
0100
0001
,
0010
0100
1000
0000
,
0010
0100
0010
0000
,
1000
0001
0010
0000
,
0001
1000
0100
0000
,
1000
0010
0100
0001
,
0100
0000
0010
1000
,
0001
0000
0010
0100
,
1000
0000
0010
0100
,
0001
0010
0001
0100
,
0010
0000
1000
0100
,
0010
0000
0100
1000
,
0001
0000
0100
0001
,
1000
0010
1000
0001
,
1001
1000
1000
0001
,
0001
0100
0010
1000
,
0100
0010
0100
1000
,
0001
0100
0010
0000
,
1001
0001
0001
1000
,
0010
1000
0100
0010
,
0001
0100
0001
0010
,
0100
1000
0010
0000
,
0100
0010
1000
0001
,
0010
0000
0000
0000
0100
0000
1000
0000
0000
1000
0000
0000
1000
0000
0001
0000
,
1000
0010
0100
0010
,
1000
0001
0010
0000
,
0110
1000
0110
0001
,
1001
0100
1001
0010
,
1000
0001
0100
0001
,
1000
0010
0100
0000
,
0110
1000
0110
0001
,
1001
0110
1001
0000
,
1000
0010
0100
0001
,
0010
0100
1000
0000
,
0101
0010
1100
0010
,
1001
0110
1001
0110
,
2000
0000
0000
3002
0000
0000
0200
0000
,
0000
0000
0000
0303
0000
0000
0000
0000
,
0002
0000
0000
0000
0000
2003
0000
0000
,
0200
0000
0000
0000
0000
3300
0000
0000
,
1001
1000
0010
0100
,
0001
0010
0000
0000
,
0100
0010
0001
1000
,
0010
0100
0001
0000
,
1000
0100
1000
0010
,
0100
0001
0000
0000
,
0010
0100
0010
0001
,
1000
0010
0100
0001
;

//--------------- dance-single - forcednature ----------------
#NOTES:
     dance-single:
     forcednature:
     Medium:
     9:
     0,0,0,0,0:
0000
0000
0000
0000
,
0000
0000
0000
0000
,
0000
0000
0000
0000
,
0000
0000
0000
0000
,
0000
0000
0000
0000
,
0000
0000
0000
0000
,
1100
0000
0000
0001
0000
0010
0001
0000
,
0101
0000
0000
0100
0000
0010
1000
0000
,
0110
0000
0000
0001
0000
1000
0100
0000
,
0010
0001
1000
0010
,
0110
0000
0000
0001
0000
1000
0100
0000
,
0110
0000
0000
1000
0000
0001
0100
0000
,
1001
0000
0000
1000
0000
0010
0100
0000
,
0101
0000
0010
0000
1000
0001
0010
0000
,
0110
0000
1000
0000
0001
0100
0010
0000
,
1100
0000
0001
0000
1000
0010
0100
0000
,
1001
0000
0001
0000
0010
0100
1000
0000
,
1010
1010
0101
0101
,
1001
0000
1000
0000
0100
0010
0001
0000
,
0110
0000
1000
0000
0001
0100
0010
0000
,
1001
0000
1000
0000
0100
0010
0001
0000
,
0101
1000
1010
0001
,
1100
0001
0100
0010
,
1000
0100
0000
0010
0000
0100
1000
0000
,
1001
0002
0203
0302
,
2003
3020
2030
3002
,
0013
0100
0010
0001
,
0100
0010
0000
1000
0000
0001
0100
0000
,
1001
2000
3020
2030
,
3002
0000
0023
0000
0130
1000
0100
0010
,
0001
0100
0010
1000
,
0001
0000
0000
0000
0010
0000
0100
0000
0000
0100
0000
0000
1000
0000
0100
0000
,
1100
0000
0001
0100
0101
0000
1000
0010
,
0000
0100
0001
0000
0010
0100
1000
0000
,
0010
0100
0001
0100
,
0010
1000
0001
0010
,
1100
0000
0001
0100
0101
0000
1000
0010
,
0000
1000
0001
0000
0010
0000
0100
0000
,
0110
0000
0010
0000
0001
1000
0001
0000
,
0100
0000
0010
0000
1000
0001
1000
0000
,
1100
0000
0001
0100
0101
0000
1000
0010
,
0000
0100
0001
0000
0010
0000
1001
0000
,
1100
0000
0010
0000
0100
0000
0001
0010
,
0100
1000
0001
0000
0100
0010
1000
0000
,
0022
0000
0033
2002
0000
3003
2200
0000
,
0000
0000
0000
3300
0000
0000
0000
0000
,
2020
0000
3030
2002
0000
3003
0202
0000
,
0000
0000
0000
0303
0000
0000
1000
0001
,
1000
0000
0100
0010
0001
0000
0100
0010
,
1000
0001
1000
0000
0100
0000
1000
0000
,
0010
0000
0100
0001
0010
0100
0000
0010
,
0001
1000
0001
0000
0100
0000
0010
0000
,
1000
0000
0100
0010
0001
0000
0100
0010
,
1000
0001
1000
0000
0100
0000
1000
0000
,
0010
0000
0100
0001
0010
0100
1000
0010
,
0100
0010
1000
0000
0001
0010
0001
0100
;

//--------------- dance-single - forcednature ----------------
#NOTES:
     dance-single:
     forcednature:
     Hard:
     11:
     0,0,0,0,0:
0000
0000
0000
0000
,
0000
0000
0000
0000
,
0000
0000
0000
0000
,
0000
0000
0000
0000
,
0000
0000
0000
0000
,
0000
0000
0000
0000
,
0101
0000
1000
0100
0010
0001
1000
0000
,
1100
0000
0001
0100
0010
1000
0001
0000
,
1001
0000
1000
0010
0100
0010
1000
0000
,
0001
0010
0100
0000
0010
0001
0100
0000
,
0110
0000
0010
1000
0001
0010
0100
0000
,
0110
0000
0010
0001
1000
0010
0100
0000
,
1001
0000
1000
0100
1000
0010
0100
0001
,
0010
0101
0010
1100
,
0001
0000
0100
0000
0001
0000
1000
0000
0010
0000
0000
1000
0000
0000
0001
0000
,
0010
0000
0100
0000
1000
0000
0001
0000
0100
0000
0000
0010
0000
0000
1000
0000
,
0100
0000
1000
0000
0010
0000
0100
0000
0001
0000
0000
0010
0000
0000
0001
0000
,
0100
0000
0010
0000
1000
0000
0100
0000
0010
0000
0000
0001
0000
0000
1000
0000
,
0010
0000
0100
0000
0001
0000
1000
0000
0100
0000
0000
1000
0000
0000
0010
0000
,
0100
0000
0001
0000
0010
0000
0001
0000
1000
0000
0000
0010
0000
0000
0100
0000
,
0001
0000
0010
0000
0100
0000
1000
0000
0100
0000
0000
0010
0000
0000
0001
0000
,
1000
0000
0010
0000
0100
0000
0010
0000
1000
0000
0000
0001
0000
0000
1000
0000
,
0100
0000
0001
0000
0100
0100
0010
0000
,
0001
1000
0000
0010
0000
0100
0001
0000
,
1001
0000
1000
0000
0100
0010
0002
0000
,
0203
0320
2030
3002
,
0013
0000
0100
1000
0010
1000
0001
0000
,
0100
0001
0010
0001
0000
0100
0010
0000
,
2000
0100
0001
0010
,
0001
0000
0100
0000
3001
1000
0010
0200
,
1000
0010
0001
0010
,
1000
0000
0000
0000
0301
0000
0100
0001
0000
1000
0010
0000
1000
0000
0001
0000
,
1001
0000
0001
0010
0100
0000
1000
0100
,
0000
0010
0001
0000
1000
0000
1010
0000
,
0100
0100
0100
0001
1000
0000
0010
0100
,
0001
0010
0100
0100
1000
0000
0110
0000
,
0101
0000
1000
0010
0001
0000
0010
0100
,
0001
1000
0100
0010
0001
0000
1001
0000
,
1000
1000
1000
0100
1000
0010
0100
0001
,
0010
0001
0100
0010
1000
0000
0001
0000
,
0011
0000
1000
0100
0010
0000
0100
1000
,
0010
0100
0010
1000
0100
1000
0001
0100
,
0001
0001
0001
0010
0001
0100
0010
1000
,
0100
1000
0010
0100
0001
0010
0100
0000
,
2200
0000
3300
0202
0000
0303
2002
0000
,
0000
0000
3003
0000
,
0022
0000
0033
2020
0000
3030
2002
0000
,
0000
0000
0000
0000
0000
0000
3003
0000
1000
0000
1000
0000
0001
0100
0010
1000
,
0001
0000
0010
0100
1000
0000
0010
0100
,
0001
0100
0010
0000
1000
0000
0100
0010
,
0001
0000
0100
0010
1000
0010
0100
0001
,
1000
0001
0010
0100
0010
0000
0011
0000
,
1100
0000
0001
1000
0010
0100
0001
1000
,
0100
0010
0100
0000
1000
0001
0100
0010
,
1000
0000
0001
0010
0100
1000
0001
1000
,
0010
0000
0001
0000
0010
0000
0000
0000
0100
0001
0100
0000
0010
1000
0010
1000
;
