#TITLE:找自己;
#ARTIST:泳兒;
#TITLETRANSLIT:ZHAO ZI JI;
#ARTISTTRANSLIT:CHAN VINCY;
#BANNER:ZHAO ZI JI.png;
#BACKGROUND:ZHAO ZI JI-bg.png;
#CDTITLE:./CDTITLES/DanceDanceRevolution UNIVERSE3 Chinese Special Edition.png;
#MUSIC:ZHAO ZI JI.ogg;
#SAMPLESTART:55.5;
#SAMPLELENGTH:15;
#BPMS:0=160;

//---------------dance-single - ----------------
#NOTES:
     dance-single:
     :
     Beginner:
     1:
     :
0000
0000
0000
0000
,
0000
0000
0000
0000
,
0000
0000
0000
0000
,
0000
0000
0000
0000
,
0000
0000
0000
0000
,
0001
0000
0000
0000
,
1000
0000
0000
0000
,
0001
0000
0000
0000
,
1000
0000
0000
0000
,
0100
0000
0000
0000
,
0010
0000
0000
0000
,
0100
0000
0000
0000
,
0010
0000
0010
0000
,
0001
0000
0000
0000
,
1000
0000
0000
0000
,
0010
0000
0000
0000
,
0100
0000
0000
0000
,
0001
0000
0000
0000
,
1000
0000
0000
0000
,
0010
0000
0000
0000
,
0100
0000
0000
0000
,
0001
0000
0001
0000
,
0010
0000
0000
0000
,
0100
0000
1000
0000
,
0100
0000
0000
0000
,
0010
0000
0010
0000
,
0010
0000
0000
0000
,
0001
0000
0001
0000
,
0001
0000
0000
0000
,
1000
0000
1000
0000
,
1000
0000
0000
0000
,
0010
0000
0100
0000
,
0010
0000
0000
0000
,
0100
0000
0100
0000
,
0001
0000
0000
0000
,
1000
0000
1000
0000
,
0100
0000
0000
0000
,
0010
0000
0001
0000
,
0010
0000
0000
0000
,
0100
0000
1000
0000
,
0100
0000
0000
0000
,
1000
0000
0001
0000
,
1000
0000
0000
0000
,
0001
0000
0100
0000
,
0001
0000
0000
0000
,
0100
0000
0100
0000
,
0010
0000
0010
0000
,
1000
0000
0001
0000
,
1000
0000
0000
0000
,
0100
0000
0100
0000
,
0010
0000
0010
0000
,
0001
0000
1000
0000
,
0001
0000
0000
0000
,
0100
0000
0010
0000
,
0100
0000
0000
0000
,
0001
0000
1000
0000
,
0001
0000
0000
0000
,
1000
0000
0100
0000
,
0010
0000
0000
0000
,
0010
0000
0100
0000
,
1000
0000
0000
0000
,
0002
0000
0000
0003
;

//---------------dance-single - ----------------
#NOTES:
     dance-single:
     :
     Easy:
     2:
     :
0000
0000
0000
0000
,
0000
0000
0000
0000
,
0000
0000
0000
0000
,
0000
0000
0000
0000
,
0000
0000
0000
0000
,
1000
0000
1000
0000
,
0100
0000
0100
0000
,
0010
0000
0010
0000
,
0001
0000
0001
0000
,
1000
0000
1000
0000
,
0010
0000
0100
0000
,
0001
0000
0001
0000
,
0010
0000
0100
0000
,
1000
0000
1000
0000
,
0001
0000
0001
0000
,
0100
0010
0100
0000
,
0001
1000
0001
0000
,
1000
0000
0100
0000
,
0010
0100
0010
0000
,
0001
0010
0001
0000
,
1000
0001
1000
0001
,
0100
0000
0010
0000
,
1000
0000
0001
0000
,
0010
0000
0100
0000
,
0010
0000
0000
0000
,
0001
0000
1000
0000
,
0010
0100
0010
0000
,
1000
0000
0001
0000
,
0010
0100
0010
0000
,
0100
0000
1000
0000
,
0001
0100
1000
0000
,
0100
0000
0001
0000
,
0010
0100
1000
0000
,
0100
0000
0010
0000
,
0001
0000
0010
0000
,
0100
0000
1000
0000
,
0001
0000
1000
0000
,
0010
0000
0100
0000
,
0001
1000
0001
0000
,
0010
0000
0100
0000
,
0010
0001
1000
0010
,
0100
0000
0001
0000
,
0100
0010
1000
0000
,
0001
0000
0100
0000
,
0001
0010
0100
1000
,
0001
0000
0100
0000
,
0010
0000
1000
0000
,
0001
0000
0001
0000
,
1000
0000
1000
0000
,
0100
0000
0010
0000
,
0001
0000
0010
0000
,
0100
0000
0100
0000
,
1000
0000
1000
0000
,
0001
0000
0100
0000
,
0010
0000
1000
0000
,
0100
0000
0100
0000
,
0010
0000
0010
0000
,
0001
0000
0001
0000
,
1000
0000
0010
0000
,
0100
0000
0100
0000
,
0001
0000
1000
0100
,
0020
0000
0000
0030
;

//---------------dance-single - ----------------
#NOTES:
     dance-single:
     :
     Medium:
     5:
     :
0000
0000
0000
0000
,
0000
0000
0000
0000
,
0000
0000
0000
0000
,
0000
0000
0000
0000
,
0000
0000
0000
0000
,
0001
0000
0000
0100
0000
0010
0100
0000
,
0001
0000
0000
1000
0000
0100
1000
0000
,
0010
0000
0000
0100
0000
0001
0100
0000
,
0001
0000
0000
0010
0000
0100
0010
0000
,
0100
0000
0000
1000
0000
0001
1000
0000
,
0010
0000
0000
0100
0000
0001
0100
0000
,
0001
0000
0000
1000
0000
0001
1000
0000
,
0100
0010
0000
0001
0000
1000
0000
0000
,
0001
0000
0001
0000
,
0010
0000
0000
0000
0010
0100
1000
0000
,
0001
0000
0100
0000
,
0010
0000
1000
0000
0100
0010
0100
0000
,
1000
0000
0001
0000
,
0100
0000
0001
0000
0010
0100
1000
0000
,
0100
0000
0010
0000
,
0100
1000
0100
0000
0010
0001
0010
0000
,
0001
0000
0100
0000
,
0010
1000
0001
0000
,
0010
0000
0100
0000
,
0010
0000
0000
0000
,
0001
1000
0010
0000
,
0100
0001
1000
0000
,
0100
0010
0100
1000
,
0001
0100
0001
0000
1000
0100
1000
0000
,
0010
0100
0001
0000
,
0010
0100
1000
0000
,
0100
0000
0010
0000
,
0001
0010
0100
0000
1000
0100
0010
0001
,
0100
0000
0001
0000
,
1000
0100
0010
0000
,
0100
0000
1000
0000
,
0010
0100
0010
1000
,
0001
0000
1000
0000
,
0100
0010
0100
1000
,
0001
0000
0100
0000
,
0010
0100
0001
0010
,
0100
0000
0100
0000
,
1000
0001
1000
0000
,
0010
0000
0010
0000
,
0100
0100
0001
0010
,
0100
0000
1000
0000
0001
1000
0001
0000
,
0100
0000
0010
0000
1000
0010
1000
0000
,
0001
0000
0010
0000
0100
1000
0100
0000
,
0010
0000
0001
0000
0010
0100
0010
0100
,
0010
0000
0001
0000
0100
0010
0100
0010
,
0100
0000
0001
0000
1000
0001
1000
0001
,
1000
0000
0100
0000
0010
0100
0010
0100
,
0010
0000
0000
0000
0000
0000
0000
0000
0000
0000
0001
0000
0000
0000
0000
0000
0000
0000
0000
0000
0000
0010
0000
0000
0000
0000
0000
0000
0000
0000
0000
0000
0100
0000
0000
0000
0000
0000
0000
0000
0000
0000
1000
0000
0000
0000
0000
0000
0000
0000
0000
0000
0000
0100
0000
0000
0000
0000
0000
0000
0000
0000
0000
0000
,
0010
0000
0001
0000
1000
0010
0100
0000
,
0001
0000
0100
0000
0010
1000
0001
0000
,
0010
0000
0100
0000
1000
0100
0010
0000
,
0100
1000
0001
0000
0100
0001
1000
0000
,
0010
0000
0100
0000
0001
1000
0001
0000
,
0010
0000
0100
0000
1000
0001
1000
0000
,
0010
0000
0100
0000
0001
0010
0100
0000
,
1000
0100
0001
0000
0001
0100
1000
0000
,
0001
0100
0010
0000
1000
0001
0000
1001
;

//---------------dance-single - ----------------
#NOTES:
     dance-single:
     :
     Hard:
     7:
     :
0000
0000
0000
0000
,
0000
0000
0000
0000
,
0000
0000
0000
0000
,
0000
0000
0000
0000
,
0000
0000
0000
0000
,
1001
0000
0100
0010
0000
0010
0100
0000
,
0001
0000
0010
0100
0000
0100
0010
0000
,
1001
0000
1000
0010
0000
0010
1000
0000
,
0001
0000
0010
0001
0000
0001
0100
0000
,
1001
0000
0010
0100
0000
0100
0001
0000
,
0010
0000
0100
1000
0000
1000
0001
0000
,
1001
0000
0100
0010
0000
0010
1000
0000
,
0001
0010
0000
0110
0000
1001
0000
0000
,
1000
0010
0000
1000
0010
1000
0000
0010
,
0100
0001
0000
0100
0001
0100
0010
1000
,
0001
0010
0000
0001
0010
0001
0000
0010
,
0100
1000
0000
0100
1000
0100
0000
1000
,
0001
0100
0000
0001
0100
0001
0000
0100
,
0010
1000
0000
0010
1000
0010
0000
1000
,
0001
0010
0000
0001
0010
0001
0000
0010
,
0100
0010
0000
0100
0010
0100
1000
0001
,
0100
0000
0010
0000
0110
0000
0000
0100
,
0001
1000
0001
0000
1001
0000
0000
1000
,
0100
0000
0100
0000
0110
0000
0000
0001
,
1000
0000
0000
0000
0001
0010
0100
0010
,
0001
1000
0000
0001
1000
0001
0000
0100
,
0010
0100
0000
0010
0100
0010
0000
1000
,
0100
1000
0000
0100
1000
0100
0000
0010
,
0001
0010
0000
0001
0010
0001
0000
1000
,
0010
1000
0000
0010
1000
0010
0000
0100
,
0001
0100
0000
0001
0100
0001
0000
0010
,
0100
0010
0000
0100
0010
0100
0000
1000
,
0001
1000
0010
0100
0010
0100
0001
0010
,
0100
0000
1000
0000
1100
0000
0000
0001
,
0010
0100
0010
0000
1001
0000
0000
0100
,
0010
0000
0010
0000
1010
0000
0000
0100
,
0001
1000
0001
0010
0100
0010
0100
0010
,
0001
0000
1001
0000
0010
1000
0001
0000
,
0010
0000
0100
1000
0000
1000
0001
0000
,
0100
0000
1010
0000
0100
0001
1000
0000
,
0010
0100
0001
1000
0000
0001
0010
0000
,
0100
0000
1001
0000
0100
0001
1000
0000
,
0100
0000
0010
0001
0000
0001
1000
0000
,
0010
0000
0101
0000
0010
1000
0001
0000
,
0100
0000
0000
0100
0001
0000
1000
0000
0010
0000
1000
0000
0100
0000
0010
0000
,
0001
0000
0010
0100
0000
1000
0001
0000
,
1000
0000
0001
0100
0010
0100
0001
0000
,
0010
0000
0100
1000
0000
1000
0010
0000
,
0100
0001
1000
0100
0000
0010
0100
0010
,
0001
0000
1000
0010
1000
0010
0100
0001
,
0100
0000
0001
0010
0001
0010
0100
1000
,
0001
0000
0100
0010
0100
0010
1000
0001
,
1000
0000
0000
0000
0000
0000
0000
0000
0000
0000
0100
0000
0000
0000
0000
0000
0000
0000
0000
0000
0000
1000
0000
0000
0000
0000
0000
0000
0000
0000
0000
0000
0001
0000
0000
0000
0000
0000
0000
0000
0000
0000
0100
0000
0000
0000
0000
0000
0000
0000
0000
0000
0000
0001
0000
0000
0000
0000
0000
0000
0000
0000
0000
0000
,
1000
0000
0100
0010
0000
0010
0100
0000
,
1000
0000
0001
0100
0000
0001
0010
0000
,
0100
0000
1000
0001
0000
0001
1000
0000
,
0010
0100
0001
1000
0000
0001
1000
0000
,
0010
0000
0100
0001
0000
0001
1000
0000
,
0100
0000
0010
0001
0000
1000
0001
0000
,
0100
0000
0010
1000
0000
1000
0001
0000
,
0010
0100
1000
0001
0000
0100
0001
0000
,
0010
0100
1000
0000
0001
0100
0000
1001
;

//---------------dance-double - ----------------
#NOTES:
     dance-double:
     :
     Beginner:
     1:
     :
00000000
00000000
00000000
00000000
,
00000000
00000000
00000000
00000000
,
00000000
00000000
00000000
00000000
,
00000000
00000000
00000000
00000000
,
00000000
00000000
00000000
00000000
,
10000000
00000000
00000000
00000000
,
01000000
00000000
00000000
00000000
,
10000000
00000000
00000000
00000000
,
01000000
00000000
00000000
00000000
,
00100000
00000000
00000000
00000000
,
01000000
00000000
00000000
00000000
,
00100000
00000000
00000000
00000000
,
00001000
00000000
00001000
00000000
,
00010000
00000000
00000000
00000000
,
00000100
00000000
00000000
00000000
,
00001000
00000000
00000000
00000000
,
00000001
00000000
00000000
00000000
,
00000100
00000000
00000000
00000000
,
00000010
00000000
00000000
00000000
,
00010000
00000000
00000000
00000000
,
00001000
00000000
00000000
00000000
,
00100000
00000000
00100000
00000000
,
00010000
00000000
00000000
00000000
,
10000000
00000000
00100000
00000000
,
10000000
00000000
00000000
00000000
,
00100000
00000000
00100000
00000000
,
00100000
00000000
00000000
00000000
,
01000000
00000000
01000000
00000000
,
01000000
00000000
00000000
00000000
,
00001000
00000000
00001000
00000000
,
00001000
00000000
00000000
00000000
,
00010000
00000000
00001000
00000000
,
00010000
00000000
00000000
00000000
,
00000100
00000000
00000100
00000000
,
00000010
00000000
00000000
00000000
,
00000001
00000000
00000001
00000000
,
00000100
00000000
00000000
00000000
,
00000010
00000000
00010000
00000000
,
00001000
00000000
00000000
00000000
,
00100000
00000000
00010000
00000000
,
10000000
00000000
00000000
00000000
,
00100000
00000000
01000000
00000000
,
00001000
00000000
00000000
00000000
,
00010000
00000000
00000100
00000000
,
00010000
00000000
00000000
00000000
,
00000100
00000000
00000100
00000000
,
00000010
00000000
00000010
00000000
,
00000001
00000000
00001000
00000000
,
00000001
00000000
00000000
00000000
,
00000100
00000000
00000100
00000000
,
00000010
00000000
00000010
00000000
,
00010000
00000000
00001000
00000000
,
00010000
00000000
00000000
00000000
,
00001000
00000000
00100000
00000000
,
00010000
00000000
00000000
00000000
,
01000000
00000000
00100000
00000000
,
10000000
00000000
00000000
00000000
,
01000000
00000000
00100000
00000000
,
00001000
00000000
00000000
00000000
,
00010000
00000000
00000100
00000000
,
00001000
00000000
00000000
00000000
,
00000002
00000000
00000000
00000003
;

//---------------dance-double - ----------------
#NOTES:
     dance-double:
     :
     Easy:
     2:
     :
00000000
00000000
00000000
00000000
,
00000000
00000000
00000000
00000000
,
00000000
00000000
00000000
00000000
,
00000000
00000000
00000000
00000000
,
00000000
00000000
00000000
00000000
,
00000001
00000000
00000001
00000000
,
00000010
00000000
00000010
00000000
,
00000100
00000000
00000100
00000000
,
00010000
00000000
00010000
00000000
,
00001000
00000000
00001000
00000000
,
00100000
00000000
00010000
00000000
,
10000000
00000000
00010000
00000000
,
01000000
00000000
00001000
00000000
,
00010000
00000000
00010000
00000000
,
00000100
00000000
00000100
00000000
,
00001000
00000001
00001000
00000000
,
00000010
00000100
00000010
00000000
,
00010000
00000000
00001000
00000000
,
00100000
00010000
00100000
00000000
,
00010000
01000000
00010000
00000000
,
01000000
00100000
01000000
00100000
,
10000000
00000000
01000000
00000000
,
00010000
00000000
00001000
00000000
,
00000100
00000000
00000001
00000000
,
00000010
00000000
00000000
00000000
,
00000100
00000000
00010000
00000000
,
00001000
00100000
00010000
00000000
,
10000000
00000000
01000000
00000000
,
00010000
00001000
00010000
00000000
,
00001000
00000000
00000100
00000000
,
00000001
00001000
00000001
00000000
,
00000010
00000000
00000100
00000000
,
00010000
00001000
00100000
00000000
,
00010000
00000000
01000000
00000000
,
00100000
00000000
10000000
00000000
,
00100000
00000000
00010000
00000000
,
00001000
00000000
00000100
00000000
,
00000001
00000000
00000010
00000000
,
00000100
00010000
00001000
00000000
,
00100000
00000000
00010000
00000000
,
01000000
00010000
10000000
00010000
,
00100000
00000000
00001000
00000000
,
00010000
00000100
00001000
00000000
,
00000010
00000000
00000100
00000000
,
00000001
00000010
00000100
00000010
,
00000001
00000000
00000100
00000000
,
00000010
00000000
00010000
00000000
,
00001000
00000000
00001000
00000000
,
00100000
00000000
00100000
00000000
,
00010000
00000000
01000000
00000000
,
00100000
00000000
10000000
00000000
,
01000000
00000000
01000000
00000000
,
00100000
00000000
00100000
00000000
,
00001000
00000000
00010000
00000000
,
00000010
00000000
00001000
00000000
,
00000001
00000000
00000001
00000000
,
00001000
00000000
00001000
00000000
,
00000100
00000000
00000100
00000000
,
00010000
00000000
00001000
00000000
,
00100000
00000000
00100000
00000000
,
00010000
00000000
10000000
01000000
,
00020000
00000000
00000000
00030000
;

//---------------dance-double - ----------------
#NOTES:
     dance-double:
     :
     Medium:
     5:
     :
00000000
00000000
00000000
00000000
,
00000000
00000000
00000000
00000000
,
00000000
00000000
00000000
00000000
,
00000000
00000000
00000000
00000000
,
00000000
00000000
00000000
00000000
,
10000000
00000000
00000000
00100000
00000000
01000000
00010000
00000000
,
00100000
00000000
00000000
00001000
00000000
00010000
00001000
00000000
,
00010000
00000000
00000000
00000100
00000000
00001000
00000100
00000000
,
00000010
00000000
00000000
00000001
00000000
00001000
00000001
00000000
,
00000100
00000000
00000000
00000010
00000000
00010000
00001000
00000000
,
00100000
00000000
00000000
00010000
00000000
10000000
00010000
00000000
,
00100000
00000000
00000000
01000000
00000000
10000000
00010000
00000000
,
01000000
00100000
00000000
00010000
00000000
00001000
00000000
00000000
,
00010000
00000000
00010000
00000000
,
00000100
00000000
00000000
00000000
00000100
00000010
00000001
00000000
,
00000100
00000000
00001000
00000000
,
00100000
00000000
00010000
00000000
01000000
00100000
01000000
00000000
,
00100000
00000000
10000000
00000000
,
01000000
00000000
00010000
00000000
00001000
00010000
00001000
00000000
,
00010000
00000000
00000010
00000000
,
00001000
00000001
00001000
00000000
00000100
00000010
00000100
00000000
,
00010000
00000000
00001000
00000000
,
01000000
00100000
10000000
00000000
,
01000000
00000000
00010000
00000000
,
00001000
00000000
00000000
00000000
,
00000100
00000001
00000100
00000000
,
00000010
00010000
00001000
00000000
,
00100000
00010000
01000000
00100000
,
10000000
00010000
10000000
00000000
01000000
00100000
01000000
00000000
,
00100000
00001000
00010000
00000000
,
00000100
00001000
00000010
00000000
,
00000100
00000000
00000001
00000000
,
00000010
00000100
00010000
00000000
00001000
00100000
00010000
01000000
,
00100000
00000000
10000000
00000000
,
00100000
01000000
00001000
00000000
,
00010000
00000000
00000100
00000000
,
00001000
00000001
00000010
00000100
,
00010000
00000000
00001000
00000000
,
00100000
01000000
10000000
00010000
,
01000000
00000000
00100000
00000000
,
00010000
00001000
00010000
00000100
,
00001000
00000000
00000010
00000000
,
00000100
00000001
00000100
00000000
,
00000010
00000000
00010000
00000000
,
00001000
00100000
00010000
00100000
,
01000000
00000000
10000000
00000000
00010000
10000000
00010000
00000000
,
01000000
00000000
00100000
00000000
00010000
00001000
00010000
00000000
,
00000100
00000000
00000010
00000000
00000001
00001000
00000001
00000000
,
00000100
00000000
00000010
00000000
00010000
00001000
00010000
00001000
,
00010000
00000000
00001000
00000000
00100000
00010000
00100000
00010000
,
00100000
00000000
00010000
00000000
10000000
00010000
10000000
00010000
,
10000000
00000000
01000000
00000000
00100000
00001000
00100000
00001000
,
00010000
00000000
00000000
00000000
00000000
00000000
00000000
00000000
00000000
00000000
00001000
00000000
00000000
00000000
00000000
00000000
00000000
00000000
00000000
00000000
00000000
00010000
00000000
00000000
00000000
00000000
00000000
00000000
00000000
00000000
00000000
00000000
00000100
00000000
00000000
00000000
00000000
00000000
00000000
00000000
00000000
00000000
00001000
00000000
00000000
00000000
00000000
00000000
00000000
00000000
00000000
00000000
00000000
00000100
00000000
00000000
00000000
00000000
00000000
00000000
00000000
00000000
00000000
00000000
,
00010000
00000000
00000010
00000000
00001000
00000001
00001000
00000000
,
00000010
00000000
00010000
00000000
00001000
00100000
00010000
00000000
,
01000000
00000000
00100000
00000000
10000000
01000000
00100000
00000000
,
00001000
00010000
00000100
00000000
00001000
00000010
00000100
00000000
,
00000001
00000000
00000010
00000000
00000100
00010000
00001000
00000000
,
00100000
00000000
00010000
00000000
10000000
00010000
10000000
00000000
,
00100000
00000000
01000000
00000000
00001000
00010000
00001000
00000000
,
00010000
00000010
00001000
00000000
00000010
00001000
00000001
00000000
,
00000010
00000100
00010000
00000000
00001000
00010000
00000000
00011000
;

//---------------dance-double - ----------------
#NOTES:
     dance-double:
     :
     Hard:
     7:
     :
00000000
00000000
00000000
00000000
,
00000000
00000000
00000000
00000000
,
00000000
00000000
00000000
00000000
,
00000000
00000000
00000000
00000000
,
00000000
00000000
00000000
00000000
,
00000101
00000000
00000010
00001000
00000000
00001000
00000010
00000000
,
00010000
00000000
00001000
00100000
00000000
00100000
00010000
00000000
,
10010000
00000000
10000000
00100000
00000000
00100000
10000000
00000000
,
00100000
00000000
01000000
00001000
00000000
00001000
00010000
00000000
,
00011000
00000000
00001000
00000100
00000000
00000100
00000010
00000000
,
00001000
00000000
00000001
00000010
00000000
00000010
00000100
00000000
,
00010100
00000000
00010000
00001000
00000000
00001000
00100000
00000000
,
00010000
01000000
00000000
01100000
00000000
10010000
00000000
00000000
,
10000000
00100000
00000000
10000000
00100000
10000000
00000000
00100000
,
01000000
00001000
00000000
01000000
00001000
01000000
00010000
00100000
,
00001000
00010000
00000000
00001000
00010000
00001000
00000000
00010000
,
00000100
00001000
00000000
00000100
00001000
00000100
00000000
00001000
,
00000001
00000100
00000000
00000001
00000100
00000001
00000000
00000100
,
00000010
00010000
00000000
00000010
00010000
00000010
00000000
00010000
,
00001000
00100000
00000000
00001000
00100000
00001000
00000000
00100000
,
00010000
10000000
00000000
00010000
10000000
00010000
01000000
00100000
,
00010000
00000000
00001000
00000000
00011000
00000000
00000000
00010000
,
00000100
00001000
00000010
00000000
00001010
00000000
00000000
00001000
,
00000001
00000000
00000001
00000000
00001001
00000000
00000000
00000010
,
00010000
00000000
00000000
00000000
00001000
00100000
00010000
01000000
,
00100000
10000000
00000000
00100000
10000000
00100000
00000000
10000000
,
01000000
00100000
00000000
01000000
00100000
01000000
00000000
00100000
,
00001000
00010000
00000000
00001000
00010000
00001000
00000000
00010000
,
00000010
00001000
00000000
00000010
00001000
00000010
00000000
00001000
,
00000001
00000010
00000000
00000001
00000010
00000001
00000000
00000010
,
00000100
00010000
00000000
00000100
00010000
00000100
00000000
00010000
,
00001000
01000000
00000000
00001000
01000000
00001000
00000000
01000000
,
00100000
10000000
01000000
00100000
00010000
00100000
00010000
00100000
,
00001000
00000000
00000100
00000000
00000110
00000000
00000000
00001000
,
00000001
00001000
00000100
00000000
00010100
00000000
00000000
00001000
,
00100000
00000000
00100000
00000000
00110000
00000000
00000000
00010000
,
01000000
10000000
00100000
01000000
00100000
01000000
00100000
01000000
,
00001000
00000000
00011000
00000000
00010000
00000100
00001000
00000000
,
00000100
00000000
00000010
00000001
00000000
00000001
00001000
00000000
,
00000010
00000000
00001010
00000000
00001000
00000100
00010000
00000000
,
00001000
00100000
00010000
01000000
00000000
00010000
01000000
00000000
,
00100000
00000000
10100000
00000000
01000000
00001000
00010000
00000000
,
00001000
00000000
00000100
00000010
00000000
00000010
00001000
00000000
,
00000001
00000000
00001001
00000000
00000010
00001000
00000100
00000000
,
00010000
00000000
00000000
00010000
00001000
00000000
00100000
00000000
01000000
00000000
10000000
00000000
01000000
00000000
00010000
00000000
,
00001000
00000000
00000010
00000001
00000000
00001000
00000001
00000000
,
00000100
00000000
00000010
00010000
00001000
00100000
00001000
00000000
,
00010000
00000000
01000000
10000000
00000000
10000000
00100000
00000000
,
01000000
00001000
00010000
00001000
00000000
00010000
00000010
00001000
,
00000010
00000000
00000100
00000001
00000100
00000010
00010000
00001000
,
00010000
00000000
00001000
00100000
00010000
10000000
01000000
00100000
,
00001000
00000000
00010000
00000100
00010000
00000100
00001000
00000010
,
00000100
00000000
00000000
00000000
00000000
00000000
00000000
00000000
00000000
00000000
00000001
00000000
00000000
00000000
00000000
00000000
00000000
00000000
00000000
00000000
00000000
00000010
00000000
00000000
00000000
00000000
00000000
00000000
00000000
00000000
00000000
00000000
00000100
00000000
00000000
00000000
00000000
00000000
00000000
00000000
00000000
00000000
00010000
00000000
00000000
00000000
00000000
00000000
00000000
00000000
00000000
00000000
00000000
00001000
00000000
00000000
00000000
00000000
00000000
00000000
00000000
00000000
00000000
00000000
,
00100000
00000000
00010000
01000000
00000000
01000000
00100000
00000000
,
10000000
00000000
00100000
01000000
00000000
00001000
00010000
00000000
,
00000100
00000000
00000010
00001000
00000000
00001000
00000010
00000000
,
00000001
00000100
00000010
00001000
00000000
00000100
00010000
00000000
,
00001000
00000000
00100000
00010000
00000000
00010000
10000000
00000000
,
01000000
00000000
00100000
10000000
00000000
00100000
00001000
00000000
,
00010000
00000000
00000100
00001000
00000000
00001000
00000010
00000000
,
00000100
00000001
00001000
00000100
00000000
00000010
00001000
00000000
,
00010000
00001000
00100000
00000000
00010000
01000000
00000000
10010000
;
