#TITLE:因為愛;
#ARTIST:蕭亞軒;
#TITLETRANSLIT:Yin Wei Ai;
#ARTISTTRANSLIT:Elva Hsiao;
#BANNER:Yin Wei Ai.png;
#BACKGROUND:Yin Wei Ai-bg.png;
#CDTITLE:./CDTITLES/DanceDanceRevolution UNIVERSE3 Chinese Special Edition.png;
#MUSIC:Yin Wei Ai.ogg;
#SAMPLESTART:68.308;
#SAMPLELENGTH:15;
#BPMS:0=130;

//---------------dance-single - ----------------
#NOTES:
     dance-single:
     :
     Beginner:
     1:
     :
0000
0000
0000
0000
,
0000
0000
0000
0000
,
0000
0000
0000
0000
,
0000
0000
0000
0000
,
0010
0000
0100
0000
,
0010
0000
0000
0000
,
1000
0000
1000
0000
,
0001
0000
0100
0000
,
0001
0000
0000
0000
,
0010
0000
0000
0000
,
0001
0000
0001
0000
,
0100
0100
0100
0000
,
0010
0000
0000
0000
,
1000
0000
0000
0000
,
0100
0000
0100
0000
,
0010
0000
0001
0000
,
0010
0000
0000
0000
,
1000
0000
0001
0000
,
1000
0000
0000
0000
,
0020
0000
0000
0030
,
0000
0000
0000
0000
,
1000
0000
0000
0000
,
0001
0000
0000
0000
,
1000
0000
0000
0000
,
0010
0000
0010
0000
,
0100
0000
0010
0000
,
0000
0000
0000
0000
,
0100
0000
0000
0000
,
0010
0000
0000
0000
,
1000
0000
0000
0000
,
0001
0000
0000
0000
,
1000
0000
0000
0000
,
0100
0000
0100
0000
,
0010
0000
0100
0000
,
0000
0000
0000
0000
,
1000
0000
0000
0000
,
0100
0000
0010
0000
,
0100
0000
0000
0000
,
0001
0000
0001
0000
,
1000
0000
0010
0000
,
1000
0000
0000
0000
,
0100
0000
0000
0000
,
1000
0000
1000
0000
,
0010
0010
0010
0000
,
0100
0000
0000
0000
,
0001
0000
0000
0000
,
0010
0000
0010
0000
,
0100
0000
1000
0000
,
0100
0000
0000
0000
,
0001
0000
1000
0000
,
0001
0000
0000
0000
,
1000
0000
0000
0000
,
1001
0000
0000
0000
;

//---------------dance-single - ----------------
#NOTES:
     dance-single:
     :
     Easy:
     3:
     :
0000
0000
0000
0000
,
0000
0000
0000
0000
,
0000
0000
0000
0000
,
0000
0000
0000
0000
,
0100
0000
0010
0010
,
1000
0001
0100
0000
,
0100
0000
0001
1000
,
0100
1000
0010
0100
,
0010
0010
0100
0000
,
0001
1000
0100
0000
,
1000
0010
0100
0000
,
0001
0001
1000
1000
,
0100
0010
0100
0000
,
1000
0100
0001
0000
,
0100
0000
1000
0010
,
0100
0010
0100
0001
,
1000
0001
1000
0000
,
0010
0010
0100
0001
,
1000
0100
0010
1000
,
0110
0100
0000
0010
,
0110
0010
0000
0100
,
0001
0100
0001
0010
,
0200
0000
0300
0000
,
0010
1000
0010
0100
,
0002
0000
0003
0000
,
0010
1000
0100
0000
,
0000
0010
0000
0010
,
0010
0100
0000
0000
,
1000
0001
1000
0001
,
1000
0010
1000
0100
,
0020
0000
0030
0000
,
0100
0001
0100
0010
,
2000
0000
3001
0000
,
0100
0001
0010
0000
,
0000
0100
0000
0100
,
0100
0010
0000
0000
,
0001
0000
1000
1000
,
0001
0010
0100
0000
,
0010
0000
0100
0000
,
1000
0100
0001
0000
,
1000
0001
0100
0010
,
0010
0100
1000
0000
,
0001
0000
1000
0000
,
0100
0010
0100
0000
,
1000
0000
0001
0010
,
0100
1000
0001
0000
,
0100
0000
0001
0000
,
1000
0010
0100
0010
,
1000
0100
0010
0000
,
0100
1000
0010
0100
,
0001
1000
0001
1000
,
0020
0000
0000
0030
,
0010
0000
0000
0000
;

//---------------dance-single - ----------------
#NOTES:
     dance-single:
     :
     Medium:
     5:
     :
0000
0000
0000
0000
,
0000
0000
0000
0000
,
0000
0000
0000
0000
,
0000
0000
0000
0000
,
1000
0000
0001
0000
0010
0100
1000
0000
,
0002
1003
0010
0000
,
0001
0100
1000
0000
0001
0000
0100
0000
,
0010
1000
0100
0000
0010
0000
0001
0000
,
1000
0001
1001
0000
,
0200
0310
1000
0001
,
1000
0100
0001
0000
1000
0000
0000
0000
,
2000
0100
3002
0100
,
0013
0110
1001
0000
,
0020
0001
0031
0000
1000
0000
0010
0000
,
1000
0001
0100
0000
0001
0000
0000
0000
,
1000
2000
0100
0000
3001
0002
0010
0000
,
1003
1100
0101
0000
,
1000
0010
0001
0010
,
0100
0000
0001
0000
0100
0000
0010
1000
,
0100
1000
0100
0000
0000
0000
0010
0000
,
0100
0001
0100
0000
0000
0000
0010
0000
,
0100
0001
1000
0010
,
0100
0001
0010
0000
0100
0000
0000
0000
,
0001
0100
1000
0100
,
0001
0000
1000
0001
0000
1000
0000
0000
,
0010
0000
0100
0010
0000
0000
0100
0000
,
0000
0001
0100
1000
,
0100
0001
0010
0100
,
2000
0000
3001
1000
,
0100
1000
0001
0010
,
0100
1000
0010
0000
0100
0000
0000
0000
,
1000
0100
0001
0100
,
1000
0100
0000
0000
1000
0100
0000
0000
,
0001
0000
0100
0001
0000
0000
0100
0000
,
0000
0010
0001
0010
,
0200
0000
1300
0100
,
0110
0000
0110
0000
0100
1000
0010
0000
,
0002
1003
0010
0000
,
0001
0100
1000
0000
0001
0000
0100
0000
,
0010
1000
0100
0000
0010
0000
0001
0000
,
1000
0001
1001
0000
,
0200
0310
1000
0001
,
1000
0100
0001
0000
1000
0000
0000
0000
,
2000
0100
3002
0100
,
0013
0110
1001
0000
,
0020
0001
0031
0000
1000
0000
0010
0000
,
1000
0001
0100
0000
0001
0000
0000
0000
,
1000
2000
0100
0000
3001
0002
0010
0000
,
1003
1100
0101
0000
,
1000
0010
0001
0010
,
0100
0000
0001
0000
0100
0001
0010
0001
,
0010
0100
1000
0001
,
0200
0000
0000
0000
,
0300
0000
0000
0000
;

//---------------dance-single - ----------------
#NOTES:
     dance-single:
     :
     Hard:
     6:
     :
0000
0000
0000
0000
,
0000
0000
0000
0000
,
0000
0000
0000
0000
,
0000
0000
0000
0000
,
1000
0001
0100
0010
,
0110
0000
0010
0000
1000
0100
0000
0001
,
0000
1000
0000
0010
0000
0010
0000
0000
,
0100
0001
0010
0001
0000
1000
0000
0100
,
0000
0010
0000
0001
0000
0000
0100
1000
,
0010
0000
0100
0000
0001
0100
0000
1000
,
0000
0001
0000
0010
0000
0001
0000
0000
,
1000
0100
0001
0100
1000
0001
0000
1000
,
0000
0100
0000
0110
0000
0000
1000
0010
,
0100
0000
0001
0000
1000
0100
1000
0001
,
0000
0010
0000
0100
0000
0001
0001
0000
,
1000
0100
1000
0010
0000
0100
0000
0010
,
0000
0001
0001
0010
0000
0000
0100
1000
,
0010
0000
0100
0010
0000
0100
0000
1000
,
0000
0010
0100
0001
0000
0001
0100
1000
,
0100
0001
0010
0010
0000
0010
0100
0010
,
0001
0001
1000
0000
0000
1000
0010
0000
,
0100
0001
0010
0000
1000
0100
0010
0000
,
1000
0000
0010
0100
0000
1000
0100
0000
,
1000
0100
0100
0000
0001
0010
0100
0000
,
0001
0000
1000
0100
0000
1000
0010
0100
,
0001
0000
0010
0100
0000
0010
0000
0001
,
0000
0001
0010
0001
0100
0010
0000
1000
,
0000
0200
0000
0000
0000
0000
0310
0000
,
0001
0100
1000
0000
0000
0010
0100
0000
,
1000
0100
0110
0000
0001
1000
1100
0000
,
0001
0000
0010
0100
0000
0001
0100
0000
,
0010
1000
1100
0000
0010
0001
0101
0000
,
1000
0000
0000
0010
0000
0000
0100
0000
0001
0000
0000
0010
0000
0000
0100
0000
,
1000
0000
0001
0100
0000
0001
0000
0010
,
0000
0010
0100
0010
0001
1000
0000
0010
,
0000
2000
0000
0000
0000
0000
3000
0000
,
1100
0101
1001
0110
,
1001
0100
0100
0000
0001
0010
0100
1000
,
0000
0001
0000
0100
0010
0100
0010
0000
,
0010
1000
0100
1000
0000
0001
1000
0010
,
0000
0100
0000
1000
0000
0000
0010
0001
,
0100
0100
0010
0000
1000
0010
0100
0001
,
0000
1000
0000
0100
1000
0100
0010
0000
,
0001
0010
1000
0010
0001
1000
0000
0001
,
0100
0010
0000
0110
0000
0000
0001
0100
,
0010
0100
1000
0000
0001
0010
0001
1000
,
0000
0100
0000
0010
0001
1000
0001
0000
,
1000
0010
0001
1000
0000
0010
0000
0100
,
0000
1000
1000
0100
0010
0000
0010
0001
,
0100
0000
0010
0100
0000
0010
0000
0001
,
0000
0100
0010
1000
0000
1000
0010
0001
,
1000
0010
0100
0010
1000
0100
0010
0000
,
2002
0000
0000
0000
,
3003
0000
0000
0000
;

//---------------dance-double - ----------------
#NOTES:
     dance-double:
     :
     Beginner:
     1:
     :
00000000
00000000
00000000
00000000
,
00000000
00000000
00000000
00000000
,
00000000
00000000
00000000
00000000
,
00000000
00000000
00000000
00000000
,
00001000
00000000
00000001
00000000
,
00001000
00000000
00000000
00000000
,
00000010
00000000
00000010
00000000
,
00010000
00000000
00001000
00000000
,
00010000
00000000
00000000
00000000
,
00001000
00000000
00000000
00000000
,
00100000
00000000
00100000
00000000
,
00010000
00010000
00010000
00000000
,
10000000
00000000
00000000
00000000
,
01000000
00000000
00000000
00000000
,
10000000
00000000
10000000
00000000
,
00100000
00000000
01000000
00000000
,
00010000
00000000
00000000
00000000
,
00100000
00000000
00010000
00000000
,
00100000
00000000
00000000
00000000
,
00002000
00000000
00000000
00003000
,
00000000
00000000
00000000
00000000
,
00010000
00000000
00000000
00000000
,
00000100
00000000
00000000
00000000
,
00000010
00000000
00000000
00000000
,
00000100
00000000
00000100
00000000
,
00001000
00000000
00000001
00000000
,
00000000
00000000
00000000
00000000
,
00000100
00000000
00000000
00000000
,
00000010
00000000
00000000
00000000
,
00010000
00000000
00000000
00000000
,
00001000
00000000
00000000
00000000
,
00100000
00000000
00000000
00000000
,
00010000
00000000
00010000
00000000
,
01000000
00000000
00100000
00000000
,
00000000
00000000
00000000
00000000
,
10000000
00000000
00000000
00000000
,
00010000
00000000
00100000
00000000
,
00010000
00000000
00000000
00000000
,
00100000
00000000
00100000
00000000
,
00001000
00000000
00010000
00000000
,
00001000
00000000
00000000
00000000
,
00000100
00000000
00000000
00000000
,
00000001
00000000
00000001
00000000
,
00001000
00001000
00001000
00000000
,
00000010
00000000
00000000
00000000
,
00010000
00000000
00000000
00000000
,
00001000
00000000
00001000
00000000
,
00100000
00000000
00010000
00000000
,
10000000
00000000
00000000
00000000
,
01000000
00000000
00100000
00000000
,
01000000
00000000
00000000
00000000
,
00100000
00000000
00000000
00000000
,
01100000
00000000
00000000
00000000
;

//---------------dance-double - ----------------
#NOTES:
     dance-double:
     :
     Easy:
     3:
     :
00000000
00000000
00000000
00000000
,
00000000
00000000
00000000
00000000
,
00000000
00000000
00000000
00000000
,
00000000
00000000
00000000
00000000
,
00000010
00000000
00000100
00000100
,
00000001
00001000
00000100
00000000
,
00000100
00000000
00010000
00001000
,
00010000
00001000
01000000
00100000
,
10000000
10000000
00010000
00000000
,
10000000
01000000
00100000
00000000
,
00001000
00010000
00001000
00000000
,
00010000
00010000
00000100
00000100
,
00000010
00000001
00000010
00000000
,
00000100
00001000
00000100
00000000
,
00001000
00000000
00000010
00000100
,
00000001
00000100
00000001
00001000
,
00000010
00010000
00000010
00000000
,
00010000
00010000
00001000
01000000
,
00100000
10000000
01000000
00000000
,
10010000
10000000
00000000
00010000
,
10010000
00010000
00000000
10000000
,
00010000
00100000
00001000
00010000
,
00002000
00000000
00003000
00000000
,
00010000
00000100
00000010
00000100
,
00001000
00000000
00000001
00000000
,
00000100
00000010
00000100
00000000
,
00000000
00000001
00000000
00000001
,
00000100
00001000
00000000
00000000
,
00010000
00001000
00010000
00001000
,
00100000
00010000
01000000
00100000
,
20000000
00000000
30000000
00000000
,
10000000
00010000
10000000
00010000
,
00200000
00000000
00300000
00000000
,
00100000
00001000
00100000
00000000
,
00000000
00001000
00000000
00010000
,
00000100
00000010
00000000
00000000
,
00000100
00000000
00001000
00001000
,
00000001
00000100
00000010
00000000
,
00000100
00000000
00000001
00000000
,
00001000
00000100
00010000
00000000
,
00001000
01000000
00100000
10000000
,
10000000
00010000
01000000
00000000
,
00010000
00000000
00100000
00000000
,
01000000
10000000
01000000
00000000
,
00100000
00000000
00001000
00010000
,
00001000
00000100
00000010
00000000
,
00001000
00000000
00000001
00000000
,
00000100
00000010
00001000
00000010
,
00001000
00000100
00010000
00000000
,
00001000
00100000
00010000
10000000
,
00100000
01000000
00100000
01000000
,
00020000
00000000
00000000
00030000
,
00010000
00000000
00000000
00000000
;

//---------------dance-double - ----------------
#NOTES:
     dance-double:
     :
     Medium:
     5:
     :
00000000
00000000
00000000
00000000
,
00000000
00000000
00000000
00000000
,
00000000
00000000
00000000
00000000
,
00000000
00000000
00000000
00000000
,
00001000
00000000
00010000
00000000
00001000
00010000
00001000
00000000
,
00200000
00310000
10000000
00000000
,
01000000
10000000
01000000
00000000
00100000
00000000
00001000
00000000
,
00010000
00001000
00010000
00000000
00000100
00000000
00000010
00000000
,
00000001
00001000
00001001
00000000
,
00000200
00000310
00001000
00000100
,
00010000
00001000
00010000
00000000
01000000
00000000
00000000
00000000
,
00200000
00010000
02300000
00010000
,
03100000
10100000
00110000
00000000
,
20000000
00100000
30100000
00000000
01000000
00000000
00010000
00000000
,
00100000
00010000
00100000
00000000
00001000
00000000
00000000
00000000
,
00010000
00020000
00001000
00000000
00031000
00002000
00010000
00000000
,
00013000
00011000
00001100
00000000
,
00001000
00000100
00000010
00000001
,
00001000
00000000
00000010
00000000
00001000
00000000
00000001
00000100
,
00000010
00000100
00000010
00000000
00000000
00000000
00001000
00000000
,
00000100
00000010
00000100
00000000
00000000
00000000
00010000
00000000
,
00001000
00100000
00010000
10000000
,
01000000
10000000
01000000
00000000
00100000
00000000
00000000
00000000
,
01000000
00100000
00001000
00010000
,
00001000
00000000
00010000
00000100
00000000
00001000
00000000
00000000
,
00000010
00000000
00001000
00000010
00000000
00000000
00001000
00000000
,
00000000
00000100
00000010
00000001
,
00000100
00000010
00001000
00000100
,
00020000
00000000
00031000
00100000
,
00010000
01000000
00100000
01000000
,
00010000
10000000
00010000
00000000
10000000
00000000
00000000
00000000
,
00100000
01000000
00010000
00100000
,
00001000
00010000
00000000
00000000
00001000
00010000
00000000
00000000
,
00000100
00000000
00001000
00000010
00000000
00000000
00000100
00000000
,
00000000
00000001
00001000
00000001
,
00000020
00000000
00000130
00001000
,
00011000
00000000
00011000
00000000
00000100
00001000
00000100
00000000
,
00020000
00031000
00100000
00000000
,
00010000
01000000
00100000
00000000
01000000
00000000
00010000
00000000
,
10000000
00100000
01000000
00000000
00100000
00000000
10000000
00000000
,
01000000
00100000
01100000
00000000
,
00020000
00130000
00001000
00010000
,
00001000
00010000
00001000
00000000
00010000
00000000
00000000
00000000
,
00000100
00001000
00000100
00000000
00010000
00001000
00010000
00000000
,
00011000
00001100
00000110
00000000
,
00000002
00000100
00000103
00000000
00000010
00000000
00001000
00000000
,
00000100
00000010
00000100
00000000
00010000
00000000
00000000
00000000
,
00001000
00001000
00100000
00000000
00010000
00010000
01000000
00000000
,
01100000
10010000
01100000
00000000
,
10000000
01000000
00010000
00001000
,
00000010
00000000
00000001
00000000
00000100
00000010
00000100
00000010
,
00001000
00000100
00010000
00001000
,
00200000
00000000
00000000
00000000
,
00300000
00000000
00000000
00000000
;

//---------------dance-double - ----------------
#NOTES:
     dance-double:
     :
     Hard:
     6:
     :
00000000
00000000
00000000
00000000
,
00000000
00000000
00000000
00000000
,
00000000
00000000
00000000
00000000
,
00000000
00000000
00000000
00000000
,
00010000
00001000
00000100
00000010
,
00001010
00000000
00000100
00000000
00000001
00000010
00000000
00000001
,
00000000
00000100
00000000
00000010
00000000
00000010
00000000
00000000
,
00000100
00001000
00010000
00001000
00000000
01000000
00000000
00100000
,
00000000
01000000
00000000
00010000
00000000
00000000
10000000
01000000
,
00100000
00000000
01000000
00000000
10000000
00100000
00000000
01000000
,
00000000
00001000
00000000
00010000
00000000
00001000
00000000
00000000
,
00010000
00001000
00000100
00000010
00001000
00000100
00000000
00001000
,
00000000
00000001
00000000
00000101
00000000
00000000
00000010
00000001
,
00000100
00000000
00000010
00000000
00010000
00001000
00010000
00001000
,
00000000
00100000
00000000
00010000
00000000
01000000
01000000
00000000
,
00010000
10000000
00010000
01000000
00000000
00100000
00000000
10000000
,
00000000
01000000
10000000
10000000
00000000
00000000
01000000
00100000
,
00010000
00000000
00100000
00001000
00000000
00010000
00000000
00000010
,
00000000
00000100
00000001
00000010
00000000
00000010
00000001
00001000
,
00000100
00000010
00000100
00000100
00000000
00001000
00000001
00001000
,
00000010
00000010
00000100
00000000
00000000
00000001
00000010
00000000
,
00000001
00001000
00000010
00000000
00001000
00000100
00010000
00000000
,
00001000
00000000
00100000
00010000
00000000
00100000
01000000
00000000
,
10000000
00010000
00010000
00000000
10000000
00100000
01000000
00000000
,
00010000
00000000
00100000
00001000
00000000
00010000
00001000
00100000
,
00010000
00000000
10000000
01000000
00000000
10000000
00000000
01000000
,
00000000
00100000
00001000
00010000
00001000
00000100
00000000
00000001
,
00000000
00002000
00000000
00000000
00000000
00000000
00003010
00000000
,
00001000
00000100
00000001
00000000
00000000
00000100
00001000
00000000
,
00000010
00000100
00000101
00000000
00000001
00000010
00000110
00000000
,
00000100
00000000
00010000
00001000
00000000
00010000
00000100
00000000
,
00001000
00000001
00000011
00000000
00000100
00010000
00011000
00000000
,
00001000
00000000
00000000
00100000
00000000
00000000
00010000
00000000
01000000
00000000
00000000
00100000
00000000
00000000
01000000
00000000
,
00010000
00000000
10000000
00010000
00000000
01000000
00000000
00100000
,
00000000
01000000
00010000
01000000
00100000
00001000
00000000
00010000
,
00000000
00002000
00000000
00000000
00000000
00000000
00003000
00000000
,
00011000
10010000
00011000
00001001
,
00000101
00000001
00000010
00000000
00000100
00001000
00000010
00000100
,
00000000
00000001
00000000
00001000
00000100
00001000
00000100
00000000
,
00010000
00001000
00010000
01000000
00000000
10000000
00100000
01000000
,
00000000
00010000
00000000
10000000
00000000
00000000
01000000
00100000
,
00010000
00010000
00100000
00000000
00001000
00010000
00000100
00000010
,
00000000
00000100
00000000
00001000
00000001
00001000
00000010
00000000
,
00000100
00000001
00000010
00000001
00000100
00000010
00000000
00001000
,
00000100
00010000
00000000
00011000
00000000
00000000
00001000
01000000
,
00100000
01000000
00010000
00000000
10000000
00100000
10000000
01000000
,
00000000
00100000
00000000
01000000
10000000
00010000
10000000
00000000
,
01000000
00100000
00010000
00100000
00000000
00001000
00000000
00010000
,
00000000
00000100
00000100
00000010
00000001
00000000
00000001
00001000
,
00000100
00000000
00000010
00000001
00000000
00000100
00000000
00001000
,
00000000
00010000
00100000
10000000
00000000
01000000
00100000
00010000
,
10000000
00100000
01000000
00010000
00100000
00001000
00010000
00000000
,
00002200
00000000
00000000
00000000
,
00003300
00000000
00000000
00000000
;
