#TITLE:夏日初體驗;
#ARTIST:棒棒堂;
#TITLETRANSLIT:Xia Ri Chu Ti Yan;
#ARTISTTRANSLIT:Lollipop;
#BANNER:Xia Ri Chu Ti Yan.png;
#BACKGROUND:Xia Ri Chu Ti Yan-bg.png;
#CDTITLE:./CDTITLES/DanceDanceRevolution UNIVERSE3 Chinese Special Edition.png;
#MUSIC:Xia Ri Chu Ti Yan.ogg;
#SAMPLESTART:58.521;
#SAMPLELENGTH:15;
#BPMS:0=142;

//---------------dance-single - ----------------
#NOTES:
     dance-single:
     :
     Beginner:
     1:
     :
0000
0000
0000
0000
,
0000
0000
0000
0000
,
0000
0000
0000
0000
,
0000
0000
0000
0000
,
0000
0000
0000
0000
,
1000
0000
0010
0000
,
0100
0000
0000
0000
,
0001
0000
1000
0000
,
0001
0000
1000
0000
,
0001
0000
0000
0000
,
0010
0000
0000
0000
,
0110
0000
0000
0000
,
0100
0000
0000
0000
,
1000
0000
0000
0000
,
0001
0000
0000
0000
,
1001
0000
0000
0000
,
1000
0000
0000
0000
,
0010
0000
0000
0000
,
0100
0000
0001
0000
,
1000
0000
0000
0000
,
0100
0000
0010
0000
,
0001
0000
0000
0000
,
0010
0000
0100
0000
,
1000
0000
0000
0000
,
0010
0000
0010
0000
,
0100
0000
0000
0000
,
0001
0000
1000
0000
,
0001
0000
0000
0000
,
0010
0000
0010
0000
,
0100
0000
0000
0000
,
1000
0000
1000
0000
,
0001
0000
0000
0000
,
0100
0000
0010
0000
,
1000
0000
0001
0000
,
1000
0001
1000
0000
,
0100
0000
0100
0000
,
0010
0000
0001
0000
,
1000
0000
1000
0000
,
0010
0000
0010
0000
,
0100
0000
0001
0000
,
1000
0000
0100
0000
,
0010
0000
0001
0000
,
0010
0000
0000
0000
,
0100
0000
0100
0000
,
1000
0000
0001
0000
,
0100
0000
0100
0000
,
0010
0000
1000
0000
,
0001
0000
1000
0000
,
0100
0000
0010
0000
,
0001
0000
0000
0000
,
1000
0000
0000
0000
,
1001
0000
0000
0000
,
0110
0000
0000
0000
,
1001
0000
0000
0000
,
0110
0000
0000
0000
,
1001
0000
0000
0000
,
0110
0000
0000
0000
,
0001
0000
0010
0000
,
0100
0000
1000
0000
,
0001
0000
0100
0000
,
0010
0000
1000
0001
;

//---------------dance-single - ----------------
#NOTES:
     dance-single:
     :
     Easy:
     3:
     :
0000
0000
0000
0000
,
0000
0000
0000
0000
,
0000
0000
0000
0000
,
0000
0000
0000
0000
,
0000
0000
0000
0000
,
0010
1000
0100
0010
,
0001
0000
0010
0000
,
0100
0000
1000
0000
,
0001
0000
0100
0010
,
1000
0000
0001
0000
,
0010
0000
0100
1000
,
0001
0000
0100
0010
,
1000
0000
0100
0010
,
0100
0000
0010
0001
,
1000
0000
0010
0000
,
0100
0000
0001
1000
,
0001
0000
0010
0100
,
0010
0000
0100
1000
,
0001
0000
0100
0000
,
0010
0000
0010
1000
,
0001
0000
1000
0000
,
0100
0000
0100
0010
,
0001
0000
0001
0000
,
0010
0000
0010
0100
,
1000
0000
0001
0000
,
0100
0000
0100
0010
,
1000
0000
0001
0000
,
0010
0000
0010
0000
,
0100
0000
1000
0001
,
0100
0000
0100
0000
,
0010
0000
1000
0001
,
1000
0000
0100
0000
,
1000
0000
0001
0000
,
0100
0010
0100
0010
,
0100
0001
1001
0000
,
0001
0001
0010
0100
,
1000
0001
1000
0000
,
0010
0010
0100
0001
,
0010
0100
0100
0000
,
1000
0001
1000
0010
,
0100
0000
0010
0000
,
1000
0100
0010
0100
,
1000
0000
0001
0000
,
0100
0100
0010
1000
,
0001
0010
0100
0000
,
0010
0010
0001
0010
,
0100
1000
0001
0000
,
0100
0000
0010
0000
,
1000
0000
0001
0010
,
0100
0000
0010
0000
,
0001
1000
0001
1000
,
0001
0100
0010
0100
,
0001
0000
1000
0000
,
0100
0010
0100
0010
,
0001
0000
0100
0000
,
0010
1000
0010
1000
,
0001
0000
1000
0000
,
0100
0000
1000
0000
,
0010
0000
0100
0001
,
1000
0100
0010
0001
,
0010
0100
1000
1001
;

//---------------dance-single - ----------------
#NOTES:
     dance-single:
     :
     Medium:
     5:
     :
0000
0000
0000
0000
,
0000
0000
0000
0000
,
0000
0000
0000
0000
,
0000
0000
0000
0000
,
0000
0000
0000
0000
,
1001
0000
0001
0000
0010
0000
0100
1000
,
0001
0100
0010
1000
,
0002
0000
0013
0200
0000
1300
0001
2000
,
0000
3010
0100
0002
0000
0013
0100
0000
,
0010
0001
0010
0100
1000
0100
0010
0001
,
0000
0100
0010
1000
0001
2000
0000
0000
,
3100
0000
0010
0000
0001
0010
0100
0000
,
0010
0000
0001
0000
0100
0010
1000
0000
,
0001
0000
0100
0000
0001
0010
0100
0000
,
0010
0000
0001
0000
0100
0010
1000
0000
,
0010
0000
1000
0000
0001
0010
0100
0000
,
0010
0000
0001
0000
1000
0001
0100
0000
,
0010
0000
1000
0000
0010
0100
0001
0000
,
0010
0100
1000
0000
0100
0010
0001
0000
,
0100
0000
0010
0000
1000
0010
0100
0000
,
0001
0000
1000
0000
0001
1000
0100
0000
,
0010
0000
0100
0000
1000
0001
0100
0000
,
0010
1000
0001
0000
0010
0100
1000
0000
,
0100
0000
0010
0000
0001
0010
0100
0000
,
0010
0000
0001
0000
0100
0010
1000
0000
,
0001
0000
0100
0000
1000
0100
0001
0000
,
0010
0000
0100
0000
1000
0100
0010
0001
,
1000
0000
0010
0100
0000
0010
0100
0000
,
0001
0000
1000
0001
0000
0001
1000
0000
,
0010
0000
0100
0001
0000
0100
0001
0000
,
0010
0000
0100
1000
0000
1000
0100
0000
,
0010
0001
0010
0100
,
1000
0001
0100
0010
,
1010
1001
0101
0011
,
0110
0000
0110
0000
0100
1000
0001
1000
,
1001
0000
1001
0000
0001
0010
0100
0000
,
1000
0001
1000
0000
0010
0000
0100
0000
,
0101
0000
0101
0000
0010
1000
0001
0000
,
0010
0100
1000
0000
0100
0000
0010
0000
,
1001
0000
0001
0000
0010
0000
0100
1000
,
0100
0000
0010
0000
0001
0000
0100
0010
,
1000
0000
0100
0000
0010
0000
0001
0100
,
0010
0100
0001
1000
,
1001
0000
1001
0000
0100
0010
1000
0000
,
0010
0100
0001
0000
0010
0100
1000
0000
,
1001
0000
1001
0000
0001
0100
0010
0000
,
1000
0100
0010
0000
0100
1000
0001
0000
,
0101
0000
0010
0000
1000
0000
0100
0010
,
0001
0000
0100
0010
1000
0000
0001
1000
,
0001
0010
0100
1000
,
0001
0100
0001
0000
1000
0100
1000
0000
,
0010
0000
0100
0000
0001
1000
0001
1000
,
0010
0000
1000
0000
0100
0010
0100
0010
,
0001
0000
1000
0000
0010
0100
0010
0100
,
0001
0000
1000
0000
0010
1000
0010
1000
,
0100
0000
0010
0000
0001
1000
0001
1000
,
0001
0000
0100
0000
0010
1000
0010
1000
,
0200
0000
0310
0002
0000
1003
0010
2000
,
0000
3100
0010
0200
0000
1300
0001
0000
,
0100
0000
0010
0000
1000
0100
0010
0001
,
0000
0010
0100
1000
0010
0000
1001
0000
;

//---------------dance-single - ----------------
#NOTES:
     dance-single:
     :
     Hard:
     8:
     :
0000
0000
0000
0000
,
0000
0000
0000
0000
,
0000
0000
0000
0000
,
0000
0000
0000
0000
,
0000
0000
0000
0000
,
2010
0000
0000
0000
3100
0000
0000
0100
0010
0000
0001
0000
1000
0000
0100
0000
,
1002
0000
0000
0000
0013
0000
0000
0001
0100
0000
0010
0000
1000
0000
0001
0000
,
0021
0000
0130
1002
0000
0103
0010
2001
,
0000
0000
3010
0000
0100
0000
0002
0000
0000
0000
0013
0000
0100
0000
1000
0001
,
1000
0010
0010
0100
0001
0001
0010
0100
,
0000
1000
0001
1000
0001
0200
0000
0000
,
0310
0000
1001
0000
0100
0001
0010
0000
,
0100
0000
1100
0000
0010
0001
1000
0010
,
0100
0000
0101
0000
0010
1000
0001
0000
,
0010
0000
0000
0000
0110
0000
0000
0000
0100
0000
1000
0000
0001
1000
0001
0000
,
0100
0000
1010
0000
0001
1000
0010
0000
,
1000
0000
0011
0000
0100
1000
0001
1000
,
0010
0000
1001
0000
0100
0001
0010
0000
,
0100
0000
0000
0000
1001
0000
0000
0000
0100
0000
0001
0000
1000
0000
0100
0010
,
0001
0000
1001
0000
0010
1000
0100
0000
,
0010
0000
0011
0000
0100
1000
0001
0100
,
0010
0000
1010
0000
0100
0001
1000
0000
,
0100
0000
0000
0000
0110
0000
0000
0000
0010
0000
0001
0000
1000
0001
1000
0000
,
0010
0000
0101
0000
1000
0001
0100
0000
,
0001
0000
1100
0000
0010
0001
1000
0001
,
0100
0000
1001
0000
0010
1000
0100
0000
,
0010
0000
1001
0000
0010
1000
0001
0010
,
2001
0000
3010
0100
0000
0100
0001
0000
,
0020
0000
0130
1000
0000
0001
1000
0000
,
0020
0000
0130
0001
2000
3001
0100
0000
,
0001
0000
0000
0001
0010
0000
0100
0000
0000
0000
1000
0000
0001
0000
0100
0000
,
0010
0010
1000
0100
0000
0010
0001
1000
,
1000
0000
1000
0000
0001
0000
0100
0000
0000
0000
0010
0000
1000
0001
1000
0000
,
0010
0100
0001
0010
0000
0100
1000
0010
,
0101
0000
0101
0000
0101
0010
1000
0001
,
0011
0000
0011
0000
0001
0010
0100
1000
,
0000
0001
0100
0010
0000
1000
0010
1000
,
1001
0000
1001
0000
0001
0010
0100
0010
,
0000
0100
1000
0001
0000
0100
0010
0100
,
0002
0000
0023
0000
0230
0000
1300
1010
,
0000
0100
0001
0101
0000
0010
1000
0100
,
0020
0000
0230
0000
2300
0000
3001
0200
,
0010
0000
0010
0000
0310
1000
0100
1000
,
1010
0000
1010
0000
0100
0001
0010
0100
,
0000
1000
0001
1000
0000
0010
0100
0001
,
0011
0000
0011
0000
0010
0100
1000
0010
,
0000
0100
0001
0010
0000
0100
1000
0100
,
0020
0000
0032
0000
2003
0000
3010
0101
,
0000
0010
1000
1001
0000
0010
0100
1000
,
0002
0000
0103
0020
0000
2030
0000
0000
,
0001
0000
3001
0000
0200
0000
0310
1000
,
0001
0000
0200
0000
0302
0000
1003
0200
,
0010
1000
0001
0010
,
1300
0000
0002
0000
0203
0000
0310
2000
,
0100
0001
0010
0100
,
3001
0000
0200
0000
0320
0000
1030
0002
,
0010
0100
1000
0100
,
0023
0000
0130
1001
0000
1000
0010
0101
,
0000
0000
0010
0000
0100
0000
0110
0000
0000
0000
1000
0000
0001
1000
0001
1000
,
0020
0000
0000
0000
0130
0000
0100
0001
1000
0000
0100
0000
0000
0000
0010
0000
,
0000
0001
0001
1000
1010
0000
0202
0000
,
0303
0000
0000
0000
;

//---------------dance-double - ----------------
#NOTES:
     dance-double:
     :
     Beginner:
     1:
     :
00000000
00000000
00000000
00000000
,
00000000
00000000
00000000
00000000
,
00000000
00000000
00000000
00000000
,
00000000
00000000
00000000
00000000
,
00000000
00000000
00000000
00000000
,
10000000
00000000
01000000
00000000
,
00100000
00000000
00000000
00000000
,
00001000
00000000
00010000
00000000
,
00001000
00000000
00010000
00000000
,
00001000
00000000
00000000
00000000
,
00010000
00000000
00000000
00000000
,
00011000
00000000
00000000
00000000
,
00001000
00000000
00000000
00000000
,
00000100
00000000
00000000
00000000
,
00000010
00000000
00000000
00000000
,
00000110
00000000
00000000
00000000
,
00000100
00000000
00000000
00000000
,
00000001
00000000
00000000
00000000
,
00001000
00000000
00000100
00000000
,
00010000
00000000
00000000
00000000
,
00001000
00000000
00100000
00000000
,
00010000
00000000
00000000
00000000
,
01000000
00000000
00010000
00000000
,
10000000
00000000
00000000
00000000
,
00100000
00000000
00100000
00000000
,
01000000
00000000
00000000
00000000
,
00001000
00000000
00010000
00000000
,
00001000
00000000
00000000
00000000
,
00010000
00000000
00010000
00000000
,
00000100
00000000
00000000
00000000
,
00001000
00000000
00001000
00000000
,
00000100
00000000
00000000
00000000
,
00000010
00000000
00000001
00000000
,
00001000
00000000
00000010
00000000
,
00000100
00000010
00000100
00000000
,
00000001
00000000
00000001
00000000
,
00001000
00000000
00000100
00000000
,
00010000
00000000
00010000
00000000
,
00001000
00000000
00001000
00000000
,
00100000
00000000
00010000
00000000
,
10000000
00000000
00100000
00000000
,
01000000
00000000
00001000
00000000
,
00010000
00000000
00000000
00000000
,
00000100
00000000
00000100
00000000
,
00001000
00000000
00000010
00000000
,
00000100
00000000
00000100
00000000
,
00000001
00000000
00001000
00000000
,
00000100
00000000
00010000
00000000
,
00001000
00000000
00100000
00000000
,
00010000
00000000
00000000
00000000
,
01000000
00000000
00000000
00000000
,
01100000
00000000
00000000
00000000
,
10010000
00000000
00000000
00000000
,
01100000
00000000
00000000
00000000
,
10010000
00000000
00000000
00000000
,
01100000
00000000
00000000
00000000
,
10010000
00000000
00000000
00000000
,
00010000
00000000
00100000
00000000
,
00001000
00000000
00010000
00000000
,
00000100
00000000
00001000
00000000
,
00000010
00000000
00001000
00000001
;

//---------------dance-double - ----------------
#NOTES:
     dance-double:
     :
     Easy:
     3:
     :
00000000
00000000
00000000
00000000
,
00000000
00000000
00000000
00000000
,
00000000
00000000
00000000
00000000
,
00000000
00000000
00000000
00000000
,
00000000
00000000
00000000
00000000
,
00000001
00000100
00000010
00010000
,
00001000
00000000
00100000
00000000
,
01000000
00000000
10000000
00000000
,
00100000
00000000
01000000
00001000
,
01000000
00000000
00001000
00000000
,
00010000
00000000
00000100
00001000
,
00000100
00000000
00000010
00000001
,
00000010
00000000
00000100
00010000
,
00001000
00000000
00010000
00001000
,
00100000
00000000
00010000
00000000
,
01000000
00000000
00100000
10000000
,
00100000
00000000
01000000
00001000
,
00010000
00000000
00000100
00001000
,
00000010
00000000
00000100
00000000
,
00000001
00000000
00000001
00000010
,
00000100
00000000
00010000
00000000
,
00001000
00000000
00001000
00100000
,
01000000
00000000
01000000
00000000
,
10000000
00000000
10000000
00100000
,
01000000
00000000
00001000
00000000
,
00010000
00000000
00010000
00000100
,
00000010
00000000
00000100
00000000
,
00001000
00000000
00000001
00000000
,
00000100
00000000
00001000
00010000
,
00001000
00000000
00100000
00000000
,
00010000
00000000
10000000
00010000
,
10000000
00000000
01000000
00000000
,
00100000
00000000
00001000
00000000
,
00010000
00001000
00010000
00001000
,
00010000
00001000
00011000
00000000
,
00010000
00010000
00001000
00000100
,
00000010
00001000
00000001
00000000
,
00000010
00000010
00000100
00010000
,
00001000
00100000
00100000
00000000
,
00010000
10000000
00100000
01000000
,
00001000
00000000
00010000
00000000
,
00000100
00000010
00000100
00001000
,
00000001
00000000
00000100
00000000
,
00000010
00000010
00001000
00000100
,
00010000
00001000
01000000
00000000
,
00100000
00100000
10000000
00010000
,
00100000
00001000
00010000
00000000
,
00000100
00000000
00001000
00000000
,
00000010
00000000
00000001
00000010
,
00001000
00000000
00000100
00000000
,
00010000
00001000
00010000
00001000
,
00100000
01000000
00100000
01000000
,
00100000
00000000
01000000
00000000
,
10000000
00010000
10000000
00010000
,
00100000
00000000
00001000
00000000
,
00010000
00000100
00010000
00000100
,
00001000
00000000
00000010
00000000
,
00000100
00000000
00000001
00000000
,
00000010
00000000
00000100
00010000
,
00001000
00100000
00010000
01000000
,
00100000
10000000
00010000
10010000
;

//---------------dance-double - ----------------
#NOTES:
     dance-double:
     :
     Medium:
     5:
     :
00000000
00000000
00000000
00000000
,
00000000
00000000
00000000
00000000
,
00000000
00000000
00000000
00000000
,
00000000
00000000
00000000
00000000
,
00000000
00000000
00000000
00000000
,
10010000
00000000
10000000
00000000
00100000
00000000
01000000
00001000
,
00010000
00000100
00001000
00000100
,
00000020
00000000
00000031
00000200
00000000
00000310
00010000
00002000
,
00000000
00103000
00010000
00200000
00000000
00310000
10000000
00000000
,
00100000
01000000
00100000
10000000
00010000
10000000
01000000
00010000
,
00000000
00001000
00010000
00000100
00001000
00000002
00000000
00000000
,
00000103
00000000
00000010
00000000
00010000
00001000
00010000
00000000
,
00001000
00000000
01000000
00000000
00100000
10000000
00100000
00000000
,
01000000
00000000
00001000
00000000
00010000
00001000
00010000
00000000
,
00000100
00000000
00001000
00000000
00000010
00001000
00000010
00000000
,
00000100
00000000
00000001
00000000
00000010
00000100
00000010
00000000
,
00001000
00000000
00010000
00000000
00001000
00100000
00010000
00000000
,
10000000
00000000
00100000
00000000
01000000
00001000
00010000
00000000
,
00000100
00001000
00000100
00000000
00000010
00000001
00001000
00000000
,
00000010
00000000
00010000
00000000
00001000
00100000
00010000
00000000
,
01000000
00000000
00100000
00000000
10000000
00100000
01000000
00000000
,
00001000
00000000
00010000
00000000
00000100
00001000
00000010
00000000
,
00000100
00000001
00001000
00000000
00000100
00010000
00001000
00000000
,
00100000
00000000
00010000
00000000
00100000
01000000
10000000
00000000
,
00100000
00000000
01000000
00000000
00100000
00010000
00001000
00000000
,
00010000
00000000
00000100
00000000
00001000
00000100
00000010
00000000
,
00000001
00000000
00000100
00000000
00000010
00010000
00001000
00100000
,
00010000
00000000
00100000
01000000
00000000
00100000
01000000
00000000
,
10000000
00000000
00100000
00010000
00000000
00010000
00001000
00000000
,
00000100
00000000
00000010
00001000
00000000
00000010
00001000
00000000
,
00000001
00000000
00000010
00001000
00000000
00001000
00010000
00000000
,
01000000
10000000
00100000
01000000
,
00001000
00010000
00000100
00001000
,
00001010
00001001
00000011
00000110
,
00010100
00000000
00010100
00000000
00010000
00001000
00100000
00010000
,
10010000
00000000
10010000
00000000
10000000
00100000
01000000
00000000
,
00010000
00100000
00001000
00000000
00010000
00000000
00000100
00000000
,
00001100
00000000
00001100
00000000
00001000
00000100
00000010
00000000
,
00000001
00000100
00000010
00000000
00010000
00000000
00001000
00000000
,
00011000
00000000
00010000
00000000
01000000
00000000
10000000
00010000
,
01000000
00000000
00100000
00000000
10000000
00000000
00100000
00010000
,
00001000
00000000
00000010
00000000
00000100
00000000
00001000
00000001
,
00001000
00000010
00000100
00001000
,
00011000
00000000
00011000
00000000
00010000
00001000
00100000
00000000
,
00010000
01000000
00100000
00000000
10000000
01000000
00010000
00000000
,
00011000
00000000
00011000
00000000
00001000
00000100
00000010
00000000
,
00001000
00000100
00000010
00000000
00000001
00000010
00000100
00000000
,
00010100
00000000
00001000
00000000
00100000
00000000
00010000
01000000
,
10000000
00000000
01000000
00100000
10000000
00000000
01000000
00010000
,
00001000
00000010
00000100
00001000
,
00000001
00000100
00000010
00000000
00010000
00001000
00100000
00000000
,
00010000
00000000
10000000
00000000
00100000
10000000
00100000
10000000
,
00100000
00000000
00010000
00000000
00001000
00010000
00001000
00010000
,
00000100
00000000
00001000
00000000
00000001
00001000
00000001
00001000
,
00000001
00000000
00000010
00000000
00000100
00010000
00000100
00010000
,
00001000
00000000
00100000
00000000
00010000
10000000
00010000
10000000
,
00100000
00000000
01000000
00000000
00100000
00010000
00100000
00010000
,
00002000
00000000
00003100
00000020
00000000
00001030
00000001
00002000
,
00000000
00003100
00010000
00002000
00000000
00103000
01000000
00000000
,
10000000
00000000
00100000
00000000
10000000
01000000
00010000
01000000
,
00000000
00100000
01000000
00010000
00001000
00000000
00011000
00000000
;

//---------------dance-double - ----------------
#NOTES:
     dance-double:
     :
     Hard:
     8:
     :
00000000
00000000
00000000
00000000
,
00000000
00000000
00000000
00000000
,
00000000
00000000
00000000
00000000
,
00000000
00000000
00000000
00000000
,
00000000
00000000
00000000
00000000
,
00000102
00000000
00000000
00000000
00000013
00000000
00000000
00000010
00000100
00000000
00010000
00000000
00001000
00000000
00100000
00000000
,
00200000
00000000
00000000
00000000
00310000
00000000
00000000
10000000
00100000
00000000
01000000
00000000
00100000
00000000
00010000
00000000
,
00012000
00000000
00013000
00020100
00000000
00030100
00000010
00001002
,
00000000
00000000
00000103
00000000
00000010
00000000
00020000
00000000
00000000
00000000
00031000
00000000
00100000
00000000
00010000
01000000
,
00010000
10000000
10000000
00100000
01000000
01000000
00001000
00010000
,
00000000
00000100
00001000
00000100
00001000
00000020
00000000
00000000
,
00001030
00000000
00000101
00000000
00000010
00010000
00001000
00000000
,
00100000
00000000
00110000
00000000
00010000
10000000
00100000
10000000
,
01000000
00000000
00110000
00000000
00010000
00100000
00001000
00000000
,
00010000
00000000
00000000
00000000
00010100
00000000
00000000
00000000
00000100
00000000
00001000
00000000
00000100
00000010
00000100
00000000
,
00001000
00000000
00001001
00000000
00000001
00000100
00001000
00000000
,
00010000
00000000
00011000
00000000
00010000
01000000
00100000
01000000
,
10000000
00000000
10010000
00000000
01000000
00010000
00100000
00000000
,
00001000
00000000
00000000
00000000
00011000
00000000
00000000
00000000
00001000
00000000
00000100
00000000
00000010
00000000
00001000
00000001
,
00001000
00000000
00000011
00000000
00000001
00000100
00000010
00000000
,
00010000
00000000
00010100
00000000
00001000
00100000
00010000
00100000
,
01000000
00000000
11000000
00000000
00100000
00010000
10000000
00000000
,
00100000
00000000
00000000
00000000
01001000
00000000
00000000
00000000
00010000
00000000
00000100
00000000
00010000
00001000
00010000
00000000
,
00000010
00000000
00001001
00000000
00000010
00000100
00000001
00000000
,
00000010
00000000
00001100
00000000
00000100
00010000
00001000
00100000
,
00010000
00000000
00110000
00000000
01000000
10000000
00100000
00000000
,
01000000
00000000
01001000
00000000
00010000
00001000
00010000
00001000
,
00021000
00000000
00030100
00001000
00000000
00001000
00000010
00000000
,
00000200
00000000
00000301
00001000
00000000
00000100
00010000
00000000
,
00002000
00000000
00103000
00010000
02000000
03010000
10000000
00000000
,
00100000
00000000
00000000
00100000
01000000
00000000
00100000
00000000
00000000
00000000
00010000
00000000
00001000
00000000
00010000
00000000
,
00000100
00000100
00001000
00000001
00000000
00000010
00000100
00010000
,
00010000
00000000
00010000
00000000
00001000
00000000
00100000
00000000
00000000
00000000
00010000
00000000
01000000
00100000
01000000
00000000
,
00010000
10000000
01000000
00010000
00000000
00001000
00010000
00000100
,
00001100
00000000
00001100
00000000
00001100
00001000
00000010
00000100
,
00000101
00000000
00000101
00000000
00000001
00000100
00001000
00010000
,
00000000
00001000
00100000
00010000
00000000
10000000
01000000
00100000
,
00110000
00000000
00110000
00000000
00010000
00100000
01000000
00010000
,
00000000
00001000
00010000
00000100
00000000
00001000
00000010
00000100
,
00000002
00000000
00000023
00000000
00000230
00000000
00010300
00011000
,
00000000
00001000
01000000
01010000
00000000
00100000
10000000
01000000
,
00020000
00000000
00032000
00000000
00003200
00000000
00000301
00002000
,
00000100
00000000
00000100
00000000
00003100
00010000
00001000
01000000
,
01010000
00000000
01010000
00000000
00010000
10000000
01000000
00100000
,
00000000
00001000
00010000
00001000
00000000
00010000
00000010
00001000
,
00001010
00000000
00001010
00000000
00001000
00000001
00000010
00000100
,
00000000
00010000
00001000
00100000
00000000
00010000
01000000
10000000
,
02000000
00000000
03200000
00000000
00320000
00000000
00031000
00011000
,
00000000
00010000
00000100
00001100
00000000
00000010
00000001
00001000
,
00000020
00000000
00000130
00002000
00000000
00023000
00000000
00000000
,
01000000
00000000
01030000
00000000
20000000
00000000
30100000
01000000
,
00001000
00000000
00020000
00000000
00030200
00000000
00001300
00000020
,
00000100
00000001
00000100
00001000
,
00010030
00000000
00002000
00000000
00203000
00000000
00310000
20000000
,
00100000
01000000
00010000
00100000
,
31000000
00000000
00020000
00000000
00030200
00000000
00000310
00000002
,
00000100
00000010
00001000
00000100
,
00000023
00000000
00000130
00010100
00000000
00010000
00001000
00011000
,
00000000
00000000
00100000
00000000
00010000
00000000
01010000
00000000
00000000
00000000
00100000
00000000
10000000
00010000
10000000
00010000
,
02000000
00000000
00000000
00000000
03010000
00000000
00010000
00100000
00001000
00000000
00010000
00000000
00000000
00000000
00000100
00000000
,
00000000
00000010
00000010
00000001
00001100
00000000
00000202
00000000
,
00000303
00000000
00000000
00000000
;
