#TITLE:我是你的誰;
#ARTIST:黄立行;
#TITLETRANSLIT:Wo Shi Ni De Shui;
#ARTISTTRANSLIT:Stanley Huang;
#BANNER:Wo Shi Ni De Shui.png;
#BACKGROUND:Wo Shi Ni De Shui-bg.png;
#CDTITLE:./CDTITLES/DanceDanceRevolution UNIVERSE3 Chinese Special Edition.png;
#MUSIC:Wo Shi Ni De Shui.ogg;
#SAMPLESTART:40.32;
#SAMPLELENGTH:15;
#BPMS:0=125;

//---------------dance-single - ----------------
#NOTES:
     dance-single:
     :
     Beginner:
     1:
     :
0000
0000
0000
0000
,
0000
0000
0000
0000
,
0000
0000
0000
0000
,
1000
0000
0000
0000
,
0001
0000
0000
0000
,
0010
0000
0010
0000
,
0100
0000
0000
0000
,
1000
0000
0001
0000
,
1000
0000
0000
0000
,
0010
0000
0010
0000
,
0100
0000
0000
0000
,
0001
0000
1000
0000
,
0001
0000
0000
0000
,
0010
0000
0100
0000
,
0010
0000
0000
0000
,
0100
0000
1000
0000
,
0100
0000
0000
0000
,
1000
0000
0001
0000
,
1000
0000
0000
0000
,
0010
0000
0100
0000
,
0010
0000
0000
0000
,
0100
0000
0100
0000
,
0100
0000
0100
0000
,
0001
0000
0001
0000
,
0001
0000
0001
0000
,
1000
0000
1000
0000
,
1000
0000
1000
0000
,
0100
0000
0100
0000
,
0100
0000
0100
0000
,
0010
0000
0000
0000
,
0010
0000
0000
0000
,
0001
0000
0000
0000
,
0001
0000
0000
0000
,
1000
0000
0010
0000
,
0100
0000
0000
0000
,
0001
0000
0010
0000
,
0100
0000
0000
0000
,
1000
0000
0000
0000
,
0001
0000
0100
0000
,
0010
0000
0000
0000
,
1000
0000
0001
0000
,
1000
0000
0000
0000
,
0100
0000
0010
0000
,
0100
0000
0000
0000
,
0010
0000
0001
0000
,
1000
0000
1000
0000
,
0010
0000
0010
0000
,
0100
0000
0100
0000
,
0001
0000
0001
0000
,
0010
0000
0010
0000
,
0100
0000
0100
0000
,
1000
0000
1000
0000
,
0001
0000
0001
0000
,
1000
0000
0000
0000
;

//---------------dance-single - ----------------
#NOTES:
     dance-single:
     :
     Easy:
     3:
     :
0000
0000
0000
0000
,
0000
0000
0000
0000
,
0000
0000
0000
0000
,
1000
0000
0000
0000
,
0010
0000
0000
0000
,
0100
0001
0000
0001
,
0010
0100
0000
0100
,
1000
0001
0000
0001
,
0100
0010
0000
0010
,
1000
0100
0000
0100
,
1000
0001
0000
0001
,
0100
0010
0000
0010
,
1000
0001
1000
0000
,
0100
0010
0000
0010
,
0001
1000
0000
1000
,
0010
0100
0000
0100
,
0001
1000
0000
1000
,
0100
0010
0000
0010
,
0001
0010
0000
0010
,
0100
1000
0000
1000
,
0010
0100
0001
0000
,
1000
0000
0100
0000
,
0001
0100
1000
0000
,
0010
0000
0100
0000
,
0001
0100
1000
0100
,
0001
0000
0010
0000
,
0100
1000
0001
0000
,
0100
0000
0010
0000
,
1000
0010
0001
0010
,
1000
0000
0001
0000
,
1000
0000
0100
0000
,
0010
0000
0100
0000
,
0010
0000
0001
0000
,
1000
0000
0010
0000
,
0100
0001
1000
0100
,
0010
0000
0001
0000
,
0010
0100
1000
0001
,
0100
0000
0000
0010
,
1000
0000
0000
0001
,
0010
0000
0000
0100
,
1000
0000
0000
0100
,
0010
0001
0000
0001
,
1000
0010
0000
0010
,
0100
0001
0000
1000
,
0100
0010
0100
0010
,
0001
0000
0100
0000
,
0010
1000
0001
0010
,
0100
0000
1000
0000
,
0010
0100
0001
0100
,
0010
0000
1000
0000
,
0100
0001
0100
1000
,
0001
0000
0100
0000
,
0010
1000
0010
0001
,
0010
0000
0000
0000
;

//---------------dance-single - ----------------
#NOTES:
     dance-single:
     :
     Medium:
     5:
     :
0000
0000
0000
0000
,
0000
0000
0000
0000
,
0000
0000
0000
0000
,
1000
0000
0000
0010
0000
0000
0000
0000
,
0100
0000
0000
0001
0000
0000
0000
0000
,
0010
0000
0100
0000
,
1000
0001
1000
0000
,
0010
0000
0100
0000
,
0001
0010
0100
0000
,
1000
0000
0001
0000
,
0100
0000
0010
0000
1000
0001
1000
0000
,
0100
0000
0010
0000
,
0001
0010
0001
0010
0100
0000
0000
0000
,
1000
0001
1000
0000
0010
0000
0100
0000
,
0001
0010
0001
0000
0010
0000
0100
0000
,
1000
0100
1000
0000
0001
0000
0100
0000
,
0010
1000
0001
0010
0100
0000
0000
0000
,
1000
0100
1000
0000
0001
0000
0100
0000
,
0010
0100
0010
0000
1000
0000
0001
0000
,
0010
0100
0010
0000
0001
0000
0100
0000
,
0010
1000
0001
0010
0100
1000
0001
0000
,
0100
0010
1000
0000
0001
0010
0100
0000
,
1000
0100
0001
0000
0100
1000
0010
0000
,
0100
0001
0010
0000
0001
0010
0100
0000
,
1000
0100
0001
0000
0100
1000
0010
0000
,
0100
0001
1000
0000
0100
1000
0001
0000
,
0010
0001
1000
0000
0010
0100
0001
0000
,
0010
0100
1000
0000
0100
0001
0100
0000
,
0010
0001
0010
0000
0100
1000
0001
0000
,
0100
0000
0000
0010
1000
0000
0000
0000
,
0001
0000
0000
0010
0100
0000
0000
0010
,
0001
0000
0000
0100
0010
0000
0000
0000
,
1000
0000
0000
0010
0100
0000
0000
0001
,
0010
0100
1000
0001
,
0100
0000
0010
0000
1000
0100
0010
0000
,
0001
0010
0100
1000
,
0100
0000
0010
0000
0001
0100
0010
0000
,
1000
0100
0001
0000
,
0100
0000
1000
0000
0010
0100
0001
0000
,
0010
0100
1000
0001
,
0100
0000
0010
0000
1000
0010
0001
0000
,
0010
1000
0001
0000
,
0010
0000
0100
0000
0010
0001
0100
0000
,
0010
1000
0001
0010
,
0100
0000
1000
0000
0001
0100
0001
0000
,
0010
0100
1000
0000
0100
0010
0001
0000
,
0100
0001
1000
0000
0100
1000
0010
0000
,
0100
0001
0010
0000
0100
1000
0010
0000
,
0001
0010
1000
0000
0001
0010
0100
0000
,
0010
0001
0100
0000
1000
0100
0001
0000
,
0010
0100
1000
0000
0100
0010
0001
0000
,
0100
0010
1000
0000
0010
0100
0001
0000
,
0010
0100
1000
0000
0001
0100
0010
0000
,
1001
0000
0000
0000
;

//---------------dance-single - ----------------
#NOTES:
     dance-single:
     :
     Hard:
     9:
     :
0000
0000
0000
0000
,
0000
0000
0000
0000
,
0000
0000
0000
0000
,
0101
0000
0000
1100
0000
0000
0001
0000
,
1010
0000
0000
0101
0000
0010
1000
0000
,
0010
1000
0001
0010
0000
0100
1000
0001
,
0100
0010
0100
0001
1000
0000
0010
0000
,
0100
0001
1000
0001
0010
0000
0100
1000
,
0010
0100
0010
1000
0001
0010
0100
0000
,
1000
0001
0100
0010
0100
0000
0010
1000
,
0001
1000
0100
0000
0010
0000
0001
1000
,
0010
1000
0001
0010
0100
0000
1000
0100
,
0010
0000
0100
0000
1000
0000
0000
0000
0001
0000
0000
0000
0100
0000
0010
1000
,
0020
0000
0130
0001
0010
0000
0100
0010
,
0002
0000
0000
0000
0013
0000
0000
0000
0100
0000
0000
0000
1000
0000
0001
0100
,
0002
0000
0103
0000
0010
0000
1000
0100
,
0010
0000
0001
0000
0100
0000
1000
0000
0100
0000
0000
0000
0010
0000
1000
0001
,
2000
0000
3100
0010
0001
0000
0100
0001
,
1000
0000
0001
0000
0100
0000
0001
0000
0010
0000
0000
0000
0100
0000
0010
0100
,
0020
0000
0031
1000
0010
0100
0001
0010
,
1000
0010
0001
1000
0010
0100
1002
0000
,
1003
0100
0010
1000
0010
0001
0010
0100
,
1000
0010
0100
0001
0010
0010
2001
0000
,
3001
0010
0100
0001
0100
1000
0100
0010
,
0001
0100
0010
1000
0100
0100
1002
0000
,
0013
0100
1000
0001
0100
1000
0100
0001
,
0010
0100
0010
0001
0100
0100
2001
0000
,
3010
0100
0001
1000
0100
0001
0100
1000
,
0010
0100
0001
1000
0100
0100
1002
0000
,
0103
0000
0000
0010
1000
0000
0000
0000
,
0100
0000
0000
0000
0000
0000
0010
0000
0001
0000
0100
0000
0000
0000
0010
1000
,
0020
0000
0030
0100
0001
0000
0000
0000
,
1000
0000
0000
0100
0010
0001
0000
1000
,
0010
0100
0001
0100
0010
1000
0100
1000
,
0001
0010
0100
0010
0001
0100
2000
0000
,
3100
0010
1000
0001
0010
0100
0010
0001
,
1000
0010
1000
0001
0010
1000
0020
0000
,
0031
0000
1000
0001
1000
0000
0100
0000
0020
0000
0000
0000
0000
0000
0000
0000
,
0031
0000
0100
0010
0100
0000
0010
0000
1000
0000
0100
0000
1000
0000
0001
0010
,
0001
0000
0010
0100
0010
0000
0100
0000
1000
0000
0010
1000
0010
0000
0100
0000
,
0001
0000
0100
0000
1000
0000
0100
0000
0010
1000
0001
0000
0010
0000
0100
1000
,
0100
0000
0010
0001
0010
0000
0100
0000
2000
0000
0000
0000
0000
0000
0000
0000
,
3010
0000
0100
0001
0100
0000
0001
0000
0010
0000
0100
0000
1000
0000
0001
1000
,
0001
0000
0100
0010
0100
0000
0010
0000
1000
0000
0100
0010
0100
0000
0010
0000
,
0001
0000
0000
0000
0000
0000
0000
0000
0100
0000
0000
0000
0000
0000
0000
0000
1000
0000
0000
0000
0000
0000
0000
0000
0001
0000
0000
0000
0000
0000
0000
0000
0010
0000
0000
0000
1000
0000
0000
0000
0001
0000
0000
0000
0000
0000
0000
0000
2001
0000
0000
0000
0000
0000
0000
0000
0000
0000
0000
0000
0000
0000
0000
3000
,
0001
0010
0100
0001
0100
1000
0100
0010
,
0001
0100
0010
1000
0100
0100
1002
0000
,
1003
0100
0010
1000
0010
0001
0010
0100
,
1000
0010
0100
0001
0010
0010
2001
0000
,
3100
0010
0001
1000
0010
0001
0010
1000
,
0100
0010
0100
1000
0010
0010
1002
0000
,
0103
0010
1000
0001
0010
1000
0010
0001
,
0100
0010
1000
0001
0010
0010
2002
0000
,
3003
0000
0000
0000
;

//---------------dance-double - ----------------
#NOTES:
     dance-double:
     :
     Beginner:
     1:
     :
00000000
00000000
00000000
00000000
,
00000000
00000000
00000000
00000000
,
00000000
00000000
00000000
00000000
,
10000000
00000000
00000000
00000000
,
01000000
00000000
00000000
00000000
,
00100000
00000000
00100000
00000000
,
00001000
00000000
00000000
00000000
,
00010000
00000000
00000100
00000000
,
00010000
00000000
00000000
00000000
,
00000010
00000000
00000010
00000000
,
00001000
00000000
00000000
00000000
,
00000001
00000000
00001000
00000000
,
00000100
00000000
00000000
00000000
,
00010000
00000000
00001000
00000000
,
00010000
00000000
00000000
00000000
,
00001000
00000000
01000000
00000000
,
00010000
00000000
00000000
00000000
,
10000000
00000000
00010000
00000000
,
10000000
00000000
00000000
00000000
,
01000000
00000000
00100000
00000000
,
00001000
00000000
00000000
00000000
,
00010000
00000000
00010000
00000000
,
00010000
00000000
00010000
00000000
,
00000100
00000000
00000100
00000000
,
00000100
00000000
00000100
00000000
,
00000010
00000000
00000010
00000000
,
00000010
00000000
00000010
00000000
,
00000001
00000000
00000001
00000000
,
00000001
00000000
00000001
00000000
,
00001000
00000000
00000000
00000000
,
00000100
00000000
00000000
00000000
,
00010000
00000000
00000000
00000000
,
00001000
00000000
00000000
00000000
,
01000000
00000000
00100000
00000000
,
10000000
00000000
00000000
00000000
,
00010000
00000000
00100000
00000000
,
01000000
00000000
00000000
00000000
,
00100000
00000000
00000000
00000000
,
00001000
00000000
00010000
00000000
,
00001000
00000000
00000000
00000000
,
00010000
00000000
00000010
00000000
,
00001000
00000000
00000000
00000000
,
00000001
00000000
00001000
00000000
,
00000001
00000000
00000000
00000000
,
00000010
00000000
00000100
00000000
,
00010000
00000000
00010000
00000000
,
00001000
00000000
00001000
00000000
,
00100000
00000000
00100000
00000000
,
00010000
00000000
00010000
00000000
,
01000000
00000000
01000000
00000000
,
00100000
00000000
00100000
00000000
,
10000000
00000000
10000000
00000000
,
01000000
00000000
01000000
00000000
,
00100000
00000000
00000000
00000000
;

//---------------dance-double - ----------------
#NOTES:
     dance-double:
     :
     Easy:
     3:
     :
00000000
00000000
00000000
00000000
,
00000000
00000000
00000000
00000000
,
00000000
00000000
00000000
00000000
,
00000001
00000000
00000000
00000000
,
00000100
00000000
00000000
00000000
,
00000010
00010000
00000000
00010000
,
00001000
00100000
00000000
00100000
,
01000000
10000000
00000000
10000000
,
01000000
00100000
00000000
00100000
,
00001000
00010000
00000000
00010000
,
00000100
00001000
00000000
00001000
,
00000010
00000100
00000000
00000100
,
00000001
00001000
00000001
00000000
,
00000100
00000010
00000000
00010000
,
00001000
00100000
00000000
01000000
,
10000000
00100000
00000000
01000000
,
00001000
00010000
00000000
00000100
,
00001000
00000100
00000000
00000010
,
00000001
00000010
00000000
00000100
,
00010000
00001000
00000000
01000000
,
00100000
01000000
00010000
00000000
,
10000000
00000000
01000000
00000000
,
00010000
00001000
00010000
00000000
,
00001000
00000000
00000100
00000000
,
00000001
00000100
00001000
00000100
,
00000010
00000000
00000001
00000000
,
00000100
00000010
00010000
00000000
,
00001000
00000000
00100000
00000000
,
00010000
01000000
10000000
01000000
,
00010000
00000000
00100000
00000000
,
00001000
00000000
00010000
00000000
,
00000100
00000000
00000010
00000000
,
00000001
00000000
00000100
00000000
,
00000010
00000000
00010000
00000000
,
00001000
00100000
01000000
10000000
,
01000000
00000000
01000000
00000000
,
00100000
00001000
00010000
00000100
,
00001000
00000000
00000000
00000010
,
00000100
00000000
00000000
00000001
,
00001000
00000000
00000000
00000100
,
00010000
00000000
00000000
00001000
,
01000000
00100000
00000000
10000000
,
01000000
10000000
00000000
00100000
,
01000000
00001000
00000000
00010000
,
00000100
00001000
00000100
00000010
,
00000001
00000000
00000100
00000000
,
00000010
00000100
00000010
00010000
,
00001000
00000000
00100000
00000000
,
01000000
10000000
01000000
00100000
,
00010000
00000000
01000000
00000000
,
00001000
00010000
00000100
00010000
,
00000010
00000000
00001000
00000000
,
00000001
00000100
00001000
00000100
,
00000001
00000000
00000000
00000000
;

//---------------dance-double - ----------------
#NOTES:
     dance-double:
     :
     Medium:
     6:
     :
00000000
00000000
00000000
00000000
,
00000000
00000000
00000000
00000000
,
00000000
00000000
00000000
00000000
,
10000000
00000000
00000000
01000000
00000000
00000000
00000000
00000000
,
00100000
00000000
00000000
00001000
00000000
00000000
00000000
00000000
,
00010000
00000000
00000100
00000000
,
00001000
00000010
00001000
00000000
,
00000001
00000000
00000010
00000000
,
00000100
00010000
00001000
00000000
,
00100000
00000000
00010000
00000000
,
01000000
00000000
00100000
00000000
01000000
00010000
10000000
00000000
,
01000000
00000000
00010000
00000000
,
00001000
00010000
00001000
00010000
00001000
00000000
00000000
00000000
,
00010000
00000010
00001000
00000000
00000100
00000000
00000010
00000000
,
00000001
00001000
00000001
00000000
00000100
00000000
00000010
00000000
,
00010000
00001000
00010000
00000000
01000000
00000000
00100000
00000000
,
00010000
00100000
01000000
10000000
00100000
00000000
00000000
00000000
,
01000000
00001000
00010000
00000000
00000100
00000000
00000010
00000000
,
00000001
00001000
00000001
00000000
00000010
00000000
00000100
00000000
,
00010000
00001000
01000000
00000000
00100000
00000000
10000000
00000000
,
00010000
10000000
00010000
00100000
01000000
10000000
00010000
00000000
,
10000000
01000000
00010000
00000000
01000000
00100000
00001000
00000000
,
00010000
00001000
00000100
00000000
00001000
00000100
00000001
00000000
,
00000010
00000100
00010000
00000000
00001000
00100000
00010000
00000000
,
10000000
01000000
00010000
00000000
00001000
00000100
00000001
00000000
,
00000010
00000100
00010000
00000000
00001000
00100000
01000000
00000000
,
00100000
00010000
10000000
00000000
00100000
01000000
00010000
00000000
,
10000000
01000000
10000000
00000000
00100000
01000000
00001000
00000000
,
00100000
00010000
00100000
00000000
00001000
00010000
00000010
00000000
,
00000100
00000000
00000000
00000001
00000010
00000000
00000000
00000000
,
00000100
00000000
00000000
00010000
00001000
00000000
00000000
00100000
,
01000000
00000000
00000000
10000000
00010000
00000000
00000000
00000000
,
01000000
00000000
00000000
00001000
00010000
00000000
00000000
00000100
,
00000010
00000100
00001000
00000001
,
00000100
00000000
00000010
00000000
00010000
00001000
01000000
00000000
,
00100000
00010000
00100000
10000000
,
01000000
00000000
00100000
00000000
00001000
00010000
00000100
00000000
,
00000010
00000001
00000100
00000000
,
00001000
00000000
00010000
00000000
00001000
00100000
00010000
00000000
,
10000000
01000000
00010000
00001000
,
00000100
00000000
00000001
00000000
00001000
00000010
00010000
00000000
,
00001000
00100000
01000000
00000000
,
10000000
00000000
00100000
00000000
01000000
00001000
00010000
00000000
,
00001000
00000100
00000010
00000100
,
00001000
00000000
00000001
00000000
00000100
00000010
00001000
00000000
,
00000100
00010000
00001000
00000000
00100000
00010000
01000000
00000000
,
00100000
10000000
01000000
00000000
00010000
00001000
00010000
00000000
,
00000100
00001000
00000010
00000000
00000100
00000001
00000010
00000000
,
00000100
00010000
00001000
00000000
00100000
01000000
00100000
00000000
,
01000000
10000000
00100000
00000000
01000000
00100000
00010000
00000000
,
00001000
00010000
00000010
00000000
00000100
00000001
00001000
00000000
,
00000100
00000010
00001000
00000000
00010000
01000000
00100000
00000000
,
00010000
10000000
01000000
00000000
00100000
00010000
01000000
00000000
,
10010000
00000000
00000000
00000000
;

//---------------dance-double - ----------------
#NOTES:
     dance-double:
     :
     Hard:
     9:
     :
00000000
00000000
00000000
00000000
,
00000000
00000000
00000000
00000000
,
00000000
00000000
00000000
00000000
,
00000101
00000000
00000000
00001100
00000000
00000000
00010000
00000000
,
00011000
00000000
00000000
00110000
00000000
00010000
10000000
00000000
,
00100000
10000000
01000000
00010000
00000000
00001000
00010000
00000100
,
00001000
00000010
00000100
00000010
00000001
00000000
00000010
00000000
,
00001000
00000100
00000010
00001000
00010000
00000000
01000000
10000000
,
00100000
01000000
00010000
00100000
00001000
00010000
00001000
00000000
,
00010000
00000100
00001000
00000100
00000010
00000000
00000001
00000100
,
00001000
00010000
00001000
00000000
00100000
00000000
01000000
10000000
,
00100000
01000000
00100000
00010000
00001000
00000000
00010000
00000010
,
00000100
00000000
00000010
00000000
00001000
00000000
00000000
00000000
00000001
00000000
00000000
00000000
00001000
00000000
00000010
00000100
,
00000020
00000000
00010030
00001000
00100000
00000000
00010000
01000000
,
00200000
00000000
00000000
00000000
10300000
00000000
00000000
00000000
01000000
00000000
00000000
00000000
00010000
00000000
00001000
00010000
,
00002000
00000000
00003100
00000000
00000001
00000000
00000010
00000100
,
00010000
00000000
00001000
00000000
00100000
00000000
00010000
00000000
10000000
00000000
00000000
00000000
00100000
00000000
01000000
00001000
,
02000000
00000000
03000000
00100000
00010000
00000000
00001000
00010000
,
00000100
00000000
00010000
00000000
00000010
00000000
00001000
00000000
00000100
00000000
00000000
00000000
00000010
00000000
00000001
00001000
,
00000002
00000000
00000103
00000010
00010000
00000100
00001000
00000010
,
00000100
00001000
00010000
00100000
10000000
01000000
12000000
00000000
,
13000000
01000000
00010000
01000000
00100000
00001000
00010000
00001000
,
00000100
00000010
00001000
00000100
00000010
00000010
00000021
00000000
,
00000031
00000010
00001000
00010000
00001000
00000100
00001000
00010000
,
00100000
10000000
00010000
00100000
01000000
01000000
10020000
00000000
,
10030000
00100000
00010000
00100000
01000000
00001000
01000000
00010000
,
00100000
00001000
00010000
00000100
00000010
00000010
00002001
00000000
,
00003001
00000100
00001000
00010000
00100000
10000000
00100000
01000000
,
00001000
00010000
00000010
00000100
00000001
00000001
00002100
00000000
,
00003010
00000000
00000000
00010000
00001000
00000000
00000000
00000000
,
00100000
00000000
00000000
00000000
00000000
00000000
00010000
00000000
10000000
00000000
00100000
00000000
00000000
00000000
01000000
00010000
,
02000000
00000000
03000000
00001000
00010000
00000000
00000000
00000000
,
00001000
00000000
00000000
00000100
00000010
00001000
00000000
00000001
,
00000010
00000100
00000010
00001000
00010000
00001000
00100000
00010000
,
00100000
00001000
01000000
00010000
10000000
00100000
02000000
00000000
,
13000000
01000000
00100000
10000000
00010000
10000000
01000000
00010000
,
00001000
00010000
00000100
00001000
00000010
00000100
00000002
00000000
,
00001003
00000000
00000100
00010000
00000100
00000000
00010000
00000000
00002000
00000000
00000000
00000000
00000000
00000000
00000000
00000000
,
00103000
00000000
00010000
01000000
00010000
00000000
10000000
00000000
01000000
00000000
00100000
00000000
01000000
00000000
10000000
00100000
,
10000000
00000000
00100000
01000000
00100000
00000000
01000000
00000000
00001000
00000000
00010000
00001000
00010000
00000000
00000100
00000000
,
00000010
00000000
00001000
00000000
00000010
00000000
00000001
00000000
00001000
00000010
00000100
00000000
00000001
00000000
00000100
00001000
,
00000100
00000000
00001000
00010000
00001000
00000000
00100000
00000000
02000000
00000000
00000000
00000000
00000000
00000000
00000000
00000000
,
13000000
00000000
01000000
00100000
01000000
00000000
10000000
00000000
00100000
00000000
01000000
00000000
00001000
00000000
00010000
00001000
,
00010000
00000000
00000100
00001000
00000100
00000000
00000010
00000000
00000001
00000000
00001000
00000010
00001000
00000000
00000001
00000000
,
00000100
00000000
00000000
00000000
00000000
00000000
00000000
00000000
00001000
00000000
00000000
00000000
00000000
00000000
00000000
00000000
00010000
00000000
00000000
00000000
00000000
00000000
00000000
00000000
00100000
00000000
00000000
00000000
00000000
00000000
00000000
00000000
10000000
00000000
00000000
00000000
00010000
00000000
00000000
00000000
10000000
00000000
00000000
00000000
00000000
00000000
00000000
00000000
21000000
00000000
00000000
00000000
00000000
00000000
00000000
00000000
00000000
00000000
00000000
00000000
00000000
00000000
00000000
30000000
,
01000000
00100000
10000000
00100000
00001000
00010000
00001000
00000100
,
00000010
00001000
00000001
00000010
00000100
00000100
00001002
00000000
,
00000013
00000100
00000001
00000100
00010000
00001000
00010000
01000000
,
00100000
00010000
01000000
00100000
10000000
10000000
01020000
00000000
,
10030000
00100000
00010000
00001000
00100000
00010000
00100000
01000000
,
00010000
00001000
00000010
00000001
00000100
00000100
00002001
00000000
,
00003001
00000100
00001000
00010000
00000100
00000010
00001000
00100000
,
01000000
10000000
00010000
01000000
00100000
00100000
20020000
00000000
,
30030000
00000000
00000000
00000000
;
