#TITLE:玩美;
#ARTIST:蔡依林;
#TITLETRANSLIT:Wan Mei;
#ARTISTTRANSLIT:Jolin Tsai;
#BANNER:Wan Mei.png;
#BACKGROUND:Wan Mei-bg.png;
#CDTITLE:./CDTITLES/DanceDanceRevolution UNIVERSE3 Chinese Special Edition.png;
#MUSIC:Wan Mei.ogg;
#SAMPLESTART:91.429;
#SAMPLELENGTH:15;
#BPMS:0=105;

//---------------dance-single - ----------------
#NOTES:
     dance-single:
     :
     Beginner:
     1:
     :
0000
0000
0000
0000
,
0000
0000
0000
0000
,
0000
0000
0000
0000
,
1000
0000
0000
0000
,
0001
0000
0000
0000
,
0100
0000
0000
0000
,
0100
0000
0000
0000
,
0010
0000
0010
0000
,
0010
0000
0000
0000
,
1000
0000
0000
0000
,
1000
0000
0000
0000
,
0100
0000
0100
0000
,
0100
0000
0000
0000
,
0010
0000
0000
0000
,
0010
0000
0000
0000
,
0001
0000
0001
0000
,
0001
0000
0000
0000
,
0100
0000
0010
0000
,
1000
0000
0001
0000
,
0000
0000
0000
0010
,
0010
0000
0010
0000
,
0010
0000
0000
0000
,
0100
0000
0100
0000
,
0100
0000
0000
0000
,
1000
0000
1000
0000
,
1000
0000
0000
0000
,
0001
0000
0001
0000
,
0001
0000
0000
0000
,
0100
0000
0010
0000
,
0100
0000
0010
0000
,
1000
0000
0000
0000
,
0001
0000
0000
0000
,
0010
0000
0100
0000
,
0010
0000
0100
0000
,
1000
0000
0000
0000
,
0001
0000
0000
0000
,
0100
0000
0000
0000
,
0010
0000
0000
0000
,
1000
0000
0000
0000
,
0001
0000
0000
0000
,
1001
0000
0000
0000
,
0110
0000
0000
0000
,
1001
0000
0000
0000
,
0001
0000
0010
0000
,
0110
0000
0000
0000
,
1001
0000
0000
0000
,
0110
0000
0000
0000
,
0100
0000
1000
0000
,
1001
0000
1000
0000
,
0010
0000
0200
0000
,
0000
0000
0300
0000
;

//---------------dance-single - ----------------
#NOTES:
     dance-single:
     :
     Easy:
     3:
     :
0000
0000
0000
0000
,
0000
0000
0000
0000
,
0000
0000
0000
0000
,
0001
0000
0001
0000
,
1000
0000
1000
0000
,
0100
0100
0010
0000
,
0001
0001
1000
0000
,
0010
0100
0010
0000
,
0100
0000
0001
0000
,
1000
1000
0100
0000
,
0010
0010
0100
0000
,
0010
0001
0010
0000
,
0001
0000
1000
0000
,
0010
0100
0001
0010
,
0100
0000
1000
0000
,
0010
0100
1000
0100
,
0001
0000
0010
0000
,
0100
0000
1000
0000
,
0001
0000
0100
0000
,
0000
0000
0000
0010
,
0110
0100
0001
0000
,
0001
0010
0100
0000
,
1000
0000
0010
0000
,
0100
0000
0001
1000
,
0001
0000
0001
0000
,
0010
0000
0010
0100
,
1000
0000
1000
0000
,
0010
0000
0100
0100
,
0001
0000
0001
0000
,
0010
0000
0010
0000
,
0001
0100
0010
1000
,
0100
0000
0010
0000
,
0001
0010
0100
0000
,
1000
0010
0100
0000
,
0010
1000
0100
0010
,
0001
0000
0010
0000
,
0100
0000
1000
0000
,
0010
0000
0100
0000
,
0001
0000
0010
0000
,
0100
1000
0001
1000
,
0010
0000
0010
0100
,
0001
0000
0001
1000
,
0010
0000
0010
1000
,
0100
0000
0010
0001
,
0100
0100
0010
0010
,
1000
0000
0001
0010
,
0100
0000
0010
0000
,
0001
1000
0010
0100
,
0110
0000
0010
0000
,
1000
0000
0002
0000
,
0000
0000
0003
0000
;

//---------------dance-single - ----------------
#NOTES:
     dance-single:
     :
     Medium:
     5:
     :
0000
0000
0000
0000
,
0000
0000
0000
0000
,
0000
0000
0000
0000
,
1000
1000
0000
0010
0000
0000
0000
0000
,
0100
0100
0000
0001
1000
0001
1000
0001
,
0010
0010
0000
0100
1000
0000
0001
0000
,
0100
0100
0000
0010
1000
0000
0001
0000
,
0010
0010
0000
0100
1000
0000
0001
0000
,
0100
0100
0000
0010
1000
0001
1000
0001
,
0010
0100
0000
1000
0001
0100
0010
0000
,
1000
0001
0000
0010
0100
0010
0001
0000
,
0100
0010
0000
0010
0100
0010
1000
0000
,
0001
1000
0000
0100
0010
0100
0010
0100
,
1000
0000
0001
0000
0100
0000
0010
1000
,
0100
0010
0000
0001
0010
0100
1000
0001
,
0100
0000
0010
0000
1000
0000
0001
0010
,
0100
0010
0000
0001
0010
0100
1000
0100
,
0010
0000
0100
0000
,
1000
0000
0001
0000
,
0000
0000
0000
0200
,
0310
1000
0001
1000
0000
0100
0010
0001
,
0010
0100
0000
1000
0001
0100
0010
1000
,
0001
0000
0000
0010
0100
1000
0100
0010
,
0001
0010
0000
0001
0100
0010
1000
0000
,
1001
0000
1001
0000
0001
0010
0100
1000
,
1010
0000
1010
0000
0010
0100
0001
0100
,
1001
0000
0000
0000
0001
0010
0100
0010
,
0001
0000
0000
0010
0100
1000
0001
0000
,
0100
0000
0100
0010
1010
0000
0000
0001
,
0000
0010
0100
0010
0011
0000
0000
0000
,
0001
0000
0100
0010
1000
0001
0000
0010
,
0100
1000
0100
0010
0001
0010
0100
0000
,
1100
0000
0010
1000
0001
0000
0000
0011
,
0000
0100
0010
1000
0001
0000
0000
0000
,
1001
0000
0001
0010
0100
0010
0000
0001
,
0100
0010
0000
1000
0010
0100
0001
0000
,
1001
0000
0000
0001
0000
0000
0010
0100
,
1000
0000
0000
1000
0000
0000
0100
0010
,
0001
0000
0000
0001
0000
0000
0100
0010
,
1000
0010
0100
0000
0001
0010
0100
0000
,
1001
0000
0001
0000
0010
0000
0100
1000
,
0100
0010
0001
0000
0001
0010
0100
1000
,
1001
0000
1001
0000
0001
0100
0010
0000
,
0010
0100
0001
0000
1000
0100
0010
0100
,
1000
0000
1000
0010
0100
0001
0010
0100
,
1100
0000
1100
0000
0010
0001
0100
0001
,
1001
0000
0000
0010
0100
0001
0010
0100
,
1000
0100
0000
0010
0001
0100
0010
1000
,
1001
0000
0001
0000
,
0010
0000
0200
0000
,
0000
0000
0300
0000
;

//---------------dance-single - ----------------
#NOTES:
     dance-single:
     :
     Hard:
     8:
     :
0000
0000
0000
0000
,
0000
0000
0000
0000
,
0000
0000
0000
0000
,
0010
0000
0010
0000
0100
0000
0001
0000
1000
0100
0010
0000
0100
0000
1000
0000
,
0001
0000
0001
0000
0100
0000
0010
0000
1000
0010
1000
0000
0001
0010
0000
0000
,
1001
0000
1000
0000
0010
0000
0100
0000
0001
0100
0010
0000
0100
0000
0001
0000
,
0010
0000
0010
0000
0100
0000
1000
0000
0001
1000
0100
0000
0010
0000
0100
0000
,
1000
0000
1000
0000
0010
0000
0100
0000
0001
0010
0100
0000
0010
0000
0001
0000
,
0100
0000
0100
0000
0010
0000
1000
0000
0100
0010
0100
0000
1000
0001
0000
0000
,
1001
0000
0001
0000
0100
0000
0010
0000
1000
0010
0100
0000
0010
0000
1000
0000
,
0100
0000
0100
0000
0010
0000
0001
0000
1000
0001
0010
0000
0100
0000
0010
0000
,
0001
0000
0001
0000
0100
0000
0010
0000
1000
0100
0010
0000
0100
0000
1000
0000
,
0010
0000
0010
0000
0100
0000
0001
0000
0010
0100
0010
0000
0001
1000
0000
0000
,
1010
0000
0010
0000
0100
0000
0100
0000
0010
0001
1000
0000
0010
0000
0100
0000
,
0001
0000
0001
0000
0010
0000
0010
0000
1000
0001
0100
0000
0010
0000
1000
0000
,
0100
0000
0100
0000
0010
0000
0010
0000
0100
0001
0010
0000
0100
0000
1000
0000
,
0010
0000
0010
0000
1000
0000
1000
0000
0100
0001
0100
0000
0010
1000
0000
0000
,
1002
0000
0023
0000
,
0230
0000
2300
0000
,
0000
0000
3000
0002
,
0103
0000
0010
0000
1010
0000
0000
0101
0000
0000
0001
0000
0010
0000
0100
0000
,
1000
0000
0001
0000
1001
0000
0000
0110
0000
0000
1000
0000
0100
0000
0010
0000
,
0100
0000
1000
0000
0000
0000
0001
0000
0100
0010
1000
0000
0001
0000
0010
0000
,
0100
0010
0000
0001
0100
0010
1000
0000
,
1001
0000
1001
0000
0110
0100
0001
1000
,
1100
0000
0100
0010
0100
0000
1000
0000
0001
0000
0100
0000
0001
0000
1000
0000
,
0100
0000
0010
0000
0000
0000
0001
0000
0010
0100
1000
0000
0100
0000
0010
0000
,
0001
0100
0000
0010
1000
0010
0100
0000
,
1001
0000
0000
0000
0010
0000
0100
0000
0001
0010
0100
0000
0010
0000
0001
0000
,
0000
0000
1000
0000
0010
0000
0100
0000
0010
1000
0001
0000
0010
0000
0100
0000
,
2000
0000
3020
0230
2300
3200
0000
0302
,
0000
0023
0230
0302
0203
2300
3020
0130
,
1001
0000
0000
0000
0100
0000
0010
0000
1000
0100
0010
0000
0100
0000
1000
0000
,
0000
0000
0001
0000
0100
0000
0010
0000
0100
0001
1000
0000
0100
0000
0010
0000
,
0002
0000
0203
0320
2030
3020
0000
0032
,
0000
2003
3200
0302
2003
3002
0023
0130
,
1001
0010
0100
1001
0010
0100
1000
0100
,
0011
1000
0100
0011
1000
0010
0100
0001
,
1010
0100
0001
1010
0100
0001
0010
0100
,
1000
0000
0001
0000
0100
0001
0000
1000
0000
0010
0100
0001
2000
0000
0000
0000
,
3010
0000
0100
0000
0101
0000
0000
1100
0000
0000
1000
0000
0100
0000
0010
0000
,
0001
0000
1000
0000
1001
0000
0000
0110
0000
0000
0001
0000
0010
0000
1000
0000
,
0010
0000
0001
0000
0000
0000
1000
0000
0010
0100
0001
0000
1000
0000
0100
0000
,
0001
0100
0000
1000
0001
0100
0001
0000
,
1001
0000
1001
0000
0110
0010
1000
0001
,
0011
0000
0010
1000
0010
0000
0100
0000
1000
0000
0001
0000
0100
0000
0010
0000
,
0001
0000
0010
0000
0000
0000
0100
0000
0010
1000
0001
0000
0010
0000
0100
0000
,
1000
0010
0000
0100
0001
0100
0010
0000
,
2001
0000
3020
0000
,
0230
0000
0302
0000
,
0000
0000
0003
0000
;

//---------------dance-double - ----------------
#NOTES:
     dance-double:
     :
     Beginner:
     1:
     :
00000000
00000000
00000000
00000000
,
00000000
00000000
00000000
00000000
,
00000000
00000000
00000000
00000000
,
10000000
00000000
00000000
00000000
,
00100000
00000000
00000000
00000000
,
01000000
00000000
00000000
00000000
,
01000000
00000000
00000000
00000000
,
00001000
00000000
00010000
00000000
,
00001000
00000000
00000000
00000000
,
00100000
00000000
00000000
00000000
,
00100000
00000000
00000000
00000000
,
00001000
00000000
00010000
00000000
,
00000100
00000000
00000000
00000000
,
00001000
00000000
00000000
00000000
,
00001000
00000000
00000000
00000000
,
00000010
00000000
00000010
00000000
,
00000100
00000000
00000000
00000000
,
00000001
00000000
00001000
00000000
,
00000010
00000000
00010000
00000000
,
00000000
00000000
00000000
00001000
,
00001000
00000000
00100000
00000000
,
00100000
00000000
00000000
00000000
,
00010000
00000000
10000000
00000000
,
10000000
00000000
00000000
00000000
,
00100000
00000000
00100000
00000000
,
01000000
00000000
00000000
00000000
,
00001000
00000000
00010000
00000000
,
00010000
00000000
00000000
00000000
,
00001000
00000000
00000100
00000000
,
00000010
00000000
00001000
00000000
,
00000001
00000000
00000000
00000000
,
00000010
00000000
00000000
00000000
,
00000100
00000000
00010000
00000000
,
00001000
00000000
00100000
00000000
,
00010000
00000000
00000000
00000000
,
01000000
00000000
00000000
00000000
,
00100000
00000000
00000000
00000000
,
10000000
00000000
00000000
00000000
,
01000000
00000000
00000000
00000000
,
00010000
00000000
00000000
00000000
,
00011000
00000000
00000000
00000000
,
00001000
00000000
00000000
00000000
,
00001001
00000000
00000000
00000000
,
00000010
00000000
00000100
00000000
,
00000110
00000000
00000000
00000000
,
00001000
00000000
00000000
00000000
,
00011000
00000000
00000000
00000000
,
00010000
00000000
10000000
00000000
,
10010000
00000000
00010000
00000000
,
00100000
00000000
02000000
00000000
,
00000000
00000000
03000000
00000000
;

//---------------dance-double - ----------------
#NOTES:
     dance-double:
     :
     Easy:
     3:
     :
00000000
00000000
00000000
00000000
,
00000000
00000000
00000000
00000000
,
00000000
00000000
00000000
00000000
,
00000001
00000000
00000001
00000000
,
00000010
00000000
00000010
00000000
,
00000100
00000100
00010000
00000000
,
00001000
00001000
00100000
00000000
,
00010000
01000000
00010000
00000000
,
01000000
00000000
00100000
00000000
,
10000000
10000000
01000000
00000000
,
00010000
00010000
00001000
00000000
,
00010000
00000100
00010000
00000000
,
00000010
00000000
00001000
00000000
,
00000100
00001000
00000010
00000100
,
00000001
00000000
00000010
00000000
,
00000100
00010000
00001000
00100000
,
00010000
00000000
01000000
00000000
,
00100000
00000000
10000000
00000000
,
01000000
00000000
00010000
00000000
,
00000000
00000000
00000000
00001000
,
00011000
00010000
00000100
00000000
,
00001000
00000010
00001000
00000000
,
00000010
00000000
00000100
00000000
,
00000001
00000000
00000010
00000100
,
00010000
00000000
00010000
00000000
,
00001000
00000000
00100000
00010000
,
01000000
00000000
00100000
00000000
,
10000000
00000000
01000000
01000000
,
00010000
00000000
00001000
00000000
,
00010000
00000000
00001000
00000000
,
00000100
00000010
00001000
00000001
,
00000100
00000000
00000010
00000000
,
00001000
00000100
00010000
00000000
,
00001000
00000000
00100000
00000000
,
00010000
01000000
00100000
10000000
,
00010000
00000000
00100000
00000000
,
00001000
00000000
00010000
00000000
,
00000100
00000000
00001000
00000000
,
00000010
00000000
00000100
00000000
,
00000001
00001000
00000100
00000010
,
00000100
00000000
00010000
00001000
,
00100000
00000000
00010000
01000000
,
00100000
00000000
10000000
01000000
,
00010000
00000000
00001000
00010000
,
00001000
00001000
00010000
00010000
,
00000100
00000100
00001000
00001000
,
00000010
00000000
00000100
00000000
,
00000001
00000010
00000100
00010000
,
00011000
00000000
00010000
00000000
,
00001000
00000000
00020000
00000000
,
00000000
00000000
00030000
00000000
;

//---------------dance-double - ----------------
#NOTES:
     dance-double:
     :
     Medium:
     5:
     :
00000000
00000000
00000000
00000000
,
00000000
00000000
00000000
00000000
,
00000000
00000000
00000000
00000000
,
10000000
10000000
00000000
01000000
00000000
00000000
00000000
00000000
,
00010000
00010000
00000000
00001000
00010000
00001000
00010000
00001000
,
00010000
00010000
00000000
00000100
00001000
00000000
00000010
00000000
,
00001000
00001000
00000000
00000001
00000010
00000000
00000100
00000000
,
00010000
00010000
00000000
00001000
01000000
00000000
00100000
00000000
,
10000000
10000000
00000000
00010000
00100000
00010000
00100000
00010000
,
01000000
00001000
00000000
00010000
00000100
00001000
00000100
00000000
,
00000010
00000100
00000000
00001000
00000001
00001000
00000010
00000000
,
00000100
00000001
00000000
00001000
00000100
00010000
00001000
00000000
,
00100000
00010000
00000000
01000000
00100000
10000000
00010000
01000000
,
00100000
00000000
10000000
00000000
01000000
00000000
00100000
00001000
,
00010000
00001000
00000000
00010000
00000100
00001000
00000010
00001000
,
00000001
00000000
00000100
00000000
00001000
00000000
00010000
00100000
,
01000000
00010000
00000000
01000000
00100000
10000000
01000000
00100000
,
00010000
00000000
01000000
00000000
,
00001000
00000000
00010000
00000000
,
00000000
00000000
00000000
00000020
,
00001030
00000100
00001000
00000100
00000000
00000010
00000100
00001000
,
00000001
00000100
00000000
00000010
00001000
00000100
00010000
00001000
,
00100000
00000000
00000000
00010000
01000000
10000000
01000000
00010000
,
00100000
01000000
00000000
00010000
00001000
00010000
00000010
00000000
,
00001010
00000000
00001010
00000000
00000010
00000100
00000001
00001000
,
00001001
00000000
00001001
00000000
00000001
00000010
00000100
00010000
,
00010100
00000000
00000000
00000000
00001000
00100000
00010000
01000000
,
00100000
00000000
00000000
10000000
00100000
01000000
00010000
00000000
,
00100000
00000000
00100000
00001000
00011000
00000000
00000000
00001000
,
00000000
00010000
00000100
00001000
00001100
00000000
00000000
00000000
,
00001000
00000000
00000100
00001000
00000010
00000100
00000000
00000001
,
00001000
00000100
00000010
00000100
00001000
00000001
00000100
00000000
,
00000010
00000000
00001000
00000100
00010100
00000000
00000000
00001000
,
00000000
00100000
00010000
10000000
10010000
00000000
00000000
00000000
,
10100000
00000000
01000000
00100000
00010000
00100000
00000000
00001000
,
00010000
00001000
00000000
00010000
00000100
00001000
00000010
00000000
,
00001010
00000000
00000000
00000100
00000000
00000000
00000001
00001000
,
00000100
00000000
00000000
00100000
00000000
00000000
00010000
10000000
,
01000000
00000000
00000000
00100000
00000000
00000000
01000000
00100000
,
00010000
00001000
00010000
00000000
00001000
00000100
00000010
00000000
,
00000110
00000000
00000100
00000000
00000001
00000000
00001000
00000100
,
00010000
00001000
00010000
00000000
00001000
00100000
01000000
00100000
,
01100000
00000000
01100000
00000000
01000000
10000000
00010000
00000000
,
00100000
00010000
01000000
00000000
00100000
00010000
00001000
00000100
,
00000010
00000000
00001000
00000001
00000100
00000010
00010000
00001000
,
00011000
00000000
00011000
00000000
00001000
00100000
01000000
00100000
,
01100000
00000000
00000000
01000000
10000000
01000000
00100000
00001000
,
00010000
00000010
00000000
00001000
00000010
00000100
00000001
00000010
,
00000110
00000000
00000100
00000000
,
00010000
00000000
00002000
00000000
,
00000000
00000000
00003000
00000000
;

//---------------dance-double - ----------------
#NOTES:
     dance-double:
     :
     Hard:
     8:
     :
00000000
00000000
00000000
00000000
,
00000000
00000000
00000000
00000000
,
00000000
00000000
00000000
00000000
,
10000000
00000000
10000000
00000000
01000000
00000000
00100000
00000000
00010000
01000000
00100000
00000000
00010000
00000000
00001000
00000000
,
00010000
00000000
00010000
00000000
00000100
00000000
00000010
00000000
00000100
00001000
00000100
00000000
00001000
00000010
00000000
00000000
,
00001001
00000000
00001000
00000000
00000010
00000000
00010000
00000000
00001000
00100000
00010000
00000000
00100000
00000000
10000000
00000000
,
00100000
00000000
00100000
00000000
00010000
00000000
01000000
00000000
00001000
00010000
00000100
00000000
00001000
00000000
00000100
00000000
,
00000010
00000000
00000010
00000000
00000001
00000000
00000100
00000000
00000010
00010000
00001000
00000000
00100000
00000000
00010000
00000000
,
10000000
00000000
10000000
00000000
00100000
00000000
01000000
00000000
00100000
00010000
00100000
00000000
00010000
00001000
00000000
00000000
,
00011000
00000000
00001000
00000000
00000100
00000000
00000010
00000000
00001000
00000100
00000010
00000000
00000001
00000000
00000010
00000000
,
00000100
00000000
00000100
00000000
00010000
00000000
00001000
00000000
00100000
00010000
10000000
00000000
01000000
00000000
00100000
00000000
,
01000000
00000000
01000000
00000000
00010000
00000000
00001000
00000000
00000010
00000100
00001000
00000000
00000001
00000000
00000100
00000000
,
00000010
00000000
00000010
00000000
00010000
00000000
00001000
00000000
00100000
01000000
00100000
00000000
00010000
10000000
00000000
00000000
,
10100000
00000000
00100000
00000000
01000000
00000000
00010000
00000000
00100000
00001000
00010000
00000000
00000100
00000000
00001000
00000000
,
00000010
00000000
00000010
00000000
00001000
00000000
00000100
00000000
00000010
00000001
00001000
00000000
00000100
00000000
00010000
00000000
,
00001000
00000000
00001000
00000000
01000000
00000000
00100000
00000000
00010000
00100000
10000000
00000000
00010000
00000000
00100000
00000000
,
01000000
00000000
01000000
00000000
00010000
00000000
00001000
00000000
00000100
00000010
00000100
00000000
00000001
00001000
00000000
00000000
,
00002001
00000000
00003020
00000000
,
00020030
00000000
00032000
00000000
,
00000000
00003000
00000000
00200000
,
00310000
00000000
01000000
00000000
11000000
00000000
00000000
00110000
00000000
00000000
10000000
00000000
01000000
00000000
00010000
00000000
,
00001000
00000000
00010000
00000000
00011000
00000000
00000000
00010100
00000000
00000000
00001000
00000000
00000010
00000000
00000100
00000000
,
00000001
00000000
00001000
00000000
00000000
00000000
00000100
00000000
00010000
00001000
01000000
00000000
00100000
00000000
00010000
00000000
,
00100000
10000000
00000000
01000000
00001000
00010000
00001000
00000000
,
00010010
00000000
00010010
00000000
00001010
00000100
00000001
00001000
,
00001100
00000000
00000100
00010000
00001000
00000000
00100000
00000000
00010000
00000000
01000000
00000000
00100000
00000000
10000000
00000000
,
01000000
00000000
00100000
00000000
00000000
00000000
00010000
00000000
00001000
00010000
00000010
00000000
00000100
00000000
00001000
00000000
,
00000100
00000001
00000000
00000010
00000100
00010000
00001000
00000000
,
00011000
00000000
00000000
00000000
00010000
00000000
00001000
00000000
00100000
00010000
10000000
00000000
01000000
00000000
00100000
00000000
,
00000000
00000000
00001000
00000000
00010000
00000000
00000100
00000000
00000010
00000100
00001000
00000000
00000010
00000000
00000100
00000000
,
00000002
00000000
00000203
00002300
00023000
00230000
00000000
02300000
,
00000000
03020000
20030000
32000000
03020000
00032000
00003020
00000031
,
00001001
00000000
00000000
00000000
00000100
00000000
00000010
00000000
00010000
00001000
00100000
00000000
01000000
00000000
00010000
00000000
,
00000000
00000000
01000000
00000000
10000000
00000000
00100000
00000000
01000000
00001000
00010000
00000000
00000010
00000000
00000100
00000000
,
00002000
00000000
00003200
00000302
00000023
00002030
00000000
00023000
,
00000000
02030000
23000000
30200000
02300000
03002000
00023000
00030100
,
00010100
00010000
00000100
00010100
00010000
00001000
00000100
00000010
,
00000110
00000100
00000010
00000110
00000100
00000001
00000010
00001000
,
00011000
00010000
00001000
00011000
00010000
00001000
01000000
00100000
,
10000000
00000000
01000000
00000000
00100000
00010000
00000000
00100000
00000000
00001000
00010000
00000100
00002000
00000000
00000000
00000000
,
00003010
00000000
00000100
00000000
00000101
00000000
00000000
00000011
00000000
00000000
00000100
00000000
00010000
00000000
00001000
00000000
,
00100000
00000000
00010000
00000000
01010000
00000000
00000000
10100000
00000000
00000000
10000000
00000000
01000000
00000000
00010000
00000000
,
00001000
00000000
00000100
00000000
00000000
00000000
00000010
00000000
00000100
00000001
00000010
00000000
00000100
00000000
00010000
00000000
,
00001000
00100000
00000000
01000000
10000000
00100000
01000000
00000000
,
10010000
00000000
10010000
00000000
01100000
00100000
01000000
00001000
,
00101000
00000000
00100000
00001000
00010000
00000000
00000010
00000000
00000100
00000000
00001000
00000000
00000100
00000000
00000001
00000000
,
00000010
00000000
00001000
00000000
00000000
00000000
00010000
00000000
01000000
00100000
00010000
00000000
00100000
00000000
01000000
00000000
,
10000000
00100000
00000000
01000000
00010000
01000000
00100000
00000000
,
20010000
00000000
30200000
00000000
,
02300000
00000000
03002000
00000000
,
00000000
00000000
00003000
00000000
;
