#TITLE:貪嗔癡;
#ARTIST:容祖兒;
#TITLETRANSLIT:TAN CHEN CHI;
#ARTISTTRANSLIT:YUNG JOEY;
#BANNER:TAN CHEN CHI.png;
#BACKGROUND:TAN CHEN CHI-bg.png;
#CDTITLE:./CDTITLES/DanceDanceRevolution UNIVERSE3 Chinese Special Edition.png;
#MUSIC:TAN CHEN CHI.ogg;
#SAMPLESTART:46.788;
#SAMPLELENGTH:15;
#BPMS:0=65;

//---------------dance-single - ----------------
#NOTES:
     dance-single:
     :
     Beginner:
     1:
     :
0000
0000
0000
0000
,
0000
0000
0000
0000
,
0100
0000
0000
0000
,
0010
0000
0000
0000
,
1000
0000
0000
0000
,
0001
0000
0001
0000
,
0001
0000
0000
0000
,
1000
0000
1000
0000
,
1000
0000
0000
0000
,
0100
0000
0100
0000
,
0010
0000
0010
0000
,
0010
0000
0000
0000
,
0100
0000
0001
0000
,
1001
0000
0000
0000
,
1000
0000
0100
0000
,
0010
0000
0010
0000
,
0001
0000
1000
0000
,
1001
0000
0001
0000
,
0100
0000
0010
0000
,
1000
0000
0100
0000
,
0010
0000
0100
0000
,
0110
0000
0010
0000
,
0001
0000
0001
0000
,
0001
0000
1000
0000
,
1000
0000
1000
0000
,
0000
0000
0001
0000
,
0100
0000
0010
0000
,
1000
0000
0001
0000
,
0010
0000
0100
0000
,
1000
0000
1001
0000
,
0010
0000
0010
0000
,
0010
0000
0100
0000
,
0100
0000
0001
0000
,
1000
0000
0200
0000
,
0300
0000
0000
0000
;

//---------------dance-single - ----------------
#NOTES:
     dance-single:
     :
     Easy:
     2:
     :
0000
0000
0000
0000
,
0000
0000
0000
0000
,
0010
0000
0000
0000
,
0100
0000
1000
0000
,
0001
0000
0000
0000
,
1001
0000
1000
0000
,
1000
0000
0010
0000
,
0100
0000
0100
0000
,
0001
0000
0010
0000
,
0110
0000
0100
0000
,
1000
0000
1000
0001
,
1000
0000
0010
0000
,
0100
0000
0100
0001
,
1001
0000
1000
0000
,
0100
0000
0010
0000
,
0001
0000
0010
0000
,
0100
1000
0001
0000
,
1001
0000
1000
0000
,
0010
0100
0001
0000
,
0100
0010
1000
0000
,
0001
0010
1000
0000
,
1001
0000
0010
0000
,
0010
0000
0100
0000
,
0110
0000
1000
0000
,
1000
0000
2000
0000
,
0000
0000
3001
0000
,
0010
0000
0100
0000
,
1000
0001
0100
0000
,
0010
0000
1000
0000
,
0100
0010
0110
0000
,
0001
1000
0001
0000
,
0100
0010
0110
0000
,
1000
0010
1000
0000
,
0001
1000
0002
0000
,
0003
0000
0000
0000
;

//---------------dance-single - ----------------
#NOTES:
     dance-single:
     :
     Medium:
     5:
     :
0000
0000
0000
0000
,
0000
0000
0000
0000
,
0001
0000
0000
0100
0000
0000
0000
0000
,
0010
0000
0000
1000
0000
0000
0000
0100
,
0010
0000
0000
1001
0000
0000
0000
0000
,
0100
0000
0010
1000
0001
0000
0010
0000
,
0110
0000
0100
1000
0001
0000
0100
0000
,
0101
0000
0010
1000
0001
0000
0010
0000
,
0100
1000
0001
0100
0010
0000
1000
0000
,
1001
0000
0001
0010
0001
0000
0010
0100
,
0010
0000
0100
1000
0001
0000
1000
0000
,
0010
0000
0100
0001
0100
0000
0010
0100
,
0010
0000
1000
0100
0010
0000
0000
0000
,
0011
0000
0001
0000
0100
0100
0010
0000
,
1000
0000
0001
0000
0010
0100
1000
0000
,
0001
0000
0100
0000
0010
0010
1000
0000
,
0001
0000
0010
0000
0100
1000
0001
0100
,
0110
0000
0010
0000
1000
0001
1000
0000
,
0100
0000
0010
0000
0001
0010
0100
1000
,
0001
0100
0010
1000
,
1001
0001
0010
0100
,
1100
0000
0010
0000
0010
0000
0001
0010
,
0100
0000
0100
0000
1000
0000
0001
0100
,
0010
1000
1000
0001
,
1001
0000
0000
0000
,
0000
0000
0010
0000
,
1000
0000
0100
0010
,
0001
0010
0100
0000
,
1000
0000
0001
0100
,
0110
0000
1000
0001
1001
0000
0001
0000
,
0010
0100
1100
1000
,
0010
0000
0100
0010
0110
0000
0100
0000
,
0001
1000
0001
1000
0100
0000
0010
0000
,
0011
0100
2000
0000
,
3000
0000
0000
0000
;

//---------------dance-single - ----------------
#NOTES:
     dance-single:
     :
     Hard:
     8:
     :
0000
0000
0000
0000
,
0000
0000
0000
0000
,
1000
0000
0000
0100
0000
0000
0010
0000
0000
0000
0000
0000
0000
0100
0010
0001
,
0001
0000
0100
0100
0000
0000
0010
0010
0000
0000
0000
0000
0000
1000
0010
0100
,
0001
0000
0000
0000
0000
0000
0011
0000
0000
0000
0000
0000
0010
0000
0100
1000
,
0001
0000
0000
0000
0100
0000
0010
1000
0000
0000
0001
0000
0010
0000
0100
1000
,
0000
0000
0000
0000
0010
0000
0001
1000
0000
0000
0010
0000
0100
0000
0001
0010
,
0100
0000
0000
0000
0100
0000
1000
0000
0001
0000
0100
0010
0000
0000
0000
1000
,
0001
1000
0000
0100
0000
0010
0000
0001
0000
0000
0000
0000
0010
0000
0100
1000
,
0001
0000
0100
0000
0000
0000
0010
0000
1000
0000
0001
0000
1000
0000
0100
0000
0010
0000
0000
0001
0000
0000
1000
0000
0010
0000
1000
0000
0100
0000
0010
0000
,
0001
0000
0100
0010
0000
1000
0000
0001
0000
0000
0000
0000
0001
0000
0100
0010
,
1000
0001
0100
0001
1000
0100
0010
0100
1000
0001
0000
0001
0100
0010
1000
0001
,
0010
0000
0100
1000
0000
0001
0100
0010
1000
1001
0000
0010
0100
1000
0100
0010
,
0000
1000
0000
0010
0001
0100
0010
0001
0000
0010
0000
1000
0001
0010
0001
1000
,
0100
0000
0001
0100
0000
0010
0000
0001
0000
0000
0000
1000
0010
0100
0001
1000
,
0100
0000
0010
0001
0000
0100
0000
0010
0000
1000
0100
1000
0000
0010
0100
0001
,
0010
0000
0100
1000
0000
0001
0100
0010
0000
1001
0000
0010
0100
1000
0001
0100
,
0000
0010
0000
1000
0001
0010
0100
0010
0000
0001
0000
0100
0010
0001
0010
1000
,
0001
0000
0000
0010
0000
0000
0100
0000
0000
0000
1000
0000
0000
0000
0001
0000
0000
0000
0000
0000
0100
0000
0010
0000
0000
0000
0000
0000
1000
0000
0100
0000
,
0000
0020
0000
0000
0000
0000
0030
0000
0000
0000
0000
0001
0010
0001
0100
0010
,
1000
0000
0000
0001
0000
0000
0100
0000
0000
0000
0010
0000
0000
0000
1000
0000
0100
0000
0000
0000
0000
0000
0010
0000
0000
0000
0001
0000
0000
0000
2000
0000
,
0000
0000
3000
0000
0000
0001
1000
0010
1000
0000
0100
0010
0000
0001
0000
2000
,
0000
0000
0000
3000
0000
0100
0010
0001
1000
0000
0010
0100
0000
0001
0000
1000
,
0100
0000
0000
0000
0010
0000
0001
0000
0000
0000
1000
0000
0010
0000
0100
0000
0001
0000
0000
0010
0000
0000
0100
0000
1000
0000
0000
0001
0000
0000
0100
0000
,
0110
0000
0010
1000
0000
1001
0000
0102
0000
0000
0000
0000
0000
0000
0000
0000
,
0003
0000
0000
0010
0100
1000
0001
0100
0000
0010
0000
1000
0100
0010
0100
1000
,
0000
0001
0000
0100
0010
0100
0001
0010
0001
0000
1000
0010
0000
0100
0000
0001
,
0000
0000
0000
1000
0100
0010
0100
1000
0001
0000
0100
0010
0000
1000
0000
0001
,
0000
0010
0100
0010
0000
0001
0100
0010
1000
0000
0001
0010
0000
0100
1000
1001
,
0000
0101
0000
0010
1000
0100
0010
1000
0000
0010
0000
0001
0100
0010
0100
1000
,
0000
0000
0100
0000
0000
0000
0010
0000
1000
0000
0001
0000
0010
0000
0100
0000
1000
0000
0000
0001
0000
0000
0100
0000
0000
0000
0010
0000
0000
0000
2000
0000
,
0000
0000
3001
0010
0000
0000
0100
1000
0000
0002
0000
0000
0000
0000
0003
0000
,
0000
0000
0000
0000
0000
0000
0100
0000
0010
0000
1000
0000
0001
0000
0010
0000
0100
0000
0000
1000
0000
0000
0001
0000
0000
0000
0100
0000
0010
0000
1000
0000
,
0001
0000
0010
0100
0000
0010
0000
0001
0000
2000
0000
0000
0000
0000
0000
0000
,
3000
0000
0000
0000
;

//---------------dance-double - ----------------
#NOTES:
     dance-double:
     :
     Beginner:
     1:
     :
00000000
00000000
00000000
00000000
,
00000000
00000000
00000000
00000000
,
10000000
00000000
00000000
00000000
,
00100000
00000000
00000000
00000000
,
01000000
00000000
00000000
00000000
,
00001000
00000000
00001000
00000000
,
00001000
00000000
00000000
00000000
,
00010000
00000000
00010000
00000000
,
00010000
00000000
00000000
00000000
,
00000100
00000000
00000100
00000000
,
00001000
00000000
00001000
00000000
,
00000001
00000000
00000000
00000000
,
00000100
00000000
00000010
00000000
,
00000110
00000000
00000000
00000000
,
00000100
00000000
00000010
00000000
,
00010000
00000000
00010000
00000000
,
00001000
00000000
00100000
00000000
,
01100000
00000000
01000000
00000000
,
10000000
00000000
00010000
00000000
,
01000000
00000000
00001000
00000000
,
00010000
00000000
00001000
00000000
,
00011000
00000000
00010000
00000000
,
00001000
00000000
00001000
00000000
,
00000100
00000000
00000010
00000000
,
00000010
00000000
00001000
00000000
,
00000000
00000000
00000001
00000000
,
00000010
00000000
00000100
00000000
,
00010000
00000000
00001000
00000000
,
00100000
00000000
00010000
00000000
,
01000000
00000000
01100000
00000000
,
00100000
00000000
00100000
00000000
,
10000000
00000000
10000000
00000000
,
01000000
00000000
01000000
00000000
,
00100000
00000000
00002000
00000000
,
00003000
00000000
00000000
00000000
;

//---------------dance-double - ----------------
#NOTES:
     dance-double:
     :
     Easy:
     2:
     :
00000000
00000000
00000000
00000000
,
00000000
00000000
00000000
00000000
,
00000001
00000000
00000000
00000000
,
00000010
00000000
00000100
00000000
,
00010000
00000000
00000000
00000000
,
00011000
00000000
00001000
00000000
,
00001000
00000000
00100000
00000000
,
00010000
00000000
00010000
00000000
,
01000000
00000000
00100000
00000000
,
01100000
00000000
01000000
00000000
,
00100000
00000000
10000000
00010000
,
10000000
00000000
01000000
00000000
,
00010000
00000000
00001000
00010000
,
00011000
00000000
00001000
00000000
,
00000100
00000000
00000001
00000000
,
00000010
00000000
00000100
00000000
,
00010000
00001000
00010000
00000000
,
00011000
00000000
00001000
00000000
,
00100000
00010000
00100000
00000000
,
00010000
01000000
00100000
00000000
,
01000000
00100000
10000000
00000000
,
10010000
00000000
01000000
00000000
,
01000000
00000000
00010000
00000000
,
00011000
00000000
00001000
00000000
,
00001000
00000000
00000200
00000000
,
00000000
00000000
00000310
00000000
,
00001000
00000000
00000001
00000000
,
00000010
00000100
00010000
00000000
,
00001000
00000000
00100000
00000000
,
00010000
10000000
10010000
00000000
,
10000000
01000000
00100000
00000000
,
01000000
00100000
01100000
00000000
,
00100000
00001000
00010000
00000000
,
00000100
00001000
00000002
00000000
,
00000003
00000000
00000000
00000000
;

//---------------dance-double - ----------------
#NOTES:
     dance-double:
     :
     Medium:
     5:
     :
00000000
00000000
00000000
00000000
,
00000000
00000000
00000000
00000000
,
10000000
00000000
00000000
00100000
00000000
00000000
00000000
00000000
,
01000000
00000000
00000000
00001000
00000000
00000000
00000000
00010000
,
00001000
00000000
00000000
00010100
00000000
00000000
00000000
00000000
,
00001000
00000000
00000100
00000010
00000001
00000000
00000100
00000000
,
00000110
00000000
00000010
00010000
00001000
00000000
00100000
00000000
,
00110000
00000000
00010000
00100000
01000000
00000000
10000000
00000000
,
00100000
10000000
00010000
10000000
00100000
00000000
01000000
00000000
,
01001000
00000000
00010000
00001000
00010000
00000000
00000100
00001000
,
00000100
00000000
00001000
00000001
00001000
00000000
00000010
00000000
,
00000100
00000000
00001000
00010000
00001000
00000000
00100000
00010000
,
00100000
00000000
00010000
01000000
00100000
00000000
00000000
00000000
,
10100000
00000000
00010000
00000000
01000000
00001000
00001000
00000000
,
00010000
00000000
00000100
00000000
00001000
00000100
00000010
00000000
,
00000001
00000000
00000100
00000000
00000010
00010000
00010000
00000000
,
00001000
00000000
00100000
00000000
00010000
00100000
01000000
10000000
,
10010000
00000000
00100000
00000000
01000000
00100000
00010000
00000000
,
00001000
00000000
00010000
00000000
00000100
00001000
00000100
00000010
,
00000100
00000010
00000001
00000100
,
00000110
00000010
00010000
00001000
,
00101000
00000000
00010000
00000000
01000000
00000000
00100000
10000000
,
00010000
00000000
00100000
00000000
00001000
00000000
00010000
00000100
,
00000010
00000001
00000100
00001000
,
00011000
00000000
00000000
00000000
,
00000000
00000000
00100000
00000000
,
00010000
00000000
10000000
01000000
,
00100000
00001000
00010000
00000000
,
00000100
00000000
00001000
00000010
,
00000110
00000000
00000100
00000001
00001001
00000000
00001000
00000000
,
00000100
00010000
00011000
00001000
,
00100000
00000000
00010000
01000000
01010000
00000000
00100000
00000000
,
10000000
00100000
01000000
00010000
00100000
00000000
00001000
00000000
,
00101000
00010000
00002000
00000000
,
00003000
00000000
00000000
00000000
;

//---------------dance-double - ----------------
#NOTES:
     dance-double:
     :
     Hard:
     8:
     :
00000000
00000000
00000000
00000000
,
00000000
00000000
00000000
00000000
,
00000001
00000000
00000000
00000100
00000000
00000000
00000010
00000000
00000000
00000000
00000000
00000000
00000000
00010000
00001000
00100000
,
00100000
00000000
00010000
00010000
00000000
00000000
01000000
01000000
00000000
00000000
00000000
00000000
00000000
00100000
10000000
01000000
,
00100000
00000000
00000000
00000000
00000000
00000000
00101000
00000000
00000000
00000000
00000000
00000000
00010000
00000000
00000100
00001000
,
00000010
00000000
00000000
00000000
00000100
00000000
00000001
00001000
00000000
00000000
00000010
00000000
00000100
00000000
00001000
00010000
,
00000000
00000000
00000000
00000000
00100000
00000000
01000000
00010000
00000000
00000000
10000000
00000000
01000000
00000000
00100000
00001000
,
00010000
00000000
00000000
00000000
00000100
00000000
00001000
00000000
00000010
00000000
00000100
00000001
00000000
00000000
00000000
00000010
,
00000100
00000010
00000000
00001000
00000000
00010000
00000000
00001000
00000000
00000000
00000000
00000000
00100000
00000000
00010000
01000000
,
00100000
00000000
10000000
00000000
00000000
00000000
00010000
00000000
10000000
00000000
01000000
00000000
00100000
00000000
00001000
00000000
00100000
00000000
00000000
00010000
00000000
00000000
01000000
00000000
00100000
00000000
00010000
00000000
00001000
00000000
00000100
00000000
,
00000010
00000000
00001000
00000001
00000000
00000010
00000000
00000100
00000000
00000000
00000000
00000000
00010000
00000000
00001000
00100000
,
01000000
00010000
01000000
10000000
00100000
01000000
00010000
01000000
00001000
00010000
00000000
00010000
00000100
00001000
00000010
00000100
,
00000001
00000000
00001000
00000100
00000000
00010000
00001000
00100000
00010000
01010000
00000000
00100000
10000000
00100000
01000000
10000000
,
00000000
01000000
00000000
00010000
00100000
00001000
00010000
00000100
00000000
00001000
00000000
00001000
00000100
00000010
00000001
00001000
,
00000010
00000000
00010000
00001000
00000000
00100000
00000000
00010000
00000000
00000000
00000000
00100000
01000000
10000000
01000000
00010000
,
00001000
00000000
00000100
00000010
00000000
00001000
00000000
00000001
00000000
00000010
00000100
00001000
00000000
00000010
00000100
00001000
,
00010000
00000000
00100000
10000000
00000000
00010000
01000000
00100000
00000000
10010000
00000000
00100000
00001000
00010000
00000100
00001000
,
00000000
00000010
00000000
00000100
00000010
00001000
00000100
00000001
00000000
00000100
00000000
00000010
00000001
00000010
00001000
00010000
,
00001000
00000000
00000000
00100000
00000000
00000000
00010000
00000000
00000000
00000000
01000000
00000000
00000000
00000000
00100000
00000000
00000000
00000000
00000000
00000000
10000000
00000000
01000000
00000000
00000000
00000000
00000000
00000000
00100000
00000000
00001000
00000000
,
00000000
00020000
00000000
00000000
00000000
00000000
00030000
00000000
00000000
00000000
00000000
00000100
00001000
00000010
00000100
00000001
,
00000010
00000000
00000000
00000100
00000000
00000000
00000001
00000000
00000000
00000000
00000100
00000000
00000000
00000000
00001000
00000000
00000010
00000000
00000000
00000000
00000000
00000000
00010000
00000000
00000000
00000000
00001000
00000000
00000000
00000000
00200000
00000000
,
00000000
00000000
00300000
00000000
00000000
00010000
10000000
01000000
00100000
00000000
00010000
00100000
00000000
00001000
00000000
00020000
,
00000000
00000000
00000000
00030000
00000000
00000010
00001000
00000010
00000100
00000000
00000001
00000100
00000000
00000010
00000000
00010000
,
00001000
00000000
00000000
00000000
00100000
00000000
00010000
00000000
00000000
00000000
10000000
00000000
01000000
00000000
00010000
00000000
00001000
00000000
00000000
00010000
00000000
00000000
00000100
00000000
00001000
00000000
00000000
00000010
00000000
00000000
00000100
00000000
,
00001001
00000000
00000010
00001000
00000000
00000101
00000000
00000012
00000000
00000000
00000000
00000000
00000000
00000000
00000000
00000000
,
00000003
00000000
00000000
00000010
00000100
00010000
00001000
00100000
00000000
00010000
00000000
01000000
00100000
10000000
00010000
10000000
,
00000000
01000000
00000000
00100000
00001000
00010000
00001000
00100000
00010000
00000000
01000000
00100000
00000000
00010000
00000000
00001000
,
00000000
00000000
00000000
00010000
00000010
00001000
00000100
00000010
00000100
00000000
00000010
00000001
00000000
00000100
00000000
00000010
,
00000000
00010000
00001000
00100000
00000000
00010000
10000000
01000000
00100000
00000000
00001000
00010000
00000000
00001000
00010000
00010100
,
00000000
00001001
00000000
00000010
00000100
00000001
00000010
00001000
00000000
00000010
00000000
00000100
00010000
00001000
00100000
01000000
,
00000000
00000000
00010000
00000000
00000000
00000000
01000000
00000000
10000000
00000000
00100000
00000000
01000000
00000000
00010000
00000000
00100000
00000000
00000000
00001000
00000000
00000000
00010000
00000000
00000000
00000000
00000100
00000000
00000000
00000000
00002000
00000000
,
00000000
00000000
00003010
00000100
00000000
00000000
00001000
00000100
00000000
00000002
00000000
00000000
00000000
00000000
00000003
00000000
,
00000000
00000000
00000000
00000000
00000000
00000000
00000010
00000000
00000100
00000000
00010000
00000000
00001000
00000000
00100000
00000000
00010000
00000000
00000000
01000000
00000000
00000000
00100000
00000000
00000000
00000000
00010000
00000000
00100000
00000000
10000000
00000000
,
00010000
00000000
00100000
00001000
00000000
00010000
00000000
00000100
00000000
00000002
00000000
00000000
00000000
00000000
00000000
00000000
,
00000003
00000000
00000000
00000000
;
