#TITLE:世界只有我們;
#ARTIST:黄立行;
#TITLETRANSLIT:Shi Jie Zhi You Wo Men;
#ARTISTTRANSLIT:Stanley Huang;
#BANNER:Shi Jie Zhi You Wo Men.png;
#BACKGROUND:Shi Jie Zhi You Wo Men-bg.png;
#CDTITLE:./CDTITLES/DanceDanceRevolution UNIVERSE3 Chinese Special Edition.png;
#MUSIC:Shi Jie Zhi You Wo Men.ogg;
#SAMPLESTART:40.8;
#SAMPLELENGTH:15;
#BPMS:0=100;

//---------------dance-single - ----------------
#NOTES:
     dance-single:
     :
     Beginner:
     1:
     :
0000
0000
0000
0000
,
0000
0000
0000
0000
,
0000
0000
0000
0000
,
0001
0000
0000
0000
,
0010
0000
0000
0000
,
1000
0000
0000
0000
,
0010
0000
0000
0000
,
0001
0000
0000
0000
,
0001
0000
0000
0000
,
0100
0000
0000
0000
,
0001
0000
0000
0000
,
1000
0000
0000
0000
,
1000
0000
0000
0000
,
0010
0000
0000
0000
,
1000
0000
0000
0000
,
0100
0000
0000
0000
,
0100
0000
0000
0000
,
1000
1000
1000
0000
,
0001
0001
0001
0000
,
0010
0000
0010
0000
,
0100
0000
0100
0000
,
1000
1000
1000
0000
,
0010
0010
0010
0000
,
0100
0000
0100
0000
,
0001
0000
0001
0000
,
0010
0010
0000
0000
,
0100
0100
0000
0000
,
1000
1000
0000
0000
,
0001
0001
0000
0000
,
0100
0100
0100
0000
,
0001
0001
0001
0000
,
0010
0000
0010
0000
,
1000
0000
1000
0000
,
0010
0010
0010
0000
,
0100
0100
0100
0000
,
1000
0000
1000
0000
,
0001
0000
0001
0000
,
0010
0000
0010
0000
,
0001
0000
0001
0000
,
0100
0000
0100
0000
,
1000
0000
1000
0000
;

//---------------dance-single - ----------------
#NOTES:
     dance-single:
     :
     Easy:
     3:
     :
0000
0000
0000
0000
,
0000
0000
0000
0000
,
0000
0000
0000
0000
,
0001
1000
0001
0000
,
1000
0001
1000
0000
,
0010
1000
0100
0000
,
0010
0001
0100
0000
,
0001
1000
0100
0000
,
0010
0001
0100
1000
,
0100
0010
0100
0000
,
0010
0100
0010
0000
,
1000
0001
0100
0000
,
0010
1000
0100
1001
,
0001
0010
0000
0100
,
1000
0001
0000
0100
,
0010
1000
0000
0100
,
0001
0100
1000
0001
,
2002
3003
0001
0010
,
0100
1000
0001
0100
,
0000
1000
0100
1000
,
0000
0001
0010
0001
,
2002
3003
1000
0010
,
0100
0001
1000
0100
,
0000
0010
0100
0010
,
0000
0001
1000
0001
,
0100
0010
0000
1000
,
0100
0010
0000
0001
,
1000
1000
0001
0001
,
1001
0000
0000
0000
,
2002
3003
0001
0010
,
0100
1000
0001
0100
,
0000
1000
0100
1000
,
0000
0001
0010
0001
,
2002
3003
1000
0010
,
0100
0001
1000
0100
,
0000
0010
0100
0010
,
0000
0001
1000
0001
,
0000
0010
0001
0100
,
0000
1000
0001
0010
,
0000
0010
1000
0100
,
0000
1000
0001
0100
;

//---------------dance-single - ----------------
#NOTES:
     dance-single:
     :
     Medium:
     6:
     :
0000
0000
0000
0000
,
0000
0000
0000
0000
,
0000
0000
0000
0000
,
0010
0000
0000
0000
1000
0000
0000
0100
0000
0000
0001
0000
0100
0000
0000
0000
,
1000
0000
0000
0000
0001
0000
0000
0100
0000
0000
0010
0000
0000
0000
0100
0000
,
1001
0000
0100
0000
0001
0100
0001
0000
,
0010
0000
0100
0000
1000
0100
1000
0000
,
0001
0000
0010
0000
0100
1000
0001
0000
,
1000
0100
0001
0000
0100
0010
0001
0000
,
0110
0000
0001
0000
0010
0001
1000
0000
,
0100
0000
1000
0000
0010
1000
0001
0000
,
0100
0000
0010
0000
0001
0010
1000
0000
,
0001
0100
1000
0000
0100
0001
1000
0000
,
0010
0000
1000
0000
0100
0010
1000
0000
,
0010
0000
0001
0000
1000
0100
0010
0000
,
1000
0000
0010
0000
0001
1000
0100
0000
,
0001
0100
0010
0000
0001
1000
0001
0000
,
0100
0000
0000
0000
0010
0000
0000
1000
0000
0000
0001
0000
0010
0000
0000
0000
,
0001
0000
0000
0000
0100
0000
0000
0010
0000
0000
1000
0000
0100
0000
0000
0000
,
1000
0000
0000
0000
0001
0000
0000
0100
0000
0010
0000
0100
0000
0000
0000
0000
,
0001
0000
0000
0000
1000
0000
0000
0010
0000
0100
0000
0010
0000
0000
0000
0000
,
0010
0000
0000
0000
0100
0000
0000
0001
0000
0000
1000
0000
0100
0000
0000
0000
,
1000
0000
0000
0000
0010
0000
0000
0100
0000
0000
0001
0000
0010
0000
0000
0000
,
0001
0000
0000
0000
1000
0000
0000
0010
0000
0100
0000
0010
0000
0000
0000
0000
,
1000
0000
0000
0000
0001
0000
0000
0100
0000
0010
0000
0100
0000
0000
0000
0000
,
0001
0000
0001
0000
1000
0000
0000
0100
0000
1000
0010
1000
0010
0000
0000
0000
,
0100
0000
0100
0000
0001
0000
0000
1000
0000
0001
0010
0001
0010
0000
0000
0000
,
0100
0000
1000
0000
0010
0000
0000
0100
0000
0001
1000
0001
1000
0000
0000
0000
,
0110
1001
0110
0000
2002
0000
3003
0000
,
0010
0000
0000
0000
0100
0000
0000
1000
0000
0000
0001
0000
0100
0000
0000
0000
,
0001
0000
0000
0000
0010
0000
0000
0100
0000
0000
1000
0000
0010
0000
0000
0000
,
1000
0000
0000
0000
0001
0000
0000
0010
0000
0100
0000
0010
0000
0000
0000
0000
,
0001
0000
0000
0000
1000
0000
0000
0100
0000
0010
0000
0100
0000
0000
0000
0000
,
0100
0000
0000
0000
0010
0000
0000
0001
0000
0000
1000
0000
0010
0000
0000
0000
,
1000
0000
0000
0000
0100
0000
0000
0010
0000
0000
0001
0000
0100
0000
0000
0000
,
0001
0000
0000
0000
1000
0000
0000
0100
0000
0010
0000
0100
0000
0000
0000
0000
,
1000
0000
0000
0000
0001
0000
0000
0010
0000
0100
0000
0010
0000
0000
0000
0000
,
0100
0000
0000
0000
1000
0000
0000
0001
0000
0010
0000
0001
0000
0000
1000
0000
,
0001
0000
0000
0000
0100
0000
0000
0010
0000
1000
0000
0010
0000
0000
0100
0000
,
1000
0000
0000
0000
0100
0000
0000
0001
0000
1000
0000
0001
0000
0000
0100
0000
,
0010
0000
0000
0000
0100
0000
0000
0001
0000
1000
0000
0001
0000
0000
0000
0000
;

//---------------dance-single - ----------------
#NOTES:
     dance-single:
     :
     Hard:
     8:
     :
0000
0000
0000
0000
,
0000
0000
0000
0000
,
0000
0000
0000
0000
,
0001
0000
0010
0000
1000
0000
0000
0010
0000
0001
1000
0000
0010
0000
0000
0000
,
0001
0000
0010
0000
0100
0000
0000
0001
0000
1000
0100
0000
0000
0000
0010
0000
,
1001
0000
1000
0000
0010
0000
0000
0100
0000
0001
0010
0000
1000
0000
0010
0000
,
0100
0000
0100
0000
1000
0000
0000
0001
0000
0010
0100
0000
1000
0000
0000
0000
,
0011
0000
0001
0000
1000
0000
0000
0100
0000
0010
0001
0000
1000
0000
0001
0000
,
0100
0000
0100
0000
0010
0000
0000
1000
0000
0100
0010
0000
0001
0000
0000
0000
,
1100
0000
1000
0000
0010
0000
0000
0100
0000
0001
0100
0000
0010
0000
1000
0000
,
0001
0000
0001
0000
0010
0000
0000
0100
0000
1000
0100
0000
0010
0000
0000
0000
,
1001
0000
0001
0000
1000
0000
0000
0010
0000
0100
0010
0000
1000
0000
0001
0000
,
0010
0000
0010
0000
0100
0000
0000
1000
0000
0001
1000
0000
0100
0000
0000
0000
,
0011
0000
0010
0000
0100
0000
0000
1000
0000
0010
0001
0000
0010
0000
1000
0000
,
0100
0000
0100
0000
0010
0000
0000
0001
0000
0100
1000
0000
0100
0000
0000
0000
,
0110
0000
0010
0000
1000
0000
0000
0010
0000
0001
0100
0000
1000
0000
0100
0000
,
0001
1000
0010
0001
0010
1000
0001
0000
,
0010
0100
0000
0010
0000
0001
0000
1000
0000
0010
0100
0010
1000
0000
0001
0000
,
0010
0000
0010
0000
0100
0000
1000
0001
0000
0100
0000
0010
0100
0000
0001
0000
,
1000
0000
0100
0010
0000
0001
0000
0100
0000
0010
0000
1000
0000
0000
0000
0000
,
0100
0000
1000
0001
0000
0010
0000
0001
0000
1000
0000
0100
0000
0000
0000
0000
,
0100
0010
0000
0100
0000
1000
0000
0001
0000
0100
0010
0100
0001
0000
1000
0000
,
0100
0000
0100
0000
0010
0000
0001
1000
0000
0010
0000
0100
0010
0000
1000
0000
,
0001
0000
0010
0100
0000
1000
0000
0010
0000
0100
0000
0001
0000
0000
0000
0000
,
0010
0000
0001
1000
0000
0100
0000
1000
0000
0001
0000
0010
0000
0000
0000
0000
,
0001
0000
1000
0100
0010
0000
0001
0000
1000
0010
0100
0001
1000
0000
0001
0000
,
0100
0010
0100
0010
0100
0000
0001
0000
1000
0100
1000
0100
1000
0000
0001
0010
,
0001
0000
0001
0000
0001
0100
1000
0100
0000
0100
0000
0100
0000
0100
0001
0010
,
0001
1000
0001
1000
0010
0000
0100
0000
1001
0000
0110
0000
1001
0000
0000
0000
,
0100
0010
0000
0100
0000
0001
0000
1000
0000
0100
0010
0100
1000
0000
0001
0000
,
0100
0000
0100
0000
0010
0000
1000
0001
0000
0010
0000
0100
0010
0000
0001
0000
,
1000
0000
0010
0100
0000
0001
0000
0010
0000
0100
0000
1000
0000
0000
0000
0000
,
0010
0000
1000
0001
0000
0100
0000
0001
0000
1000
0000
0010
0000
0000
0000
0000
,
0010
0100
0000
0010
0000
1000
0000
0001
0000
0010
0100
0010
0001
0000
1000
0000
,
0010
0000
0010
0000
0100
0000
0001
1000
0000
0100
0000
0010
0100
0000
1000
0000
,
0001
0000
0100
0010
0000
1000
0000
0100
0000
0010
0000
0001
0000
0000
0000
0000
,
0100
0000
0001
1000
0000
0010
0000
1000
0000
0001
0000
0100
0000
0000
0000
0000
,
0010
0000
1000
0100
0000
0001
0000
0100
0000
1000
0000
0010
0000
0000
0001
0000
,
0010
0000
0100
0001
0000
1000
0000
0100
0000
0010
0000
0001
0000
0000
1000
0000
,
0010
0000
0001
0010
0000
1000
0000
0001
0000
0100
0000
1000
0000
0000
0100
0000
,
0010
0000
1000
0001
0000
0100
0000
0010
0000
1000
0000
0001
0000
0000
0000
0000
;

//---------------dance-double - ----------------
#NOTES:
     dance-double:
     :
     Beginner:
     1:
     :
00000000
00000000
00000000
00000000
,
00000000
00000000
00000000
00000000
,
00000000
00000000
00000000
00000000
,
10000000
00000000
00000000
00000000
,
00010000
00000000
00000000
00000000
,
10000000
00000000
00000000
00000000
,
00100000
00000000
00000000
00000000
,
00010000
00000000
00000000
00000000
,
00001000
00000000
00000000
00000000
,
01000000
00000000
00000000
00000000
,
00001000
00000000
00000000
00000000
,
00010000
00000000
00000000
00000000
,
00000010
00000000
00000000
00000000
,
00010000
00000000
00000000
00000000
,
00001000
00000000
00000000
00000000
,
00000100
00000000
00000000
00000000
,
00000001
00000000
00000000
00000000
,
00001000
00001000
00001000
00000000
,
00000100
00000100
00000100
00000000
,
00010000
00000000
00010000
00000000
,
00001000
00000000
00001000
00000000
,
00100000
00100000
00100000
00000000
,
00010000
00010000
00010000
00000000
,
10000000
00000000
10000000
00000000
,
01000000
00000000
01000000
00000000
,
00100000
00100000
00000000
00000000
,
01000000
01000000
00000000
00000000
,
00010000
00010000
00000000
00000000
,
00001000
00001000
00000000
00000000
,
00100000
00100000
00100000
00000000
,
00010000
00010000
00010000
00000000
,
01000000
00000000
01000000
00000000
,
00001000
00000000
00001000
00000000
,
00010000
00010000
00010000
00000000
,
00001000
00001000
00001000
00000000
,
00000100
00000000
00000100
00000000
,
00000010
00000000
00000010
00000000
,
00001000
00000000
00001000
00000000
,
00000001
00000000
00000001
00000000
,
00000010
00000000
00000010
00000000
,
00000100
00000000
00000100
00000000
;

//---------------dance-double - ----------------
#NOTES:
     dance-double:
     :
     Easy:
     3:
     :
00000000
00000000
00000000
00000000
,
00000000
00000000
00000000
00000000
,
00000000
00000000
00000000
00000000
,
00000001
00001000
00000001
00000000
,
00001000
00000001
00001000
00000000
,
00000010
00000001
00000100
00000000
,
00000010
00001000
00000100
00000000
,
00010000
00001000
01000000
00000000
,
00100000
10000000
01000000
00010000
,
00001000
00100000
01000000
00000000
,
00010000
00001000
00100000
00000000
,
00001000
00010000
00000100
00000000
,
00000010
00000001
00000100
00001001
,
00000001
00000010
00000000
00000100
,
00010000
00001000
00000000
01000000
,
00100000
10000000
00000000
01000000
,
00010000
00001000
00000010
00000001
,
00002002
00003003
00000001
00000010
,
00000100
00010000
00001000
01000000
,
00000000
10000000
01000000
10000000
,
00000000
00010000
00100000
00010000
,
20020000
30030000
10000000
00100000
,
01000000
00001000
00010000
00000100
,
00000000
00000010
00000100
00000010
,
00000000
00001000
00010000
00001000
,
00100000
00001000
00000000
00010000
,
00000100
00010000
00000000
00001000
,
01000000
01000000
00100000
00100000
,
10010000
00000000
00000000
00000000
,
20020000
30030000
10000000
00100000
,
01000000
00001000
00010000
00000100
,
00000000
00000010
00000100
00000010
,
00000000
00000001
00001000
00000001
,
00002002
00003003
00000001
00000010
,
00000100
00010000
00001000
01000000
,
00000000
10000000
01000000
10000000
,
00000000
00010000
00100000
00010000
,
00000000
00100000
00010000
01000000
,
00000000
00001000
00010000
00000100
,
00000000
00000010
00000001
00000100
,
00000000
00001000
00010000
01000000
;

//---------------dance-double - ----------------
#NOTES:
     dance-double:
     :
     Medium:
     6:
     :
00000000
00000000
00000000
00000000
,
00000000
00000000
00000000
00000000
,
00000000
00000000
00000000
00000000
,
00100000
00000000
00000000
00000000
10000000
00000000
00000000
01000000
00000000
00000000
00010000
00000000
01000000
00000000
00000000
00000000
,
00010000
00000000
00000000
00000000
00001000
00000000
00000000
00000100
00000000
00000000
00000010
00000000
00000000
00000000
00000100
00000000
,
00001001
00000000
00000100
00000000
00000001
00000100
00000001
00000000
,
00000010
00000000
00000100
00000000
00010000
00000100
00010000
00000000
,
00001000
00000000
00100000
00000000
01000000
10000000
00010000
00000000
,
10000000
01000000
00010000
00000000
00001000
00100000
00010000
00000000
,
01100000
00000000
00010000
00000000
00100000
00001000
00010000
00000000
,
00000100
00000000
00010000
00000000
00000010
00001000
00000001
00000000
,
00000100
00000000
00000010
00000000
00000001
00000010
00001000
00000000
,
00000001
00000100
00001000
00000000
00000100
00001000
00010000
00000000
,
00100000
00000000
10000000
00000000
01000000
00100000
10000000
00000000
,
00100000
00000000
00001000
00000000
00010000
00000100
00000010
00000000
,
00001000
00000000
00000010
00000000
00000001
00001000
00000100
00000000
,
00000001
00000100
00000010
00000000
00001000
00010000
00001000
00000000
,
01000000
00000000
00000000
00000000
00100000
00000000
00000000
10000000
00000000
00000000
00010000
00000000
00100000
00000000
00000000
00000000
,
00001000
00000000
00000000
00000000
01000000
00000000
00000000
00100000
00000000
00000000
00010000
00000000
00001000
00000000
00000000
00000000
,
00010000
00000000
00000000
00000000
00000100
00000000
00000000
00001000
00000000
00000001
00000000
00001000
00000000
00000000
00000000
00000000
,
00000010
00000000
00000000
00000000
00000100
00000000
00000000
00000001
00000000
00001000
00000000
00000001
00000000
00000000
00000000
00000000
,
00000010
00000000
00000000
00000000
00000100
00000000
00000000
00001000
00000000
00000000
00000001
00000000
00000100
00000000
00000000
00000000
,
00000001
00000000
00000000
00000000
00000010
00000000
00000000
00000100
00000000
00000000
00010000
00000000
00001000
00000000
00000000
00000000
,
00010000
00000000
00000000
00000000
01000000
00000000
00000000
10000000
00000000
00010000
00000000
10000000
00000000
00000000
00000000
00000000
,
00100000
00000000
00000000
00000000
01000000
00000000
00000000
00010000
00000000
10000000
00000000
00010000
00000000
00000000
00000000
00000000
,
01000000
00000000
01000000
00000000
00010000
00000000
00000000
00100000
00000000
00000000
00001000
00000000
00001000
00000000
00000000
00000000
,
01000000
00000000
01000000
00000000
00001000
00000000
00000000
00010000
00000000
00000000
00000010
00000000
00000010
00000000
00000000
00000000
,
00000100
00000000
00000001
00000000
00000010
00000000
00000000
00000100
00000000
00000000
00010000
00000000
00010000
00000000
00000000
00000000
,
00001000
00100000
01000000
00000000
20020000
00000000
30030000
00000000
,
00100000
00000000
00000000
00000000
01000000
00000000
00000000
10000000
00000000
00000000
00010000
00000000
01000000
00000000
00000000
00000000
,
00001000
00000000
00000000
00000000
00100000
00000000
00000000
01000000
00000000
00000000
00010000
00000000
00001000
00000000
00000000
00000000
,
00010000
00000000
00000000
00000000
00000010
00000000
00000000
00001000
00000000
00000001
00000000
00001000
00000000
00000000
00000000
00000000
,
00000100
00000000
00000000
00000000
00000010
00000000
00000000
00000001
00000000
00001000
00000000
00000001
00000000
00000000
00000000
00000000
,
00000100
00000000
00000000
00000000
00000010
00000000
00000000
00001000
00000000
00000000
00000001
00000000
00000010
00000000
00000000
00000000
,
00000001
00000000
00000000
00000000
00000100
00000000
00000000
00000010
00000000
00000000
00010000
00000000
00001000
00000000
00000000
00000000
,
00010000
00000000
00000000
00000000
00100000
00000000
00000000
10000000
00000000
00010000
00000000
10000000
00000000
00000000
00000000
00000000
,
01000000
00000000
00000000
00000000
00100000
00000000
00000000
00010000
00000000
10000000
00000000
00010000
00000000
00000000
00000000
00000000
,
00010000
00000000
00000000
00000000
00100000
00000000
00000000
00010000
00000000
01000000
00000000
00010000
00000000
00000000
00100000
00000000
,
00001000
00000000
00000000
00000000
00010000
00000000
00000000
00001000
00000000
00100000
00000000
00001000
00000000
00000000
00010000
00000000
,
00000100
00000000
00000000
00000000
00001000
00000000
00000000
00000100
00000000
00010000
00000000
00000100
00000000
00000000
00001000
00000000
,
00000001
00000000
00000000
00000000
00000100
00000000
00000000
00000010
00000000
00001000
00000000
00000010
00000000
00000000
00000000
00000000
;

//---------------dance-double - ----------------
#NOTES:
     dance-double:
     :
     Hard:
     8:
     :
00000000
00000000
00000000
00000000
,
00000000
00000000
00000000
00000000
,
00000000
00000000
00000000
00000000
,
10000000
00000000
00100000
00000000
00010000
00000000
00000000
00100000
00000000
00010000
00001000
00000000
00000010
00000000
00000000
00000000
,
00001000
00000000
00000010
00000000
00000100
00000000
00000000
00001000
00000000
00000001
00000100
00000000
00000000
00000000
00000010
00000000
,
00001001
00000000
00000001
00000000
00000010
00000000
00000000
00000100
00000000
00001000
00000010
00000000
00010000
00000000
00001000
00000000
,
01000000
00000000
01000000
00000000
00010000
00000000
00000000
10000000
00000000
00100000
01000000
00000000
00010000
00000000
00000000
00000000
,
10100000
00000000
10000000
00000000
00010000
00000000
00000000
01000000
00000000
00100000
00010000
00000000
00001000
00000000
00010000
00000000
,
01000000
00000000
01000000
00000000
00100000
00000000
00000000
00010000
00000000
01000000
00100000
00000000
10000000
00000000
00000000
00000000
,
01010000
00000000
00010000
00000000
00100000
00000000
00000000
01000000
00000000
10000000
01000000
00000000
00100000
00000000
00001000
00000000
,
00010000
00000000
00010000
00000000
00000010
00000000
00000000
00000100
00000000
00000001
00000100
00000000
00000010
00000000
00000000
00000000
,
00001001
00000000
00001000
00000000
00000001
00000000
00000000
00000010
00000000
00000100
00000010
00000000
00001000
00000000
00010000
00000000
,
00100000
00000000
00100000
00000000
01000000
00000000
00000000
00010000
00000000
10000000
00010000
00000000
01000000
00000000
00000000
00000000
,
10100000
00000000
00100000
00000000
01000000
00000000
00000000
00010000
00000000
00100000
10000000
00000000
00100000
00000000
00001000
00000000
,
00010000
00000000
00010000
00000000
00000010
00000000
00000000
00001000
00000000
00000100
00000001
00000000
00000100
00000000
00000000
00000000
,
00000110
00000000
00000010
00000000
00000001
00000000
00000000
00000100
00000000
00001000
00000100
00000000
00001000
00000000
00010000
00000000
,
00000100
00010000
00001000
00100000
00001000
00010000
01000000
00000000
,
00100000
01000000
00000000
00100000
00000000
00001000
00000000
00010000
00000000
00000100
00001000
00000100
00001000
00000000
00000010
00000000
,
00000100
00000000
00000100
00000000
00000001
00000000
00001000
00000010
00000000
00000100
00000000
00000010
00000100
00000000
00000001
00000000
,
00001000
00000000
00000100
00000010
00000000
00000001
00000000
00000100
00000000
00000010
00000000
00010000
00000000
00000000
00000000
00000000
,
00001000
00000000
00100000
00010000
00000000
01000000
00000000
00010000
00000000
10000000
00000000
00100000
00000000
00000000
00000000
00000000
,
01000000
00100000
00000000
01000000
00000000
00001000
00000000
00010000
00000000
00000010
00001000
00000010
00001000
00000000
00000100
00000000
,
00000010
00000000
00000010
00000000
00000001
00000000
00001000
00000100
00000000
00000010
00000000
00000100
00000010
00000000
00000001
00000000
,
00001000
00000000
00000010
00000100
00000000
00000001
00000000
00000010
00000000
00000100
00000000
00010000
00000000
00000000
00000000
00000000
,
00001000
00000000
00100000
00010000
00000000
01000000
00000000
00010000
00000000
10000000
00000000
00100000
00000000
00000000
00000000
00000000
,
10000000
00000000
00010000
01000000
00100000
00000000
00010000
00000000
00001000
00010000
00000100
00001000
00000001
00000000
00000010
00000000
,
00000100
00000010
00000100
00000010
00000100
00000000
00010000
00000000
00001000
00010000
00001000
00010000
00001000
00000000
00100000
01000000
,
00100000
00000000
00100000
00000000
00100000
00010000
01000000
10000000
00000000
10000000
00000000
10000000
00000000
10000000
01000000
00100000
,
10000000
00010000
10000000
00010000
00100000
00000000
01000000
00000000
10010000
00000000
01100000
00000000
10010000
00000000
00000000
00000000
,
01000000
00100000
00000000
01000000
00000000
00001000
00000000
00010000
00000000
00000010
00001000
00000010
00001000
00000000
00000100
00000000
,
00000010
00000000
00000010
00000000
00000001
00000000
00001000
00000100
00000000
00000010
00000000
00000100
00000010
00000000
00000001
00000000
,
00001000
00000000
00000010
00000100
00000000
00000001
00000000
00000010
00000000
00000100
00000000
00010000
00000000
00000000
00000000
00000000
,
00001000
00000000
01000000
00010000
00000000
00100000
00000000
00010000
00000000
10000000
00000000
01000000
00000000
00000000
00000000
00000000
,
00100000
01000000
00000000
00100000
00000000
00001000
00000000
00010000
00000000
00000100
00001000
00000100
00001000
00000000
00000010
00000000
,
00000100
00000000
00000100
00000000
00000001
00000000
00001000
00000010
00000000
00000100
00000000
00000010
00000100
00000000
00000001
00000000
,
00001000
00000000
00000100
00000010
00000000
00000001
00000000
00000100
00000000
00000010
00000000
00010000
00000000
00000000
00000000
00000000
,
00001000
00000000
01000000
00010000
00000000
00100000
00000000
00010000
00000000
10000000
00000000
01000000
00000000
00000000
00000000
00000000
,
00100000
00000000
10000000
01000000
00000000
00010000
00000000
00001000
00000000
00000100
00000000
00000010
00000000
00000000
00001000
00000000
,
00000100
00000000
00000010
00000001
00000000
00001000
00000000
00000100
00000000
00000010
00000000
00001000
00000000
00000000
00010000
00000000
,
00100000
00000000
10000000
00100000
00000000
00010000
00000000
00001000
00000000
00000100
00000000
00000001
00000000
00000000
00000100
00000000
,
00000010
00000000
00001000
00000001
00000000
00000100
00000000
00001000
00000000
00010000
00000000
00100000
00000000
00000000
00000000
00000000
;
