#TITLE:曝光;
#ARTIST:謝霆鋒;
#TITLETRANSLIT:PU GUANG;
#ARTISTTRANSLIT:TSE NICHOLAS;
#BANNER:PU GUANG.png;
#BACKGROUND:PU GUANG-bg.png;
#CDTITLE:./CDTITLES/DanceDanceRevolution UNIVERSE3 Chinese Special Edition.png;
#MUSIC:PU GUANG.ogg;
#SAMPLESTART:29.72;
#SAMPLELENGTH:15;
#DISPLAYBPM:136;
#BPMS:0=136.27;

//---------------dance-single - ----------------
#NOTES:
     dance-single:
     :
     Beginner:
     1:
     :
0000
0000
0000
0000
,
0000
0000
0000
0000
,
0000
0000
0000
0000
,
0000
0000
0000
0000
,
0000
0000
0000
0000
,
0010
0000
0000
0000
,
0100
0000
0000
0000
,
0001
0000
0000
0000
,
0010
0000
0000
0000
,
0100
0000
0000
0000
,
1000
0000
0000
0000
,
0001
0000
1000
0000
,
0001
0000
0000
0000
,
0010
0000
0100
0000
,
0010
0000
0000
0000
,
0001
0000
0000
0000
,
1000
0000
0000
0000
,
1001
0000
0000
0000
,
1001
0000
0000
0000
,
0001
0000
0000
0000
,
0010
0000
0000
0000
,
0100
0000
0000
0000
,
0110
0000
0000
0000
,
0110
0000
0000
0000
,
0010
0000
0000
0000
,
0001
0000
0000
0000
,
1000
0000
0000
0000
,
0010
0010
0010
0000
,
1000
1000
1000
0000
,
0001
0001
0001
0000
,
0100
0100
0100
0000
,
0010
0000
0000
0000
,
1000
0000
0000
0000
,
0100
0000
0000
0000
,
0001
0000
0000
0000
,
0020
0000
0000
0030
,
0000
0000
0000
0000
,
0000
0000
0000
0000
,
1001
0000
0000
0000
,
1001
0000
0000
0000
,
0100
0000
0000
0000
,
0010
0000
0000
0000
,
0100
0000
0000
0000
,
1001
0000
0000
0000
,
1001
0000
0000
0000
,
0010
0000
0000
0000
,
0100
0000
0000
0000
,
0010
0000
0000
0000
,
1001
0000
0000
0000
,
0110
0000
0000
0000
,
1000
0000
0000
0000
,
0100
0000
0000
0000
,
0001
0000
0000
0000
,
1001
0000
0000
0000
,
0110
0000
0000
0000
,
0001
0000
0000
0000
,
0100
0000
0000
0000
,
1000
0000
0000
0000
,
0010
0000
0100
0000
,
0010
0000
0000
0000
,
1000
0000
0001
0000
,
1000
0000
0000
0000
;

//---------------dance-single - ----------------
#NOTES:
     dance-single:
     :
     Easy:
     3:
     :
0000
0000
0000
0000
,
0000
0000
0000
0000
,
0000
0000
0000
0000
,
0000
0000
0000
0000
,
0000
0000
0000
0000
,
0010
0000
1000
0000
,
0100
0000
1000
0000
,
0010
0000
0001
0000
,
0100
0000
0001
0000
,
1000
0000
0010
0000
,
0100
0000
0001
0000
,
1000
0010
0001
0100
,
1000
0000
0000
0000
,
0001
0010
1000
0100
,
0001
0000
0000
0000
,
1000
0010
0001
0100
,
1000
0000
0000
0000
,
1001
0000
0110
0000
,
0001
1000
0001
0000
,
0010
0000
0001
0000
,
0100
0000
0010
0000
,
1000
0001
1000
0000
,
1001
0000
0110
0000
,
0001
1000
0001
0000
,
0100
0000
0010
0000
,
1000
0100
1000
0000
,
0001
0100
0001
0000
,
0020
0000
0030
0000
,
0100
0000
0010
0000
,
0200
0000
0300
0000
,
1000
0000
0001
0000
,
2000
0000
3000
0000
,
0001
0000
1000
0000
,
0002
0000
0003
0000
,
0020
0000
0030
0000
,
0200
0000
0300
0000
,
0000
0000
0000
0000
,
0000
0000
0000
0000
,
1001
0000
0110
0000
,
1000
0001
1000
0000
,
0010
0000
1000
0000
,
0100
0000
0010
0000
,
0001
1000
0001
0000
,
1001
0000
0110
0000
,
1000
0001
1000
0000
,
0100
0000
0010
0000
,
0001
0100
0001
0000
,
1000
0100
1000
0000
,
1001
0000
0110
0000
,
0001
0010
0100
0000
,
1000
0000
0010
0000
,
0100
0000
0001
0000
,
0010
0100
1000
0000
,
1001
0000
0110
0000
,
0001
0100
0010
0000
,
1000
0000
0100
0000
,
0010
0001
0100
0000
,
0010
1000
0100
0000
,
1000
0000
0100
0000
,
0001
0000
0100
0000
,
1000
0000
0100
0000
,
0001
0000
0000
0000
;

//---------------dance-single - ----------------
#NOTES:
     dance-single:
     :
     Medium:
     6:
     :
0000
0000
0000
0000
,
0000
0000
0000
0000
,
0000
0000
0000
0000
,
0000
0000
0000
0000
,
0000
0000
0000
0000
,
1000
0001
1000
0001
,
0010
0100
1000
0001
,
0100
0010
0100
0010
,
1001
0010
0100
1000
,
0001
0100
0010
1000
,
0100
0010
0001
0100
,
1010
0100
0011
0100
,
2020
0000
3030
0000
,
0101
0010
1100
0010
,
0202
0000
0303
0000
,
1001
0100
0010
0100
,
0000
0000
0010
0000
0000
0010
0000
0000
0010
0000
0000
0000
0000
0000
0001
0000
,
0001
0000
0000
1000
1000
0000
0000
0001
,
0010
0100
1000
0010
,
0100
0010
1000
0001
,
0010
0000
0100
0000
1000
0000
0010
0100
,
0001
0000
1001
0000
0000
0000
0000
1000
,
1000
0000
0000
0001
0001
0000
0000
1000
,
0010
0100
0010
1000
,
0001
1000
0100
0010
,
0001
0100
0001
0000
1000
0100
1000
0000
,
0001
1000
0110
1001
,
0210
0001
1000
0301
,
0021
0130
1020
0130
,
0201
0010
0001
0310
,
2010
3100
0012
0103
,
0010
0000
0000
0010
0000
0000
0020
0000
0000
0000
0000
0000
0000
0000
0000
0000
,
1030
0000
0000
1000
0000
0000
1000
0000
0001
0000
0000
0001
0000
0000
0001
0000
,
0020
0001
1000
0031
,
0200
0001
1000
0301
,
2002
0000
0000
0000
,
0000
0000
0000
0000
,
3003
0000
0000
0000
0000
0000
0000
1000
,
1000
0000
0000
0001
0001
0000
0000
0010
,
0100
1000
0010
1000
,
0001
0010
0100
0010
,
0001
0000
1000
0000
0010
0000
0100
0001
,
1000
0000
0110
0000
0000
0000
0000
0001
,
0001
0000
0000
1000
1000
0000
0000
0010
,
0100
0001
0010
0100
,
1000
0010
1000
0001
,
0010
0100
1000
0000
0010
0100
0001
0000
,
1000
0000
0001
0000
1100
0000
0101
0001
,
0010
0000
0000
1000
0100
0000
0000
0001
,
0010
0100
1000
0010
,
1000
0001
0010
0001
,
0100
0000
0010
0000
1000
0000
0001
0010
,
0100
0000
1001
0000
0000
0000
0000
1000
,
0010
0000
0000
0001
0100
0000
0000
1000
,
0010
0100
0001
1000
,
0100
1000
0001
0100
,
0010
1000
0100
0000
0010
0001
0100
0000
,
0001
1000
1001
0000
,
0001
0000
0010
0100
1000
0000
0010
0000
,
0100
0000
0001
1000
0002
0000
0003
0000
,
0010
0000
0100
1000
0010
0000
0100
0000
,
0001
1000
0000
0000
;

//---------------dance-single - ----------------
#NOTES:
     dance-single:
     :
     Hard:
     8:
     :
0000
0000
0000
0000
,
0000
0000
0000
0000
,
0000
0000
0000
0000
,
0000
0000
0000
0000
,
0000
0000
0000
0000
,
0010
1000
0100
0000
0010
0001
1000
0000
,
0100
0010
0001
0000
1000
0001
0010
0000
,
0100
1000
0010
0000
1000
0001
0100
0000
,
1000
0100
0001
0000
0010
0100
1000
0000
,
0010
0100
1000
0000
0100
0001
0010
0000
,
0100
1000
0010
0000
0001
0010
1000
0000
,
1100
0000
0010
0001
0101
0000
0010
1000
,
1001
0000
0000
0000
0101
0000
0000
1100
0000
0000
0000
0000
0010
0000
0001
0000
,
0101
0000
1000
0100
0110
0000
0001
0100
,
0110
0000
0000
0000
1001
0000
0000
0110
0000
0000
0000
0000
0001
0000
0010
0000
,
0100
1000
0010
0100
0001
0000
1000
0001
,
0000
0000
1010
0000
0000
0011
0000
0000
1001
0000
0000
0000
0000
0000
1000
0000
,
0100
0000
0000
0001
0100
0000
0000
1000
,
0100
0000
0010
0000
0001
0000
0100
0010
0000
0000
1000
0000
0001
0000
0010
0000
,
0100
0000
0000
0000
1000
0000
0000
0001
0000
0000
0000
0000
0000
0000
0100
0000
,
1000
0100
0001
0010
0100
0001
0100
1000
,
0010
0000
0000
0000
1010
0000
0000
0101
0000
0000
0000
0000
0000
0000
0001
0000
,
0010
0000
0000
1000
0010
0000
0000
0001
,
0010
0000
0100
0000
1000
0000
0001
0100
0000
0000
0010
0000
1000
0000
0100
0000
,
0010
0000
0000
0000
0001
0000
0000
1000
0000
0000
0000
0000
0000
0000
0010
0000
,
1000
0000
0100
0000
0010
0000
0001
1000
0000
0000
0010
0000
0000
0000
0100
0000
,
0010
0000
1000
0000
0001
0000
0010
0000
0100
0000
0000
1000
0000
0000
0001
0000
,
0100
0010
1000
0100
0001
0100
0010
0001
,
2000
0000
3001
0100
0020
0000
1030
0001
,
0010
0100
1000
0010
0001
0010
0100
0001
,
0020
0000
0130
1000
0002
0000
1003
0010
,
0100
0000
0000
0100
0000
0000
0100
0000
0010
0000
1000
0000
0100
0000
0010
0000
,
0001
0000
0000
0001
0000
0000
0001
0000
0010
0000
0000
0010
0000
0000
0010
0000
,
0100
1000
0010
1000
0001
0010
0100
0001
,
0100
0000
1000
0000
0001
0000
0100
0000
1000
0000
0100
0000
0010
0000
1000
0001
,
2000
0000
0000
0000
,
0000
0000
0000
0000
,
3100
0000
0010
0001
0100
0000
0001
0000
1000
0000
0000
0000
0100
0000
1000
0000
,
0010
0000
0000
0001
0010
0000
0000
1000
,
0010
0000
0100
0000
0001
0000
0010
0100
0000
0000
0001
0000
0100
0000
1000
0000
,
0001
0000
0000
0000
0100
0000
0000
0010
0000
0000
0000
0000
0000
0000
1000
0000
,
0001
0010
1000
0010
0100
1000
0010
0100
,
0001
0000
0000
0000
1100
0000
0000
0101
0000
0000
0000
0000
0000
0000
1000
0000
,
0100
0000
0000
0001
0100
0000
0000
1000
,
0100
0000
0010
0000
0001
0000
0100
0010
0000
0000
1000
0000
0001
0000
0010
0000
,
0100
0000
0000
0000
1000
0000
0000
0001
0000
0000
0000
0000
0000
0000
0100
0000
,
0010
0000
0100
0000
0001
0000
0010
0100
0000
0000
1000
0000
0000
0000
0001
0000
,
1000
0000
0100
0000
1000
0000
0010
0000
0100
0000
0000
0001
0000
0000
0010
0000
,
0100
1000
0010
0100
0001
1000
0100
1000
,
0010
0100
0010
1000
0001
0010
0001
0100
,
0010
0100
0001
0010
0100
1000
0001
0100
,
0010
1000
0100
0010
0001
1000
0010
0100
,
0001
0000
0000
0000
1000
0000
0000
0100
0000
0000
0000
0000
0000
0000
0010
0000
,
0001
1000
0010
1000
0001
0100
0010
1000
,
0100
0010
0001
0010
0100
1000
0001
0100
,
0010
1000
0100
0010
0001
0100
0001
1000
,
0100
0010
0100
1000
0001
0010
0100
0010
,
0001
0100
0010
1000
1001
0000
0000
0000
,
0001
0000
1000
0010
0100
0000
0001
0000
0020
0000
0000
0000
0230
0000
0000
0000
,
1300
0000
0001
0100
0010
0000
1000
0000
0200
0000
0000
0000
0300
0000
0000
0000
,
0010
0000
0100
1000
0001
0000
0100
0000
0002
0000
0000
0000
2003
0000
0000
0000
,
3001
0110
0000
0000
;

//---------------dance-double - ----------------
#NOTES:
     dance-double:
     :
     Beginner:
     1:
     :
00000000
00000000
00000000
00000000
,
00000000
00000000
00000000
00000000
,
00000000
00000000
00000000
00000000
,
00000000
00000000
00000000
00000000
,
00000000
00000000
00000000
00000000
,
00000010
00000000
00000000
00000000
,
00000001
00000000
00000000
00000000
,
00000100
00000000
00000000
00000000
,
00001000
00000000
00000000
00000000
,
00010000
00000000
00000000
00000000
,
01000000
00000000
00000000
00000000
,
10000000
00000000
00010000
00000000
,
10000000
00000000
00000000
00000000
,
00100000
00000000
01000000
00000000
,
00100000
00000000
00000000
00000000
,
10000000
00000000
00000000
00000000
,
01000000
00000000
00000000
00000000
,
01100000
00000000
00000000
00000000
,
01100000
00000000
00000000
00000000
,
00100000
00000000
00000000
00000000
,
00001000
00000000
00000000
00000000
,
00010000
00000000
00000000
00000000
,
00011000
00000000
00000000
00000000
,
00011000
00000000
00000000
00000000
,
00001000
00000000
00000000
00000000
,
00010000
00000000
00000000
00000000
,
00000010
00000000
00000000
00000000
,
00000100
00000100
00000100
00000000
,
00000001
00000001
00000001
00000000
,
00000010
00000010
00000010
00000000
,
00001000
00001000
00001000
00000000
,
00010000
00000000
00000000
00000000
,
00100000
00000000
00000000
00000000
,
10000000
00000000
00000000
00000000
,
01000000
00000000
00000000
00000000
,
00200000
00000000
00000000
00300000
,
00000000
00000000
00000000
00000000
,
00000000
00000000
00000000
00000000
,
01100000
00000000
00000000
00000000
,
01100000
00000000
00000000
00000000
,
00100000
00000000
00000000
00000000
,
00001000
00000000
00000000
00000000
,
00010000
00000000
00000000
00000000
,
00011000
00000000
00000000
00000000
,
00011000
00000000
00000000
00000000
,
00001000
00000000
00000000
00000000
,
00010000
00000000
00000000
00000000
,
00000010
00000000
00000000
00000000
,
00000110
00000000
00000000
00000000
,
00001001
00000000
00000000
00000000
,
00000100
00000000
00000000
00000000
,
00000010
00000000
00000000
00000000
,
00000100
00000000
00000000
00000000
,
00000110
00000000
00000000
00000000
,
00001001
00000000
00000000
00000000
,
00000010
00000000
00000000
00000000
,
00000100
00000000
00000000
00000000
,
00000010
00000000
00000000
00000000
,
00010000
00000000
00001000
00000000
,
00010000
00000000
00000000
00000000
,
00001000
00000000
00010000
00000000
,
00001000
00000000
00000000
00000000
;

//---------------dance-double - ----------------
#NOTES:
     dance-double:
     :
     Easy:
     3:
     :
00000000
00000000
00000000
00000000
,
00000000
00000000
00000000
00000000
,
00000000
00000000
00000000
00000000
,
00000000
00000000
00000000
00000000
,
00000000
00000000
00000000
00000000
,
00000001
00000000
00000010
00000000
,
00000100
00000000
00010000
00000000
,
00001000
00000000
00100000
00000000
,
01000000
00000000
10000000
00000000
,
00100000
00000000
10000000
00000000
,
01000000
00000000
00010000
00000000
,
00001000
00010000
00001000
00010000
,
00001000
00000000
00000000
00000000
,
00000100
00000010
00000100
00000010
,
00000100
00000000
00000000
00000000
,
00000001
00001000
00000001
00001000
,
00000001
00000000
00000000
00000000
,
00001001
00000000
00001001
00000000
,
00001000
00000000
00000100
00000000
,
00010000
00000000
00001000
00000000
,
01000000
00000000
00010000
00000000
,
10000000
00010000
10000000
00000000
,
10010000
00000000
10010000
00000000
,
00010000
00000000
01000000
00000000
,
00001000
00000000
00010000
00000000
,
00000100
00000010
00000100
00000000
,
00001000
00000001
00001000
00000000
,
00000020
00000000
00000030
00000000
,
00001000
00000000
00000001
00000000
,
00000200
00000000
00000300
00000000
,
00000010
00000000
00010000
00000000
,
00002000
00000000
00003000
00000000
,
00100000
00000000
01000000
00000000
,
20000000
00000000
30000000
00000000
,
00200000
00000000
00300000
00000000
,
02000000
00000000
03000000
00000000
,
00000000
00000000
00000000
00000000
,
00000000
00000000
00000000
00000000
,
10010000
00000000
10010000
00000000
,
00100000
00000000
01000000
00000000
,
00001000
00000000
00010000
00000000
,
00000100
00000000
00000010
00000000
,
00000001
00001000
00000001
00000000
,
00001001
00000000
00001001
00000000
,
00000010
00000000
00000100
00000000
,
00010000
00000000
00001000
00000000
,
01000000
00100000
01000000
00000000
,
00010000
10000000
00010000
00000000
,
10010000
00000000
01100000
00000000
,
10000000
00000000
01000000
00000000
,
00010000
00000000
00001000
00000000
,
00000100
00000000
00000001
00000000
,
00000010
00000100
00001000
00000000
,
00001001
00000000
00000110
00000000
,
00000001
00000000
00000010
00000000
,
00001000
00000000
00010000
00000000
,
00100000
10000000
01000000
00000000
,
00100000
00010000
01000000
00000000
,
00100000
00000000
10000000
00000000
,
01000000
00000000
00010000
00000000
,
00001000
00000000
00000100
00000000
,
00000001
00000000
00000000
00000000
;

//---------------dance-double - ----------------
#NOTES:
     dance-double:
     :
     Medium:
     6:
     :
00000000
00000000
00000000
00000000
,
00000000
00000000
00000000
00000000
,
00000000
00000000
00000000
00000000
,
00000000
00000000
00000000
00000000
,
00000000
00000000
00000000
00000000
,
01000000
00100000
00001000
00010000
,
00000010
00001000
00000100
00000010
,
00000001
00000100
00001000
00010000
,
00011000
00001000
00010000
01000000
,
10000000
00100000
01000000
00001000
,
00100000
00010000
01000000
00001000
,
00101000
00010000
00010010
00001000
,
00002200
00000000
00003300
00000000
,
00000011
00000100
00010010
00001000
,
00220000
00000000
00330000
00000000
,
11000000
00100000
00001000
00010000
,
00000000
00000000
00000010
00000000
00000000
00000010
00000000
00000000
00000010
00000000
00000000
00000000
00000000
00000000
00001000
00000000
,
00001000
00000000
00000000
00000001
00000001
00000000
00000000
00001000
,
00000010
00010000
00000100
00000010
,
00000001
00000100
00001000
00010000
,
01000000
00000000
10000000
00000000
00100000
00000000
01000000
00001000
,
00010000
00000000
00011000
00000000
00000000
00000000
00000000
00000100
,
00000100
00000000
00000000
00000010
00000010
00000000
00000000
00000001
,
00001000
00000010
00010000
00001000
,
00100000
00010000
01000000
00100000
,
10000000
01000000
00010000
00000000
00001000
00000100
00000001
00000000
,
00000010
00000100
00001001
00000110
,
00000002
00000010
00001000
00000103
,
00001020
00010030
00201000
00310000
,
20010000
00100000
01000000
30100000
,
02100000
03001000
00021000
00030010
,
00000100
00000000
00000000
00000100
00000000
00000000
00000200
00000000
00000000
00000000
00000000
00000000
00000000
00000000
00000000
00000000
,
00000301
00000000
00000000
00000001
00000000
00000000
00000001
00000000
00001000
00000000
00000000
00001000
00000000
00000000
00001000
00000000
,
00000200
00000010
00001000
00000310
,
00000002
00000100
00001000
00000103
,
00002002
00000000
00000000
00000000
,
00000000
00000000
00000000
00000000
,
00003003
00000000
00000000
00000000
00000000
00000000
00000000
00001000
,
00000100
00000000
00000000
00000100
00010000
00000000
00000000
00010000
,
00001000
01000000
00100000
10000000
,
01000000
00100000
00001000
01000000
,
00010000
00000000
00100000
00000000
01000000
00000000
10000000
00100000
,
00010000
00000000
00011000
00000000
00000000
00000000
00000000
00001000
,
00100000
00000000
00000000
00100000
00010000
00000000
00000000
00010000
,
01000000
00001000
00010000
00000100
,
00000010
00000001
00001000
00000010
,
00001000
00000001
00001000
00000000
00000010
00010000
00000010
00000000
,
00001000
00000000
00000100
00000000
00010100
00000000
01001000
01000000
,
00100000
00000000
00000000
00100000
10000000
00000000
00000000
10000000
,
01000000
00100000
00001000
00010000
,
00000010
00000100
00000010
00001000
,
00000100
00000000
00000010
00000000
00000001
00000000
00000100
00000010
,
00010000
00000000
00011000
00000000
00000000
00000000
00000000
00001000
,
00100000
00000000
00000000
00100000
00010000
00000000
00000000
00010000
,
01000000
00100000
10000000
01000000
,
00100000
00001000
00010000
00000010
,
00001000
00000100
00000010
00000000
00000001
00000100
00000010
00000000
,
00010000
00001000
00011000
00000000
,
00100000
00000000
01000000
10000000
01000000
00000000
00010000
00000000
,
00001000
00000000
00000100
00000001
00000100
00000000
00000000
00000000
,
00000010
00000000
00010000
00001000
00010000
00000000
00001000
00000000
,
00100000
01000000
00000000
00000000
;

//---------------dance-double - ----------------
#NOTES:
     dance-double:
     :
     Hard:
     8:
     :
00000000
00000000
00000000
00000000
,
00000000
00000000
00000000
00000000
,
00000000
00000000
00000000
00000000
,
00000000
00000000
00000000
00000000
,
00000000
00000000
00000000
00000000
,
00100000
00010000
01000000
00001000
00100000
00001000
00010000
00000000
,
00000010
00001000
00000100
00000010
00000001
00000100
00000010
00000000
,
00010000
00001000
01000000
00010000
00100000
01000000
10000000
00000000
,
00100000
00010000
00001000
00000010
00000001
00001000
00000010
00000000
,
00000100
00001000
00000100
00000010
00010000
00000100
00001000
00000000
,
00000010
00000100
00000001
00000010
00001000
00010000
00001000
00000000
,
00101000
00000000
00100000
01000000
11000000
00000000
00100000
01000000
,
01001000
00000000
00000000
00000000
00011000
00000000
00000000
00010100
00000000
00000000
00000000
00000000
00000010
00000000
00000001
00000000
,
00000101
00000000
00000010
00010000
00010100
00000000
00001000
01000000
,
01100000
00000000
00000000
00000000
10010000
00000000
00000000
01100000
00000000
00000000
00000000
00000000
00001000
00000000
00100000
00000000
,
01000000
10000000
00100000
00010000
00001000
00000000
00100000
00010000
,
00000000
00000000
11000000
00000000
00000000
01010000
00000000
00000000
10010000
00000000
00000000
00000000
00000000
00000000
10000000
00000000
,
01000000
00000000
00000000
00010000
00001000
00000000
00000000
00000100
,
00000001
00000000
00000010
00000000
00000100
00000000
00010000
00001000
00000000
00000000
00010000
00000000
00000100
00000000
00000010
00000000
,
00000001
00000000
00000000
00000000
00000100
00000000
00000000
00000010
00000000
00000000
00000000
00000000
00000000
00000000
00010000
00000000
,
00001000
00000000
00100000
00000000
00010000
00000000
10000000
00100000
00000000
00000000
10000000
00000000
01000000
00000000
00100000
00000000
,
00001000
00000000
00000000
00000000
00101000
00000000
00000000
00010010
00000000
00000000
00000000
00000000
00000000
00000000
00000001
00000000
,
00000010
00000000
00000000
00001000
00010000
00000000
00000000
00100000
,
10000000
00000000
01000000
00000000
00100000
00000000
00001000
00010000
00000000
00000000
01000000
00000000
10000000
00000000
00100000
00000000
,
01000000
00000000
00000000
00000000
00001000
00000000
00000000
00010000
00000000
00000000
00000000
00000000
00000000
00000000
00000100
00000000
,
00000010
00000000
00000001
00000000
00000100
00000000
00000010
00010000
00000000
00000000
00000100
00000000
00000000
00000000
00000010
00000000
,
00000001
00000000
00000100
00000000
00000010
00000000
00010000
00000000
00001000
00000000
00000000
00100000
00000000
00000000
00001000
00000000
,
01000000
00100000
00010000
00100000
10000000
01000000
00010000
00001000
,
02000000
00100000
03100000
10000000
02000000
00100000
03100000
00001000
,
01000000
00010000
10000000
00100000
00010000
00001000
00000010
00000001
,
00000200
00000010
00000310
00010000
00000200
00001000
00001300
00000010
,
00000100
00000000
00000000
00000100
00000000
00000000
00000100
00000000
00000001
00000000
00000010
00000000
00001000
00000000
00010000
00000000
,
00000010
00000000
00000000
00000010
00000000
00000000
00000010
00000000
00000100
00000000
00000000
00000100
00000000
00000000
00000100
00000000
,
00000010
00010000
00001000
00100000
00001000
01000000
00100000
00010000
,
00100000
00000000
10000000
00000000
00010000
00000000
00100000
00000000
10000000
00000000
00100000
00000000
00001000
00000000
01000000
00100000
,
20000000
00000000
00000000
00000000
,
00000000
00000000
00000000
00000000
,
30010000
00000000
00100000
01000000
00100000
00000000
00001000
00000000
00010000
00000000
00000000
00000000
00000010
00000000
00000100
00000000
,
00000001
00000010
00000010
00000100
00010000
00001000
00001000
01000000
,
00100000
00000000
10000000
00000000
00010000
00000000
10000000
00100000
00000000
00000000
01000000
00000000
00001000
00000000
00010000
00000000
,
00000100
00000000
00000000
00000000
00000010
00000000
00000000
00000001
00000000
00000000
00000000
00000000
00000000
00000000
00000100
00000000
,
00001000
00000000
00000100
00000000
00000010
00000000
00010000
00001000
00000000
00000000
00100000
00000000
00010000
00000000
01000000
00000000
,
00100000
00000000
00000000
00000000
10100000
00000000
00000000
01010000
00000000
00000000
00000000
00000000
00000000
00000000
00100000
00000000
,
10000000
01000000
01000000
00010000
00001000
01000000
01000000
00010000
,
00100000
00000000
00001000
00000000
00010000
00000000
00000010
00000100
00000000
00000000
00000001
00000000
00000010
00000000
00000100
00000000
,
00001000
00000000
00000000
00000000
00000010
00000000
00000000
00000100
00000000
00000000
00000000
00000000
00000000
00000000
00000010
00000000
,
00010000
00000000
00001000
00000000
00010000
00000000
00000100
00000010
00000000
00000000
00000001
00000000
00000000
00000000
00001000
00000000
,
00000001
00000000
00000100
00000000
00001000
00000000
00010000
00000000
01000000
00000000
00000000
10000000
00000000
00000000
00010000
00000000
,
01000000
10000000
01000000
00001000
00100000
00010000
01000000
10000000
,
01000000
00000000
00100000
00000000
10000000
00000000
01000000
00100000
00000000
00000000
00001000
00000000
00010000
00000000
00000010
00000000
,
00000100
00001000
00000100
00000001
00000010
00001000
00010000
00100000
,
00010000
00000000
00001000
00000000
01000000
00000000
00100000
10000000
00000000
00000000
00010000
00000000
00100000
00000000
01000000
00000000
,
10000000
00000000
00000000
00000000
00100000
00000000
00000000
01000000
00000000
00000000
00000000
00000000
00000000
00000000
00001000
00000000
,
00010000
00100000
00010000
00001000
00100000
00001000
00010000
00000010
,
00001000
00000000
00000100
00000000
00000010
00000000
00000001
00001000
00000000
00000000
00000001
00000000
00000100
00000000
00001000
00000000
,
00010000
00000000
00000000
00000000
00001000
00000000
00000000
01000000
00000000
00000000
00000000
00000000
00000000
00000000
00100000
00000000
,
01000000
00000000
00010000
00000000
00100000
00000000
00001000
00010000
00000000
00000000
01000000
00000000
00000000
00000000
10000000
00000000
,
00100000
00010000
00001000
00000010
00000011
00000000
00000000
00000000
,
00001000
00000000
00000100
00000010
00000001
00000000
00000100
00000000
00002000
00000000
00000000
00000000
00023000
00000000
00000000
00000000
,
00031000
00000000
01000000
00100000
10000000
00000000
01000000
00000000
00200000
00000000
00000000
00000000
00300000
00000000
00000000
00000000
,
00010000
00000000
01000000
00001000
00100000
00000000
00010000
00000000
20000000
00000000
00000000
00000000
32000000
00000000
00000000
00000000
,
03010000
00011000
00000000
00000000
;
