#TITLE:你不是好情人 (合唱版);
#ARTIST:Twins;
#TITLETRANSLIT:NI BU SHI HAO QING REN (Duet Version);
#ARTISTTRANSLIT:Twins;
#BANNER:NI BU SHI HAO QING REN (Duet Version).png;
#BACKGROUND:NI BU SHI HAO QING REN (Duet Version)-bg.png;
#CDTITLE:./CDTITLES/DanceDanceRevolution UNIVERSE3 Chinese Special Edition.png;
#MUSIC:NI BU SHI HAO QING REN (Duet Version).ogg;
#SAMPLESTART:47.014;
#SAMPLELENGTH:15;
#DISPLAYBPM:24:67;
#BPMS:0=67.001,108=59.211,109=44.118,109.5=24.064;

//---------------dance-single - ----------------
#NOTES:
     dance-single:
     :
     Beginner:
     1:
     :
0000
0000
0000
0000
,
0000
0000
0000
0000
,
0000
0000
0000
0000
,
1000
0000
0000
0000
,
0001
0000
1000
0000
,
1001
0000
0000
0000
,
0001
0000
0000
0000
,
0100
0000
0000
0000
,
0010
0000
0000
0000
,
0110
0000
0000
0000
,
0010
0000
0000
0000
,
1000
0000
0000
0000
,
0001
0000
2000
0000
,
0000
3000
1000
0000
,
0001
0000
1000
0000
,
0100
0000
0010
0000
,
0001
0000
1000
0001
,
1000
0000
0001
0000
,
1000
0000
0100
0000
,
0010
0000
0001
0000
,
1000
0000
0100
0010
,
0100
0000
0001
0000
,
0000
0000
1000
0000
,
0000
0000
1001
0000
,
0000
0000
0001
0000
,
1000
0000
1001
0000
;

//---------------dance-single - ----------------
#NOTES:
     dance-single:
     :
     Easy:
     3:
     :
0000
0000
0000
0000
,
0000
0000
0000
0000
,
0000
0000
0000
0000
,
1000
0100
1000
0000
,
0001
0100
0010
0110
,
0100
0010
1000
0000
,
0001
1000
0100
0000
,
1000
0001
0100
0000
,
0001
1000
0010
0000
,
1001
0000
1000
0100
,
1000
0000
0100
0010
,
0100
0000
0010
0001
,
0010
0001
2000
0000
,
0000
3000
1000
0100
,
0010
0000
0100
0010
,
0001
0000
0001
0100
,
0010
0000
0100
0010
,
1000
0001
1000
0001
,
1001
0000
0100
0010
,
0110
0000
0010
1000
,
1001
0000
0001
0100
,
0010
0000
0110
0010
,
0110
0000
1001
1000
,
1001
0000
1000
0100
,
0010
0000
0100
0010
,
0001
0100
2002
0000
,
0000
3003
0000
0000
;

//---------------dance-single - ----------------
#NOTES:
     dance-single:
     :
     Medium:
     5:
     :
0000
0000
0000
0000
,
0000
0000
0000
0000
,
0000
0000
0000
0000
,
1000
0100
0010
0001
0000
1000
0001
0000
,
0001
0100
0010
1000
0001
0000
1001
0000
,
1000
0000
0001
0000
0100
0020
0030
1000
,
0001
0000
1000
0000
0100
0020
0030
0001
,
1000
0000
0100
0000
0010
0002
0003
1000
,
0001
0000
0100
0000
0010
1000
0010
0001
,
0010
0000
1001
0000
1000
0100
0010
0001
,
1000
0000
0110
0000
0010
1000
0001
0100
,
0010
0000
1100
0000
1000
0100
0001
0100
,
1000
0101
0020
0000
,
0030
0100
0001
0100
0010
0000
1001
0000
,
0100
0000
0010
0000
0001
1000
1000
0001
,
0100
0010
0000
1000
0001
0000
1000
0100
,
0010
0000
0000
0000
0001
1000
0001
1000
,
0010
0000
1001
0000
0001
0100
0010
1000
,
0002
0000
1003
0000
0100
0000
0010
0001
,
1000
0000
0001
0000
0110
0000
0001
0100
,
0010
0000
1000
0000
0001
1000
0100
0010
,
0001
0000
0010
0000
1001
0000
0001
0100
,
1000
0100
0000
0010
1000
0000
1001
0100
,
0010
0001
0000
0010
0100
1000
0001
0000
,
0100
0010
1001
0000
0100
0000
0010
0001
,
1000
0100
2002
0000
,
0000
3003
0000
0000
;

//---------------dance-single - ----------------
#NOTES:
     dance-single:
     :
     Hard:
     7:
     :
0000
0000
0000
0000
,
0000
0000
0000
0000
,
0000
0000
0000
0000
,
1000
0000
0100
0000
0010
0000
0001
0000
0000
1000
0001
1000
0001
0000
0000
0000
,
0001
0100
0010
1000
0001
0000
0110
0000
,
1000
0000
0000
0000
0001
0000
0000
1000
0100
0000
0020
0000
0030
0000
0001
0000
,
0001
0000
0000
0000
1000
0000
0000
0001
0100
0000
0020
0000
0030
0000
1000
0000
,
1000
0000
0000
0000
0001
0000
0000
1000
0010
0000
0200
0000
0300
0000
0001
0000
,
0001
0000
0000
0000
0010
0000
0000
0100
0010
0000
0001
0000
1000
0000
0100
0000
,
0010
0000
0000
0000
0100
0000
0000
0010
0001
0000
1000
0000
0001
0000
0100
0001
,
0100
0000
0000
0001
1000
0000
0000
0010
1000
0000
0100
0000
0010
0000
0001
0010
,
0001
0000
0000
0010
0100
0000
0000
1000
0100
0000
1000
0000
0001
0000
1000
0000
,
0001
0000
0000
0000
0000
0100
0000
0000
0000
0000
0010
0000
0000
0000
0000
0000
1000
0000
0000
0000
0000
0100
0000
0000
0000
0000
0010
0000
0000
0000
0000
0000
0002
0000
0000
0000
0000
0000
0000
0000
0000
0000
0000
0000
0000
0000
0000
0000
0000
0000
0000
0000
0000
0000
0000
0000
0000
0000
0000
0000
0000
0000
0000
0000
,
0003
0000
1000
0000
0001
0000
0100
0000
0001
0000
1000
1000
0000
0000
0000
0100
,
0100
0000
0010
0010
0000
0000
0000
0000
0001
0000
1000
1000
0000
0000
0001
0000
,
0100
0000
0010
0010
0000
0000
1000
0000
0001
0000
0000
1000
0100
0000
0010
0000
,
0001
0000
0000
0000
0000
0000
0000
1000
0001
1000
0001
1000
0001
0000
0100
0000
,
0010
0000
0000
0000
1000
0000
0000
0001
0100
0000
0100
0001
0000
0000
1000
0000
,
0200
0000
0310
0000
0001
0000
1000
0001
,
0100
0000
0000
0000
0000
0010
0000
0000
0000
0000
1000
0000
0000
0000
0000
0000
0001
0000
0000
0000
0000
1000
0000
0000
0000
0000
0100
0000
0000
0000
0000
0000
0010
0000
0000
0000
0000
0000
0000
0000
0000
0000
0000
0000
0001
0000
0000
0000
1000
0000
0000
0000
0000
0000
0000
0000
0001
0000
0000
0000
1000
0000
0000
0000
,
0000
0000
0000
0100
0010
0000
0000
0000
0001
0000
1000
1000
0000
0000
0001
0000
,
0100
0000
0000
0000
0010
0000
0000
0000
1001
0000
0000
0000
0001
0000
0100
0010
,
0100
0000
0010
1000
0000
0000
1000
0001
0000
0000
0000
0000
0110
0000
0010
1000
,
0010
0000
1000
0001
0000
0000
0010
0000
0100
0000
0010
0001
0000
0000
0000
0000
,
1000
0000
0001
0000
1001
0000
0000
0000
0100
0000
0000
0000
0000
0000
0010
0100
,
0010
0100
2002
0000
,
0000
3003
0000
0000
;

//---------------dance-double - ----------------
#NOTES:
     dance-double:
     :
     Beginner:
     1:
     :
00000000
00000000
00000000
00000000
,
00000000
00000000
00000000
00000000
,
00000000
00000000
00000000
00000000
,
10000000
00000000
00000000
00000000
,
01000000
00000000
00100000
00000000
,
00001000
00000000
00000000
00000000
,
00010000
00000000
00000000
00000000
,
00000100
00000000
00000000
00000000
,
00000010
00000000
00000000
00000000
,
00000110
00000000
00000000
00000000
,
00000001
00000000
00000000
00000000
,
00001000
00000000
00000000
00000000
,
00000100
00000000
00020000
00000000
,
00000000
00030000
00010000
00000000
,
00001000
00000000
01000000
00000000
,
00100000
00000000
10000000
00000000
,
01000000
00000000
00100000
00001000
,
00100000
00000000
00001000
00000000
,
00010000
00000000
00000010
00000000
,
00001000
00000000
00000001
00000000
,
00000100
00000000
00000010
00010000
,
00000010
00000000
00010000
00000000
,
00000000
00000000
00001000
00000000
,
00000000
00000000
00011000
00000000
,
00000000
00000000
01000000
00000000
,
00100000
00000000
01100000
00000000
;

//---------------dance-double - ----------------
#NOTES:
     dance-double:
     :
     Easy:
     3:
     :
00000000
00000000
00000000
00000000
,
00000000
00000000
00000000
00000000
,
00000000
00000000
00000000
00000000
,
10000000
00010000
10000000
00000000
,
00010000
01000000
00001000
00010000
,
00001000
00010000
00000100
00000000
,
00001000
00000001
00001000
00000000
,
00000010
00000100
00000010
00000000
,
00001000
00000100
00010000
00000000
,
00011000
00000000
00001000
01000000
,
00010000
00000000
01000000
00100000
,
10000000
00000000
00010000
10000000
,
01000000
00010000
00002000
00000000
,
00000000
00003000
00001000
00010000
,
00000010
00000000
00001000
00000001
,
00001000
00000000
00000001
00000100
,
00001000
00000000
00010000
00001000
,
00010000
01000000
10000000
00010000
,
10010000
00000000
01000000
00100000
,
01100000
00000000
00100000
00001000
,
00011000
00000000
00010000
00000100
,
00001000
00000000
00001001
00001000
,
00001001
00000000
00000110
00000100
,
00000110
00000000
00000010
00010000
,
00001000
00000000
01000000
00010000
,
10000000
01000000
00200000
00000000
,
00000000
00300000
00000000
00000000
;

//---------------dance-double - ----------------
#NOTES:
     dance-double:
     :
     Medium:
     5:
     :
00000000
00000000
00000000
00000000
,
00000000
00000000
00000000
00000000
,
00000000
00000000
00000000
00000000
,
10000000
01000000
00100000
00001000
00000000
00010000
00001000
00000000
,
00010000
00000100
00000010
00000001
00001000
00000000
00001001
00000000
,
00000001
00000000
00000100
00000000
00000010
00020000
00030000
00001000
,
01000000
00000000
00010000
00000000
10000000
00200000
00300000
10000000
,
01000000
00000000
00100000
00000000
00001000
00020000
00030000
00001000
,
00010000
00000000
00000100
00000000
00000010
00000001
00000100
00000001
,
00001000
00000000
00000110
00000000
00000001
00000100
00001000
00010000
,
00001000
00000000
00011000
00000000
00010000
00001000
00010000
01000000
,
10000000
00000000
10010000
00000000
10000000
00100000
00010000
00001000
,
00010000
00011000
00000200
00000000
,
00000300
00000010
00000001
00000100
00000010
00000000
00001001
00000000
,
00000001
00000000
00000100
00000000
00000010
00010000
00010000
00001000
,
01000000
00010000
00000000
10000000
00010000
00000000
10000000
01000000
,
00100000
00000000
00000000
00000000
00001000
00010000
00001000
00010000
,
00001000
00000000
00011000
00000000
00010000
00000100
00000010
00000001
,
00002000
00000000
00003001
00000000
00000100
00000000
00000010
00000001
,
00000100
00000000
00000010
00000000
00001100
00000000
00010000
00001000
,
01000000
00000000
00010000
00000000
00100000
01000000
10000000
00100000
,
10000000
00000000
00010000
00000000
01100000
00000000
00100000
00001000
,
00010000
00001000
00000000
00010000
00000010
00000000
00001001
00000100
,
00000010
00001000
00000000
00000001
00000100
00001000
00010000
00000000
,
00001000
00010000
00011000
00000000
01000000
00000000
00100000
10000000
,
00010000
01000000
20020000
00000000
,
00000000
30030000
00000000
00000000
;

//---------------dance-double - ----------------
#NOTES:
     dance-double:
     :
     Hard:
     7:
     :
00000000
00000000
00000000
00000000
,
00000000
00000000
00000000
00000000
,
00000000
00000000
00000000
00000000
,
10000000
00000000
01000000
00000000
00100000
00000000
00001000
00000000
00000000
00010000
00001000
00010000
00001000
00000000
00000000
00000000
,
00010000
00000100
00000010
00000001
00001000
00000000
00000110
00000000
,
00000001
00000000
00000000
00000000
00000100
00000000
00000000
00000010
00010000
00000000
00002000
00000000
00003000
00000000
00010000
00000000
,
00001000
00000000
00000000
00000000
01000000
00000000
00000000
00010000
10000000
00000000
02000000
00000000
03000000
00000000
00100000
00000000
,
00010000
00000000
00000000
00000000
10000000
00000000
00000000
00010000
01000000
00000000
00002000
00000000
00003000
00000000
00010000
00000000
,
00000100
00000000
00000000
00000000
00001000
00000000
00000000
00000100
00000010
00000000
00000001
00000000
00000100
00000000
00000010
00000000
,
00001000
00000000
00000000
00000000
00000001
00000000
00000000
00001000
00000001
00000000
00000100
00000000
00001000
00000000
00010000
00001000
,
00010000
00000000
00000000
00001000
00100000
00000000
00000000
00010000
00100000
00000000
00010000
00000000
10000000
00000000
01000000
00100000
,
01000000
00000000
00000000
00100000
00010000
00000000
00000000
00100000
00001000
00000000
00010000
00000000
00000100
00000000
00001000
00000000
,
00000100
00000000
00000000
00000000
00000000
00000010
00000000
00000000
00000000
00000000
00000001
00000000
00000000
00000000
00000000
00000000
00000100
00000000
00000000
00000000
00000000
00000010
00000000
00000000
00000000
00000000
00001000
00000000
00000000
00000000
00000000
00000000
00000002
00000000
00000000
00000000
00000000
00000000
00000000
00000000
00000000
00000000
00000000
00000000
00000000
00000000
00000000
00000000
00000000
00000000
00000000
00000000
00000000
00000000
00000000
00000000
00000000
00000000
00000000
00000000
00000000
00000000
00000000
00000000
,
00000003
00000000
00000100
00000000
00000010
00000000
00010000
00000000
00001000
00000000
00010000
00010000
00000000
00000000
00000000
00001000
,
00001000
00000000
01000000
01000000
00000000
00000000
00000000
00000000
00100000
00000000
10000000
10000000
00000000
00000000
01000000
00000000
,
00100000
00000000
00010000
00010000
00000000
00000000
01000000
00000000
00001000
00000000
00000000
00010000
00001000
00000000
00010000
00000000
,
00000100
00000000
00000000
00000000
00000000
00000000
00000000
00000010
00000001
00000010
00000001
00000010
00000001
00000000
00001000
00000000
,
00000001
00000000
00000000
00000000
00000100
00000000
00000000
00000010
00001000
00000000
00001000
00000010
00000000
00000000
00010000
00000000
,
00002000
00000000
00013000
00000000
00001000
00000000
00010000
01000000
,
10000000
00000000
00000000
00000000
00000000
00010000
00000000
00000000
00000000
00000000
01000000
00000000
00000000
00000000
00000000
00000000
00010000
00000000
00000000
00000000
00000000
10000000
00000000
00000000
00000000
00000000
01000000
00000000
00000000
00000000
00000000
00000000
00100000
00000000
00000000
00000000
00000000
00000000
00000000
00000000
00000000
00000000
00000000
00000000
00001000
00000000
00000000
00000000
00010000
00000000
00000000
00000000
00000000
00000000
00000000
00000000
00010000
00000000
00000000
00000000
00001000
00000000
00000000
00000000
,
00000000
00000000
00000000
00010000
00000100
00000000
00000000
00000000
00001000
00000000
00000001
00000001
00000000
00000000
00000100
00000000
,
00000010
00000000
00000000
00000000
00001000
00000000
00000000
00000000
00001001
00000000
00000000
00000000
00000001
00000000
00001000
00000100
,
00001000
00000000
00000100
00010000
00000000
00000000
00010000
00001000
00000000
00000000
00000000
00000000
00101000
00000000
00100000
00010000
,
00100000
00000000
00010000
10000000
00000000
00000000
01000000
00000000
00100000
00000000
00001000
00010000
00000000
00000000
00000000
00000000
,
00001000
00000000
00010000
00000000
00011000
00000000
00000000
00000000
00010000
00000000
00000000
00000000
00000000
00000000
00000100
00000010
,
00000100
00001000
00002002
00000000
,
00000000
00003003
00000000
00000000
;
