#TITLE:靠近妳;
#ARTIST:B.A.D.;
#TITLETRANSLIT:Kao Jin Ni;
#BANNER:Kao Jin Ni.png;
#BACKGROUND:Kao Jin Ni-bg.png;
#CDTITLE:./CDTITLES/DanceDanceRevolution UNIVERSE3 Chinese Special Edition.png;
#MUSIC:Kao Jin Ni.ogg;
#SAMPLESTART:82.56;
#SAMPLELENGTH:15;
#BPMS:0=125;

//---------------dance-single - ----------------
#NOTES:
     dance-single:
     :
     Beginner:
     1:
     :
0000
0000
0000
0000
,
0000
0000
0000
0000
,
0000
0000
0000
0000
,
0000
0000
0000
0000
,
0000
0000
0000
0000
,
1000
0000
0000
0000
,
0100
0000
0000
0000
,
0010
0000
0000
0000
,
0001
0000
0000
0000
,
1000
0000
0000
0000
,
0010
0000
0000
0000
,
0100
0000
0000
0000
,
0001
0000
0000
0000
,
0010
0000
0000
0000
,
0100
0000
0000
0000
,
0010
0000
0000
0000
,
0100
0100
0000
0000
,
1000
0000
0000
0000
,
0001
0000
0000
0000
,
1000
0000
0000
0000
,
0001
0000
0000
0000
,
0100
0000
0010
0000
,
0100
0100
0100
0000
,
0001
0000
0000
0000
,
1000
0000
0000
0000
,
0100
0000
0010
0000
,
0100
0100
0100
0000
,
1000
0000
0000
0000
,
0001
0000
0000
0000
,
0010
0000
0001
0000
,
0100
0000
1000
0000
,
0020
0000
0000
0030
,
0010
0000
0000
0000
,
1001
0000
0000
0000
,
0100
0000
0000
0000
,
1000
0000
0000
0000
,
0001
0000
0000
0000
,
0100
0000
0000
0000
,
0010
0000
0000
0000
,
1000
0000
0000
0000
,
0001
0000
0000
0000
,
0010
0000
0000
0000
,
1001
0000
0000
0000
,
1000
0000
0001
0000
,
1000
1000
1000
0000
,
0010
0000
0000
0000
,
0100
0000
0000
0000
,
0001
0000
1000
0000
,
0001
0001
0001
0000
,
0010
0000
0000
0000
,
0100
0000
0000
0000
,
0010
0000
0001
0000
,
0100
0000
1000
0000
,
0020
0000
0000
0030
,
0010
0000
0000
0000
,
1001
0000
0000
0000
;

//---------------dance-single - ----------------
#NOTES:
     dance-single:
     :
     Easy:
     2:
     :
0000
0000
0000
0000
,
0000
0000
0000
0000
,
0000
0000
0000
0000
,
0000
0000
0000
0000
,
0000
0000
0000
0000
,
0100
0000
1000
0000
,
0100
0000
0001
0000
,
0100
0000
0000
0000
,
1000
0000
0000
0000
,
0010
0000
0001
0000
,
0010
0000
1000
0000
,
0010
0000
0000
0000
,
0001
0000
0000
0000
,
1000
0000
0100
0000
,
0010
0000
0001
0000
,
0100
0000
0000
0000
,
0010
0000
0000
0000
,
1010
0000
0010
0000
,
1000
0000
0010
0000
,
0100
0000
0001
0000
,
0100
0000
0001
0000
,
0010
0000
0100
0000
,
1000
0010
1000
0000
,
0010
0000
0100
0000
,
0001
0010
0001
0000
,
1000
0000
0001
0000
,
0010
0100
0010
0000
,
0001
0000
1000
0000
,
0010
0100
0010
0000
,
1000
0000
0100
0100
,
1000
0000
1000
1000
,
0001
0000
0001
0001
,
0010
0000
0100
0000
,
1001
0000
0000
0000
,
0010
0000
0000
0000
,
0100
0000
0000
0000
,
1000
0000
0000
0000
,
0001
0000
0000
0000
,
0100
0000
0000
0000
,
0010
0000
0000
0000
,
1000
0000
0000
0000
,
0001
0000
0000
0000
,
0110
0000
0000
0000
,
1000
0000
0001
0000
,
0100
0010
0100
0000
,
0001
0000
1000
0000
,
0100
0010
0100
0000
,
0010
0000
0001
0000
,
1000
0100
1000
0000
,
0010
0000
1000
0000
,
0001
0100
0001
0000
,
0010
0000
0100
0100
,
0010
0000
0010
0010
,
0001
0000
0001
0001
,
1000
0000
0001
0000
,
1001
0000
0000
0000
;

//---------------dance-single - ----------------
#NOTES:
     dance-single:
     :
     Medium:
     5:
     :
0000
0000
0000
0000
,
0000
0000
0000
0000
,
0000
0000
0000
0000
,
0000
0000
0000
0000
,
0000
0000
0000
0000
,
0010
1000
0100
0010
,
0001
0000
1000
0000
0010
0100
0010
0000
,
1000
0001
0010
0100
,
1000
0010
1000
0001
,
0100
0010
1000
0001
,
0010
0000
0100
0000
1000
0010
0100
0001
,
2000
0000
3001
0010
,
0002
0000
1003
0010
,
0100
0010
1000
0100
,
0010
0000
0100
0000
1000
0001
1000
0000
,
0010
0100
0001
0010
,
0100
1000
0001
0100
,
0001
1000
0000
0100
,
0010
0000
1000
0000
0100
0010
0001
1000
,
0010
0000
1000
0100
0010
0000
0001
0100
,
0020
0000
0000
0030
,
1000
0001
1000
0100
,
0010
0000
0001
1000
0010
1000
0000
0001
,
0010
0100
0010
0001
,
1000
0000
0010
0100
0010
0000
1000
0000
,
0100
0010
0001
0100
,
0001
0000
1000
0100
0010
0100
0000
1000
,
0001
0100
0010
1000
,
0001
0000
0010
0100
0010
0100
0010
0100
,
0000
0000
0000
1000
0010
1000
0001
0100
,
0000
0000
0000
0001
0010
0001
0100
0010
,
0100
0000
0000
0001
1000
0001
0000
0010
,
0000
0000
0000
0000
,
0110
0000
0000
0000
,
0100
0000
1000
0000
,
0010
0000
0100
0001
,
1000
0000
0001
1000
,
0200
0000
0300
0000
,
0010
0000
0100
0000
,
1000
0010
1000
0001
,
0010
0001
0100
0010
,
2000
0000
0000
0000
,
3001
0000
0000
0000
,
1000
0010
0100
0001
,
0010
0000
0100
1000
0001
1000
0000
0010
,
0100
0010
1000
0100
,
1000
0000
0001
0100
0001
0000
0010
0000
,
0100
1000
0010
1000
,
0100
0000
0010
0001
1000
0001
0000
0100
,
0010
0100
0001
0010
,
0100
0000
1000
0001
1000
0001
1000
0001
,
0000
0000
0000
0100
0010
1000
0100
1000
,
0000
0000
0000
0100
0010
0100
1000
0001
,
1000
0000
0000
0001
0010
0001
0000
0100
,
0000
0000
0000
0000
,
1001
0000
0000
0000
;

//---------------dance-single - ----------------
#NOTES:
     dance-single:
     :
     Hard:
     7:
     :
0000
0000
0000
0000
,
0000
0000
0000
0000
,
0000
0000
0000
0000
,
0000
0000
0000
0000
,
0000
0000
0000
0000
,
0001
0000
1000
0001
0100
0001
0010
0100
,
0010
0000
0000
0000
0001
0000
0100
0000
0010
0000
0000
1000
0000
0000
0001
0000
,
0100
0000
0010
1000
0010
0100
0001
2000
,
0000
0100
0000
0001
0000
3100
0000
0000
,
0010
0000
0001
1000
0001
0100
1000
0100
,
0000
0010
1000
0100
0001
0100
0010
0001
,
2000
0010
0001
3010
,
0002
0010
1000
0013
,
0100
0000
1000
0010
0100
0001
0010
0100
,
1000
0001
1000
0010
,
0100
0000
0001
1000
0100
0001
0100
2000
,
0000
0001
0000
0100
0000
3001
0000
0000
,
0010
0000
0100
0010
0001
1000
0010
1000
,
0100
0000
1000
0001
0100
1000
0100
0001
,
0010
0100
1000
0001
0100
0001
0010
0100
,
2002
0000
0000
3003
,
0100
0010
1000
0001
0010
0100
1000
0010
,
0000
1000
0100
0010
0001
0100
0000
1000
,
0100
0001
0010
0001
0000
1000
0010
1000
,
0000
0100
0010
1000
0010
0001
1000
0000
,
0001
0100
0010
1000
0100
0010
0001
0100
,
0000
0010
0100
0001
1000
0100
0000
1000
,
0010
1000
0001
0010
0000
0001
1000
0010
,
0000
0100
0001
0010
0001
1000
0010
1000
,
0100
0000
0010
0001
0100
1000
0100
0001
,
1000
0000
0100
0010
1000
0010
0001
1000
,
0010
0000
1000
0100
0010
0001
1000
0010
,
0200
0001
1000
0301
,
1001
0000
0000
0000
,
1000
0000
0000
0010
0100
0001
0100
0010
,
0000
1000
0100
0010
0000
0001
1000
0010
,
0000
0100
0001
0010
0000
0100
0001
0100
,
2000
0010
0001
3100
,
1000
0000
0000
0010
0001
0100
0000
0001
,
0000
1000
0000
0010
0100
1000
0100
0001
,
1000
0010
0001
0010
0100
0001
0010
0100
,
1000
0010
0100
0001
,
1001
0000
0000
0000
,
1000
0100
0010
0001
1000
0010
0100
0001
,
0000
0010
0100
0001
0100
1000
0000
0010
,
1000
0001
0100
0001
0000
1000
0100
1000
,
0000
0001
0010
0100
1000
0001
0010
0000
,
0001
0100
0010
0100
0001
0010
0100
1000
,
0000
0010
0100
0010
1000
0001
0000
0010
,
0100
1000
0010
0100
0000
0001
0010
0100
,
0000
0010
0001
0100
1000
0100
0001
0010
,
0100
0000
1000
0001
0100
0001
1000
0100
,
0010
0000
0001
1000
0010
0001
0010
1000
,
0001
0000
0100
0010
1000
0100
0010
0001
,
0200
0001
1000
0301
,
0000
0010
0100
1000
0001
0100
0010
1000
,
0001
0000
0000
0000
;

//---------------dance-double - ----------------
#NOTES:
     dance-double:
     :
     Beginner:
     1:
     :
00000000
00000000
00000000
00000000
,
00000000
00000000
00000000
00000000
,
00000000
00000000
00000000
00000000
,
00000000
00000000
00000000
00000000
,
00000000
00000000
00000000
00000000
,
00000010
00000000
00000000
00000000
,
00000001
00000000
00000000
00000000
,
00000100
00000000
00000000
00000000
,
00000010
00000000
00000000
00000000
,
00010000
00000000
00000000
00000000
,
00001000
00000000
00000000
00000000
,
00100000
00000000
00000000
00000000
,
01000000
00000000
00000000
00000000
,
00100000
00000000
00000000
00000000
,
00010000
00000000
00000000
00000000
,
10000000
00000000
00000000
00000000
,
01000000
00000000
00000000
00000000
,
00100000
00000000
00000000
00000000
,
00001000
00000000
00000000
00000000
,
00010000
00000000
00000000
00000000
,
00000010
00000000
00000000
00000000
,
00001000
00000000
00001000
00000000
,
00000001
00000001
00000001
00000000
,
00000010
00000000
00000000
00000000
,
00000100
00000000
00000000
00000000
,
00010000
00000000
00010000
00000000
,
00001000
00001000
00001000
00000000
,
01000000
00000000
00000000
00000000
,
00100000
00000000
00000000
00000000
,
10000000
00000000
01000000
00000000
,
00010000
00000000
00001000
00000000
,
00020000
00000000
00000000
00030000
,
00010000
00000000
00000000
00000000
,
00011000
00000000
00000000
00000000
,
00001000
00000000
00000000
00000000
,
00000010
00000000
00000000
00000000
,
00000001
00000000
00000000
00000000
,
00000100
00000000
00000000
00000000
,
00000010
00000000
00000000
00000000
,
00010000
00000000
00000000
00000000
,
00001000
00000000
00000000
00000000
,
00100000
00000000
00000000
00000000
,
10010000
00000000
00000000
00000000
,
01000000
00000000
01000000
00000000
,
10000000
10000000
10000000
00000000
,
00010000
00000000
00000000
00000000
,
01000000
00000000
00000000
00000000
,
00001000
00000000
00001000
00000000
,
00010000
00010000
00010000
00000000
,
00000100
00000000
00000000
00000000
,
00000010
00000000
00000000
00000000
,
00000001
00000000
00000100
00000000
,
00001000
00000000
00010000
00000000
,
00002000
00000000
00000000
00003000
,
00001000
00000000
00000000
00000000
,
00011000
00000000
00000000
00000000
;

//---------------dance-double - ----------------
#NOTES:
     dance-double:
     :
     Easy:
     3:
     :
00000000
00000000
00000000
00000000
,
00000000
00000000
00000000
00000000
,
00000000
00000000
00000000
00000000
,
00000000
00000000
00000000
00000000
,
00000000
00000000
00000000
00000000
,
00100000
00000000
10000000
00000000
,
00100000
00000000
10000000
00000000
,
01000000
00000000
00100000
00000000
,
00001000
00000000
00000000
00000000
,
01000000
00000000
00010000
00000000
,
01000000
00000000
00010000
00000000
,
00100000
00000000
00001000
00000000
,
00010000
00000000
00000000
00000000
,
00000010
00000000
00001000
00000000
,
00000010
00000000
00001000
00000000
,
00000001
00000000
00000100
00000000
,
00000010
00000000
00100000
00000000
,
00010000
00000000
00010000
00000000
,
00001000
00000000
00001000
00000000
,
01000000
00000000
01000000
00000000
,
00100000
00000000
00100000
00000000
,
10000000
00000000
01000000
00000000
,
00010000
00010000
00010000
00000000
,
00001000
00000000
00000100
00000000
,
00000001
00000001
00000001
00000000
,
00000010
00000000
00001000
00000000
,
00010000
00010000
00010000
00000000
,
00100000
00000000
00010000
00000000
,
00001000
00001000
00001000
00000000
,
01000000
00000000
00100000
10000000
,
00100000
00000000
10000000
01000000
,
10000000
00000000
01000000
00100000
,
01000000
00000000
00010000
00000000
,
00011000
00000000
00000000
00000000
,
00001000
00000000
00000000
00000000
,
00000100
00000000
00000000
00000000
,
00000001
00000000
00000000
00000000
,
00000010
00000000
00000000
00000000
,
00000100
00000000
00000000
00000000
,
00010000
00000000
00000000
00000000
,
00001000
00000000
00000000
00000000
,
01000000
00000000
00000000
00000000
,
10010000
00000000
00000000
00000000
,
10000000
00000000
00100000
00000000
,
00010000
00010000
00010000
00000000
,
00001000
00000000
00000010
00000000
,
00000001
00000001
00000001
00000000
,
00000100
00000000
00001000
00000000
,
00010000
00010000
00010000
00000000
,
01000000
00000000
00010000
00000000
,
00001000
00001000
00001000
00000000
,
00100000
00000000
01000000
10000000
,
01000000
00000000
10000000
00100000
,
10000000
00000000
00100000
01000000
,
00100000
00000000
00010000
00000000
,
00011000
00000000
00000000
00000000
;

//---------------dance-double - ----------------
#NOTES:
     dance-double:
     :
     Medium:
     5:
     :
00000000
00000000
00000000
00000000
,
00000000
00000000
00000000
00000000
,
00000000
00000000
00000000
00000000
,
00000000
00000000
00000000
00000000
,
00000000
00000000
00000000
00000000
,
01000000
00100000
00010000
00100000
,
00001000
01000000
00100000
10000000
,
00010000
00100000
00001000
00010000
,
00000010
00001000
00000100
00000000
,
00000010
00000001
00000010
00000100
,
00010000
00000000
00000010
00000000
00010000
00000000
00001000
00010000
,
00002000
00000000
00103000
01000000
,
20000000
00000000
30010000
01000000
,
00001000
01000000
00100000
10000000
,
00010000
01000000
00001000
00010000
,
00000100
00000010
00000001
00000100
,
00000010
00010000
00001000
00000000
,
00010000
00000010
00000100
00001000
,
00000100
00000000
00000001
00000000
00000010
00000000
00000100
00010000
,
00001000
00000000
01000000
00001000
00010000
00000000
00100000
10000000
,
02000000
00000000
00000000
03000000
,
10000000
00100000
01000000
00001000
,
00100000
00000000
01000000
01000000
10000000
00010000
00000000
00010000
,
10000000
00100000
01000000
00001000
,
00010000
00000000
00000010
00000100
00000010
00000000
00001000
00000000
,
00000100
00000010
00000001
00000100
,
00001000
00000000
00010000
00010000
00000010
00001000
00000000
00001000
,
00000010
00010000
00001000
00100000
,
01000000
00000000
10000000
00100000
10000000
00100000
10000000
00100000
,
00000000
00000000
00000000
01000000
00100000
10000000
01000000
00100000
,
00000000
00000000
00000000
00001000
00010000
00000010
00001000
00000100
,
00000010
00000000
00000000
00000100
00001000
00000001
00000000
00000010
,
00000000
00000000
00000000
00000000
,
00000110
00000000
00000000
00000000
,
00000100
00000000
00001000
00000000
,
00000010
00000000
00010000
00001000
,
00010000
00000000
00001000
01000000
,
00200000
00000000
00300000
00000000
,
10000000
00000000
01000000
00000000
,
00100000
00001000
00100000
00010000
,
01000000
00010000
00100000
01000000
,
10010000
00000000
00000000
00000000
,
00011000
00000000
00000000
00000000
,
00000010
00001000
00000001
00000010
,
00000100
00000000
00010000
00010000
00001000
01000000
00000000
01000000
,
00001000
00100000
01000000
10000000
,
00100000
00000000
00010000
00001000
00010000
00000000
00000010
00000000
,
00001000
00000100
00000010
00000001
,
00001000
00000000
00000010
00000010
00001000
00000001
00000000
00000001
,
00001000
00000100
00010000
00001000
,
01000000
00000000
00100000
10000000
00100000
10000000
00100000
10000000
,
00000000
00000000
00000000
01000000
00100000
00001000
01000000
00010000
,
00000000
00000000
00000000
01000000
00100000
10000000
01000000
00100000
,
00001000
00000000
00000000
00010000
00000010
00010000
00000000
00001000
,
00000000
00000000
00000000
00000000
,
00011000
00000000
00000000
00000000
;

//---------------dance-double - ----------------
#NOTES:
     dance-double:
     :
     Hard:
     8:
     :
00000000
00000000
00000000
00000000
,
00000000
00000000
00000000
00000000
,
00000000
00000000
00000000
00000000
,
00000000
00000000
00000000
00000000
,
00000000
00000000
00000000
00000000
,
00001000
00000001
00000100
00000000
00000001
00000010
00000100
00000000
,
00010000
00001000
01000000
00000000
00100000
00000000
10000000
00000000
,
01000000
10000000
00100000
00010000
00001000
00100000
01000000
00000000
,
00100000
00001000
00010000
00000010
00001000
00000100
00000010
00000000
,
00000001
00000000
00001000
00000000
00000001
00000010
00000100
00000000
,
00010000
00001000
00100000
00010000
01000000
00100000
10000000
01000000
,
00010000
00001000
01000000
00100000
,
10000000
01000000
00100000
00002000
00000000
00000000
00003000
00000000
,
00010000
00001000
01000000
00000000
00100000
01000000
00001000
00000000
,
00010000
00000100
00000010
00000000
00000001
00000000
00000100
00000000
,
00001000
00000100
00000001
00001000
00000010
00000001
00000010
00000000
,
00010000
00000100
00001000
00000100
00000010
00000001
00000100
00000000
,
00001000
00000000
00010000
00100000
10000000
01000000
00100000
00001000
,
01000000
00000000
00100000
00010000
00100000
10000000
01000000
00010000
,
00001000
01000000
00001000
00010000
00000100
00010000
00000010
00000100
,
00000202
00000000
00000000
00000303
,
00000010
00010000
00001000
00010000
00000100
00000010
00001000
00000010
,
00000001
00000100
00000010
00010000
00000100
00001000
00000000
00000001
,
00000010
00001000
00010000
00001000
00000000
00100000
01000000
00100000
,
00000000
00001000
01000000
00100000
10000000
01000000
00010000
00000000
,
00001000
00100000
00010000
01000000
10000000
01000000
00010000
00100000
,
01000000
10000000
00100000
00010000
00001000
00100000
00000000
00001000
,
00010000
00000010
00000100
00000010
00000000
00001000
00000001
00001000
,
00000000
00000100
00010000
00000010
00001000
00000100
00000010
00000001
,
00001000
00000000
00000001
00000000
00000100
00001000
00010000
01000000
,
10000000
00000000
00010000
00000000
10000000
00100000
00010000
00001000
,
00000010
00000000
00000001
00000000
00000100
00001000
00010000
00001000
,
00200000
00010000
10000000
00310000
,
01010000
00000000
00000000
00000000
,
10000000
00000000
00000000
00100000
10000000
00100000
01000000
00001000
,
00000000
00100000
00010000
01000000
00000000
00100000
10000000
01000000
,
00000000
00100000
00001000
00010000
00000000
00000010
00001000
00000100
,
00000001
00000100
00010000
00001000
,
01000000
00000000
00000000
00100000
00010000
00001000
00000000
00010000
,
00000000
00000010
00000000
00001000
00000100
00000010
00000001
00000100
,
00001000
00000100
00000010
00010000
00001000
00000010
00001000
00010000
,
00100000
10000000
01000000
00010000
,
00011000
00000000
00000000
00000000
,
00001000
00010000
00000100
00001000
00000010
00000001
00000010
00001000
,
00000100
00000010
00001000
00010000
00001000
00100000
00000000
00010000
,
01000000
00001000
00010000
00001000
00000000
01000000
00100000
01000000
,
00000000
00010000
00100000
10000000
00100000
00010000
01000000
00000000
,
00100000
10000000
00010000
00100000
00001000
00010000
00000010
00001000
,
00000001
00000010
00000100
00010000
00000010
00001000
00000000
00000001
,
00000010
00000100
00010000
00000100
00000000
00010000
00001000
00010000
,
00000000
00001000
01000000
00100000
10000000
01000000
00010000
01000000
,
00100000
00000000
00010000
00000000
10000000
01000000
00010000
00001000
,
00000100
00000000
00000001
00000000
00000010
00001000
00010000
00100000
,
10000000
00000000
00010000
00000000
00100000
00001000
00010000
00001000
,
00000020
00000001
00001000
00000031
,
00000000
00000100
00000001
00000010
00001000
00010000
00100000
10000000
,
00010000
00000000
00000000
00000000
;
