#TITLE:進行式;
#ARTIST:蕭亞軒 & 胡彦斌;
#TITLETRANSLIT:Jin Xing Shi;
#ARTISTTRANSLIT:Elva Hsiao & Anson Hu;
#BANNER:Jin Xing Shi.png;
#BACKGROUND:Jin Xing Shi-bg.png;
#CDTITLE:./CDTITLES/DanceDanceRevolution UNIVERSE3 Chinese Special Edition.png;
#MUSIC:Jin Xing Shi.ogg;
#SAMPLESTART:76.667;
#SAMPLELENGTH:15;
#BPMS:0=90;

//---------------dance-single - ----------------
#NOTES:
     dance-single:
     :
     Beginner:
     2:
     :
0000
0000
0000
0000
,
0000
0000
0000
0000
,
0000
0000
0000
0000
,
0000
0000
0000
0000
,
0000
0000
0000
1000
,
0001
0000
0000
0001
,
0010
0000
0000
0010
,
0100
0000
0000
0100
,
1000
0000
0000
1000
,
0001
0000
0000
0001
,
0100
0000
0000
0100
,
0010
0000
0000
0010
,
1000
0000
0000
1000
,
0001
1000
0000
1000
,
0010
0100
0000
0100
,
0010
0100
0000
0001
,
1000
0001
1000
0000
,
0100
0000
0010
0000
,
0100
0100
1000
0000
,
0001
0000
0100
0000
,
0010
0010
1000
0000
,
0100
0000
0100
0010
,
0001
0000
0001
1000
,
0001
0000
0100
0010
,
0100
0000
0010
1000
,
0001
0000
1000
0100
,
1000
0000
0100
0010
,
0001
0000
0010
0100
,
0010
0000
0100
1000
,
0001
0000
0100
0000
,
0010
1000
0001
0000
,
1000
0000
0100
0000
,
0010
0100
0010
0000
,
0001
0000
1000
0000
,
0001
1000
0001
0000
,
0100
0000
0010
0000
,
1000
0001
1000
0000
,
1001
0000
0000
1000
,
0010
0000
0100
0000
,
0110
0000
0000
0001
,
1000
0000
0100
0010
,
0110
0000
0000
0100
,
1000
0000
0001
1000
,
1001
0000
1000
0000
,
0010
0100
0001
1001
;

//---------------dance-single - ----------------
#NOTES:
     dance-single:
     :
     Easy:
     3:
     :
0000
0000
0000
0000
,
0000
0000
0000
0000
,
0000
0000
0000
0000
,
0000
0000
0000
0000
,
0000
0000
0000
0010
,
0100
0100
0000
1000
,
0001
0001
0000
0100
,
0010
0010
0000
1000
,
0001
0001
0000
0010
,
0001
0100
0000
0010
,
1000
1000
0000
0100
,
0010
0010
0000
0100
,
1000
1000
1000
1000
,
0100
1000
0000
0010
,
1000
0001
0000
0100
,
0010
1000
0000
0100
,
0010
0001
0000
1000
,
0001
0100
0000
1000
,
0100
0001
0000
1000
,
0100
0001
0000
0100
,
1000
0010
0000
0100
,
0001
0001
0010
0100
,
1000
1000
0010
0000
,
0100
0100
0001
0010
,
0100
0100
1000
0000
,
0001
0100
0001
1000
,
0001
0010
0100
0000
,
1000
0100
1000
0010
,
1000
0001
0010
0000
,
0100
0000
1000
0000
,
0001
0000
0100
0010
,
1000
0000
1001
0000
,
0001
0000
1001
0000
,
1000
0100
0010
0000
,
0001
0010
0100
0000
,
1000
0000
0110
0000
,
0001
0000
0110
0000
,
0001
0100
1000
0000
,
1000
0100
0001
0000
,
0010
0100
1000
0001
,
0100
0010
1000
0001
,
0010
0100
1000
0000
,
0100
0010
0001
0000
,
1000
0010
0100
0001
,
0100
1000
0100
1001
;

//---------------dance-single - ----------------
#NOTES:
     dance-single:
     :
     Medium:
     5:
     :
0000
0000
0000
0000
,
0000
0000
0000
0000
,
0000
0000
0000
0000
,
0000
0000
0000
0000
,
0000
0000
0000
0001
,
1000
0010
0100
0000
0000
0001
0010
0000
,
0100
1000
0001
0000
0000
0100
0010
1000
,
0001
0010
0100
0000
0000
0010
0001
0000
,
0010
0100
1000
0000
0000
0100
0010
0001
,
0100
0010
1000
0000
0000
0010
0100
0000
,
0001
1000
0100
0000
0000
0010
0100
1000
,
0001
0100
0010
0000
0000
0100
0001
1000
,
0100
0000
0000
0000
0100
0000
0000
0000
0010
0000
0010
0000
0000
0001
0000
0000
,
1000
1000
0100
0000
0000
0010
0001
0000
,
0100
0010
1000
0000
0000
0001
0100
0010
,
1000
0100
0010
0000
0000
0001
0010
0000
,
0100
1000
0001
0000
0000
0100
0010
1000
,
0001
0010
0100
0000
0000
0010
0001
0100
,
0001
0001
1000
0000
0000
0100
0010
0000
,
0100
1000
0010
0000
0000
0100
0001
0000
,
1000
0000
0001
0000
1000
0100
0010
0001
,
1000
0000
0010
0000
0100
0001
1000
0001
,
0010
0000
0100
0000
1000
0001
0100
0010
,
1000
0000
0100
0000
0010
0100
1000
0001
,
0100
0000
0001
0000
0001
0010
0100
1000
,
0001
0000
0101
0000
0010
1000
0100
0010
,
0001
0000
0110
0000
0100
1000
0001
0100
,
0010
0000
1001
0000
0001
0010
0100
1000
,
0010
0000
0110
0000
0100
0010
1000
0001
,
0010
0100
1000
0100
0000
0010
0000
0001
,
0100
0010
1000
0001
0000
0010
0100
0000
,
1000
0100
0010
0001
0000
0010
0100
1000
,
0000
0001
0100
0010
0000
0100
0001
1000
,
0010
0100
0001
0010
0000
0100
1000
0100
,
0010
0001
0010
0001
0000
0100
0010
1000
,
0001
0100
0010
1000
0000
0100
0010
0100
,
1000
0001
0100
0010
0000
0100
0001
1000
,
0100
0010
0100
1000
0000
0100
0010
0001
,
0100
0010
1000
0001
0000
0100
0001
1000
,
0100
0010
0100
1000
0000
0001
1000
0010
,
0000
0100
0001
0010
0000
0100
0010
0001
,
0100
0010
1000
0001
0000
0010
0001
0100
,
0010
1000
0100
0010
0000
0001
1000
0100
,
0010
0001
0010
0100
0000
1000
0100
0010
,
0001
0010
0100
1000
0000
0001
0100
0000
;

//---------------dance-single - ----------------
#NOTES:
     dance-single:
     :
     Hard:
     8:
     :
0000
0000
0000
0000
,
0000
0000
0000
0000
,
0000
0000
0000
0000
,
0000
0000
0000
0000
,
0000
0000
0000
0010
,
0100
0000
0000
0000
0100
0000
0000
0000
1000
0000
0000
0000
0000
0000
0000
0000
0000
0000
0000
0000
0100
0000
0000
0000
0010
0000
0000
0001
1000
0000
0000
0000
,
0010
0000
0000
0000
0000
0000
0000
0000
0000
0000
0000
0000
0000
0000
0000
0000
0100
0000
0000
0000
0000
0000
0000
0000
0000
0000
0000
0000
0000
0000
0000
0000
0000
0000
0000
0000
0000
0000
0000
0000
0001
0000
0000
0000
0000
0000
0000
0000
1000
0000
0000
0000
0000
0010
0000
0000
0000
0000
0000
0000
0000
0000
0100
0000
,
0001
0001
1000
0000
0000
0100
0010
0001
,
0001
0000
0000
0000
0000
0000
0000
0000
0000
0000
0000
0000
0000
0000
0100
0000
0010
0000
0000
0000
0000
0000
0000
0000
0000
0000
0000
0000
0000
0000
0000
0000
0000
0000
0000
0000
0000
1000
0000
0000
0000
0000
0000
0000
0000
0000
1000
0000
0001
0000
0000
0000
0000
0000
0000
0000
0010
0000
0000
0000
0000
0000
0000
0000
,
0100
0000
0000
0000
0100
0000
0000
0000
1000
0000
0000
0000
0000
0000
0000
0000
0000
0000
0000
0000
1000
0000
0000
0000
0001
0000
0000
0100
0010
0000
0000
0000
,
1000
1000
0100
0000
0000
0010
0001
1000
,
0010
0000
0000
0000
0000
0000
0000
0100
0001
0000
0000
0000
0000
0000
0000
0000
0000
0000
0000
0000
0010
0000
0000
0000
0100
0000
0000
0000
0010
0000
0000
0000
,
0010
0000
0000
0000
0000
0000
0000
0000
0000
0000
0000
0000
0000
0000
0000
0000
0010
0000
0000
0000
0000
0000
0000
0000
0000
0000
0000
0000
0000
0000
0000
0000
0010
0000
0000
0000
0000
0000
0000
0000
0010
0000
0000
0000
0000
0000
0000
0000
0000
0000
0000
0000
0000
0001
0000
0000
0000
0000
0000
0000
0000
0000
0000
0000
,
1000
0000
0000
0000
1000
0000
0000
0000
0010
0000
0000
0000
0000
0000
0000
0000
0000
0000
0000
0000
0100
0000
0000
0000
0001
0000
0000
0010
0100
0000
0000
0000
,
0010
0010
0001
0000
0000
1000
0010
0100
,
0100
0000
0000
0000
0000
0000
0000
0001
0010
0000
0000
0000
0000
0000
0000
0000
0000
0000
0000
0000
0100
0000
0000
0000
1000
0000
0000
0000
0001
0000
0000
0000
,
0001
0000
0000
0000
0000
0000
0000
0000
0000
0000
0000
0000
0000
0000
0100
0000
0010
0000
0000
0000
0000
0000
0000
0000
1000
0000
0000
0000
0000
0000
0000
0000
0000
0000
0000
0000
0000
0100
0000
0000
0000
0000
0000
0000
0000
0000
0100
0000
0010
0000
0000
0000
0000
0000
0000
0000
0001
0000
0000
0000
0000
0000
0000
0000
,
0100
0000
0000
0000
0100
0000
0000
0000
0010
0000
0000
0000
0000
0000
0000
0000
0000
0000
0000
0000
1000
0000
0000
0000
0010
0000
0000
1000
0001
0000
0000
0000
,
0010
0010
0100
0000
0000
1000
0001
0100
,
0100
0000
0000
0000
0000
0000
0000
0100
0001
0000
0000
0000
0000
0000
0000
0000
0000
0000
0000
0000
0010
0000
0000
0000
0100
0000
0000
0000
1000
0000
0000
0000
,
0001
0000
0000
0000
0000
0000
0000
0000
0001
0000
0000
0000
0000
0000
0000
0000
0100
0000
0000
0000
0000
0000
0000
0000
0010
0000
0000
0000
0000
0000
0000
0000
0010
0000
0000
0000
0000
0000
0000
0000
0010
0000
0000
0000
0000
0000
0000
0000
2000
0000
0000
0000
0000
3001
0000
0000
0000
0000
0000
0000
0000
0000
0000
0000
,
0020
0030
0001
0020
0130
0000
0020
0030
0001
0000
0200
0300
0020
0030
2000
3000
,
0002
0003
0010
0002
0103
0000
0002
0003
0100
0000
0020
0030
2000
3000
0002
0003
,
0020
0030
0100
0020
1030
0000
0020
0030
0001
0000
2000
3000
0020
0030
0200
0300
,
0002
0003
0100
0002
1003
0000
0002
0003
0010
0000
0200
0300
2000
3000
0020
0030
,
2000
3000
0001
2000
3100
0000
0020
0030
1000
0000
0020
0030
0002
0003
2000
3000
,
0020
0030
0001
0020
1030
0000
0020
0030
0100
0000
0002
0003
0020
0030
2000
3000
,
0002
0003
0100
0002
1003
0000
0002
0003
0100
0000
2000
3000
0002
0003
0200
0300
,
0020
0030
1000
0020
0130
0000
0020
0030
1000
0000
0200
0300
0020
0030
0002
0003
,
2001
0000
0000
3001
0100
0000
0120
0000
0000
1030
0001
0000
0011
0000
0000
0000
,
0210
0000
0000
1300
0001
0000
0201
0000
0000
0310
1000
0000
1001
0000
0200
0000
,
0320
2030
3200
0302
0000
0103
0100
2000
,
0000
3010
0001
0020
0000
0030
0100
0001
,
0021
0000
0000
0130
1000
0000
1020
0000
0000
0130
0001
0000
1001
0000
0000
0000
,
0102
0000
0000
1003
0010
0000
2010
0000
0000
3100
0010
0000
0011
0000
0002
0000
,
2003
0000
3200
0000
0302
0000
0203
0000
0000
0000
0310
0000
0010
0000
0001
1000
,
0010
0010
0200
0302
0000
0003
1000
0010
,
0102
0000
1003
0100
0010
0000
0210
0000
0000
1300
0001
0000
0101
0000
0000
0000
,
1020
0000
0130
0001
1000
0000
1200
0000
0000
1300
0001
0000
1001
0000
0002
0000
,
0203
2300
3020
0032
0000
0013
0010
2000
,
0000
3010
0001
0200
0000
0300
0010
1000
,
1200
0000
0310
0001
1000
0000
0201
0000
0000
0310
1000
0000
1001
0000
0000
0000
,
2010
0000
3001
0010
0100
0000
2100
0000
0000
3100
0010
0000
0011
0000
0002
0000
,
0023
0000
2030
0000
3200
0000
0320
0000
0000
0000
0031
0000
0001
0000
0010
1000
,
0100
0100
0020
0032
0000
0013
1001
0000
;

//---------------dance-double - ----------------
#NOTES:
     dance-double:
     :
     Beginner:
     2:
     :
00000000
00000000
00000000
00000000
,
00000000
00000000
00000000
00000000
,
00000000
00000000
00000000
00000000
,
00000000
00000000
00000000
00000000
,
00000000
00000000
00000000
10000000
,
01000000
00000000
00000000
00100000
,
00001000
00000000
00000000
00010000
,
00000100
00000000
00000000
00001000
,
00000010
00000000
00000000
00000100
,
00000001
00000000
00000000
00001000
,
00000100
00000000
00000000
00010000
,
00001000
00000000
00000000
00100000
,
00010000
00000000
00000000
01000000
,
00100000
00000000
10000000
00010000
,
10000000
00000000
01000000
00100000
,
01000000
00000000
00100000
00001000
,
00100000
00000000
00001000
00010000
,
00001000
00000000
00010000
00000100
,
00010000
00000000
00000100
00001000
,
00000100
00000000
00001000
00000001
,
00001000
00000000
00000010
00000100
,
00000001
00000000
00000001
00000000
,
00000010
00000000
00000010
00000000
,
00000100
00000000
00000100
00000000
,
00010000
00000000
00010000
00000000
,
00001000
00000000
00001000
00000000
,
00100000
00000000
00100000
00000000
,
00010000
00000000
00010000
00000000
,
01000000
00000000
01000000
00000000
,
00100000
10000000
00010000
00000000
,
00100000
00000000
00001000
00000000
,
00010000
00001000
00010000
00000000
,
00001000
00000000
00000100
00000000
,
00000010
00001000
00000001
00000000
,
00000010
00000000
00000100
00000000
,
00010000
00001000
00010000
00000000
,
00001000
00000000
00100000
00000000
,
01100000
00000000
01000000
10000000
,
00010000
00000000
01000000
00000000
,
01100000
00000000
00100000
01000000
,
00001000
00000000
00010000
00000000
,
00011000
00000000
00010000
00000100
,
00001000
00000000
00000010
00000000
,
00001001
00000000
00001000
00000100
,
00010000
00000000
00000000
00011000
;

//---------------dance-double - ----------------
#NOTES:
     dance-double:
     :
     Easy:
     3:
     :
00000000
00000000
00000000
00000000
,
00000000
00000000
00000000
00000000
,
00000000
00000000
00000000
00000000
,
00000000
00000000
00000000
00000000
,
00000000
00000000
00000000
00000001
,
00000010
00000010
00000000
00000100
,
00010000
00001000
00000000
01000000
,
00010000
01000000
00000000
00100000
,
10000000
00010000
00000000
00100000
,
00001000
00010000
00000000
00001000
,
00010000
00001000
00000000
00010000
,
00000010
00001000
00000000
00001000
,
00010000
00010000
00010000
00010000
,
00000100
00000100
00000000
00001000
,
00000001
00000100
00000000
00000010
,
00010000
00001000
00000000
00100000
,
00010000
01000000
00000000
00100000
,
10000000
00010000
00000000
00100000
,
00001000
00010000
00000000
00001000
,
00000100
00000010
00000000
00001000
,
00000001
00001000
00000000
00000100
,
00010000
00010000
00001000
00100000
,
01000000
01000000
10000000
00000000
,
00100000
00100000
01000000
00001000
,
00010000
00010000
00000100
00000000
,
00001000
00000100
00000010
00000000
,
00000100
00001000
00000001
00000000
,
00000100
00000010
00010000
00000000
,
00001000
00100000
00010000
00000000
,
10010000
00000000
10000000
00000000
,
01000000
00100000
01000000
00000000
,
01100000
00000000
00100000
00000000
,
00001000
00010000
00001000
00000000
,
00011000
00000000
00010000
00000000
,
00000100
00001000
00000010
00000000
,
00000110
00000000
00000100
00000000
,
00000001
00001000
00000100
00000000
,
00000110
00000000
00000100
00010000
,
00001000
00000000
00011000
00000000
,
00100000
00010000
01000000
00000000
,
00100000
10000000
00010000
00000000
,
10010000
00000000
10000000
00100000
,
01000000
00000000
01100000
00000000
,
00100000
01000000
00001000
00000000
,
00010000
00000000
00001000
00011000
;

//---------------dance-double - ----------------
#NOTES:
     dance-double:
     :
     Medium:
     5:
     :
00000000
00000000
00000000
00000000
,
00000000
00000000
00000000
00000000
,
00000000
00000000
00000000
00000000
,
00000000
00000000
00000000
00000000
,
00000000
00000000
00000000
00100000
,
10000000
00010000
10000000
00000000
00000000
01000000
00100000
00000000
,
00001000
00010000
00001000
00000000
00000000
00010000
00000100
00000010
,
00000001
00001000
00000010
00000000
00000000
00000100
00001000
00000000
,
00010000
00100000
10000000
00000000
00000000
00010000
01000000
00001000
,
00010000
00001000
00010000
00000000
00000000
00000100
00001000
00000000
,
00000010
00000100
00000001
00000000
00000000
00000010
00000100
00010000
,
00001000
01000000
00010000
00000000
00000000
00100000
01000000
10000000
,
01000000
00000000
00000000
00000000
01000000
00000000
00000000
00000000
00100000
00000000
00100000
00000000
00000000
00001000
00000000
00000000
,
00010000
00010000
00001000
00000000
00000000
00010000
00000010
00000000
,
00001000
00000001
00001000
00000000
00000000
00000010
00000100
00010000
,
00001000
00100000
00010000
00000000
00000000
01000000
00100000
00000000
,
00010000
00100000
10000000
00000000
00000000
10000000
01000000
00100000
,
00001000
00010000
00001000
00000000
00000000
00001000
00000100
00000001
,
00001000
00000100
00010000
00000000
00000000
00001000
00100000
00000000
,
00010000
10000000
00100000
00000000
00000000
00100000
00010000
00000000
,
00001000
00000000
00010000
00000000
00000100
00001000
00000100
00001000
,
00000001
00000000
00000100
00000000
00000010
00010000
00001000
00010000
,
00000100
00000000
00010000
00000000
00001000
00100000
00010000
00100000
,
00001000
00000000
01000000
00000000
00100000
01000000
10000000
01000000
,
00100000
00000000
10000000
00000000
00010000
00100000
01000000
00100000
,
00001000
00000000
00011000
00000000
00010000
00000010
00001000
00000001
,
00001000
00000000
00001001
00000000
00000001
00000010
00000100
00010000
,
00001000
00000000
00011000
00000000
00001000
00100000
00010000
01000000
,
00100000
00000000
01100000
00000000
01000000
00010000
10000000
00010000
,
00100000
01000000
00010000
00001000
00000000
00000100
00000000
00000010
,
00001000
00000001
00001000
00000100
00000000
00010000
00001000
00000000
,
00100000
00010000
01000000
00100000
00000000
10000000
00100000
10000000
,
00000000
00010000
01000000
00001000
00000000
00010000
00000100
00000010
,
00000100
00010000
00000100
00001000
00000000
00000010
00001000
00000001
,
00000100
00001000
00010000
00100000
00000000
10000000
00010000
10000000
,
00100000
01000000
00001000
00010000
00000000
00001000
00000100
00000001
,
00001000
00000100
00000010
00001000
00000000
00010000
00001000
01000000
,
00100000
10000000
00010000
00100000
00000000
01000000
00010000
00001000
,
00000100
00000010
00001000
00000001
00000000
00000010
00000100
00010000
,
00001000
00100000
01000000
10000000
00000000
00010000
10000000
00100000
,
00000000
01000000
00100000
00010000
00000000
00001000
00000100
00001000
,
00000100
00000001
00001000
00000100
00000000
00010000
00001000
00100000
,
01000000
10000000
01000000
00100000
00000000
00001000
00010000
00001000
,
00000100
00000001
00001000
00000100
00000000
00010000
00001000
00100000
,
01000000
10000000
00010000
10000000
00000000
00010000
10010000
00000000
;

//---------------dance-double - ----------------
#NOTES:
     dance-double:
     :
     Hard:
     8:
     :
00000000
00000000
00000000
00000000
,
00000000
00000000
00000000
00000000
,
00000000
00000000
00000000
00000000
,
00000000
00000000
00000000
00000000
,
00000000
00000000
00000000
00100000
,
10000000
00000000
00000000
00000000
10000000
00000000
00000000
00000000
01000000
00000000
00000000
00000000
00000000
00000000
00000000
00000000
00000000
00000000
00000000
00000000
00100000
00000000
00000000
00000000
00001000
00000000
00000000
00010000
00001000
00000000
00000000
00000000
,
00010000
00000000
00000000
00000000
00000000
00000000
00000000
00000000
00000000
00000000
00000000
00000000
00000000
00000000
00000000
00000000
00000100
00000000
00000000
00000000
00000000
00000000
00000000
00000000
00000000
00000000
00000000
00000000
00000000
00000000
00000000
00000000
00000000
00000000
00000000
00000000
00000000
00000000
00000000
00000000
00000010
00000000
00000000
00000000
00000000
00000000
00000000
00000000
00000001
00000000
00000000
00000000
00000000
00000100
00000000
00000000
00000000
00000000
00000000
00000000
00000000
00000000
00000010
00000000
,
00010000
00010000
00001000
00000000
00000000
00100000
10000000
00100000
,
01000000
00000000
00000000
00000000
00000000
00000000
00000000
00000000
00000000
00000000
00000000
00000000
00000000
00000000
01000000
00000000
10000000
00000000
00000000
00000000
00000000
00000000
00000000
00000000
00000000
00000000
00000000
00000000
00000000
00000000
00000000
00000000
00000000
00000000
00000000
00000000
00000000
00100000
00000000
00000000
00000000
00000000
00000000
00000000
00000000
00000000
01000000
00000000
00010000
00000000
00000000
00000000
00000000
00000000
00000000
00000000
00100000
00000000
00000000
00000000
00000000
00000000
00000000
00000000
,
00001000
00000000
00000000
00000000
00001000
00000000
00000000
00000000
00010000
00000000
00000000
00000000
00000000
00000000
00000000
00000000
00000000
00000000
00000000
00000000
00001000
00000000
00000000
00000000
00000100
00000000
00000000
00000010
00000100
00000000
00000000
00000000
,
00000001
00000001
00000100
00000000
00000000
00000100
00001000
00010000
,
00100000
00000000
00000000
00000000
00000000
00000000
00000000
01000000
00010000
00000000
00000000
00000000
00000000
00000000
00000000
00000000
00000000
00000000
00000000
00000000
10000000
00000000
00000000
00000000
00010000
00000000
00000000
00000000
00100000
00000000
00000000
00000000
,
00100000
00000000
00000000
00000000
00000000
00000000
00000000
00000000
00000000
00000000
00000000
00000000
00000000
00000000
00000000
00000000
00100000
00000000
00000000
00000000
00000000
00000000
00000000
00000000
00000000
00000000
00000000
00000000
00000000
00000000
00000000
00000000
00100000
00000000
00000000
00000000
00000000
00000000
00000000
00000000
00100000
00000000
00000000
00000000
00000000
00000000
00000000
00000000
00000000
00000000
00000000
00000000
00000000
01000000
00000000
00000000
00000000
00000000
00000000
00000000
00000000
00000000
00000000
00000000
,
10000000
00000000
00000000
00000000
10000000
00000000
00000000
00000000
01000000
00000000
00000000
00000000
00000000
00000000
00000000
00000000
00000000
00000000
00000000
00000000
00010000
00000000
00000000
00000000
00001000
00000000
00000000
00000100
00000001
00000000
00000000
00000000
,
00001000
00001000
00000100
00000000
00000000
00010000
00001000
00100000
,
00010000
00000000
00000000
00000000
00000000
00000000
00000000
00100000
01000000
00000000
00000000
00000000
00000000
00000000
00000000
00000000
00000000
00000000
00000000
00000000
00010000
00000000
00000000
00000000
01000000
00000000
00000000
00000000
10000000
00000000
00000000
00000000
,
10000000
00000000
00000000
00000000
00000000
00000000
00000000
00000000
00000000
00000000
00000000
00000000
00000000
00000000
00100000
00000000
01000000
00000000
00000000
00000000
00000000
00000000
00000000
00000000
00010000
00000000
00000000
00000000
00000000
00000000
00000000
00000000
00000000
00000000
00000000
00000000
00000000
00100000
00000000
00000000
00000000
00000000
00000000
00000000
00000000
00000000
00100000
00000000
01000000
00000000
00000000
00000000
00000000
00000000
00000000
00000000
00010000
00000000
00000000
00000000
00000000
00000000
00000000
00000000
,
00001000
00000000
00000000
00000000
00001000
00000000
00000000
00000000
00000010
00000000
00000000
00000000
00000000
00000000
00000000
00000000
00000000
00000000
00000000
00000000
00000001
00000000
00000000
00000000
00001000
00000000
00000000
00000100
00010000
00000000
00000000
00000000
,
00001000
00001000
00100000
00000000
00000000
00010000
01000000
00100000
,
10000000
00000000
00000000
00000000
00000000
00000000
00000000
00010000
00100000
00000000
00000000
00000000
00000000
00000000
00000000
00000000
00000000
00000000
00000000
00000000
01000000
00000000
00000000
00000000
10000000
00000000
00000000
00000000
01000000
00000000
00000000
00000000
,
00010000
00000000
00000000
00000000
00000000
00000000
00000000
00000000
00010000
00000000
00000000
00000000
00000000
00000000
00000000
00000000
00001000
00000000
00000000
00000000
00000000
00000000
00000000
00000000
00000100
00000000
00000000
00000000
00000000
00000000
00000000
00000000
00000100
00000000
00000000
00000000
00000000
00000000
00000000
00000000
00000100
00000000
00000000
00000000
00000000
00000000
00000000
00000000
00000020
00000000
00000000
00000000
00000000
00001030
00000000
00000000
00000000
00000000
00000000
00000000
00000000
00000000
00000000
00000000
,
00000001
00000000
00000010
00000000
00000001
00000000
00000100
00001000
00000000
00010000
00000000
00001000
00100000
00000000
00010000
00000000
,
10000000
00000000
00100000
00000000
00100000
00000000
01000000
00100000
00000000
00100000
00000000
00010000
00001000
00010000
00000000
00000100
,
00000000
00000000
00000010
00000000
00000010
00000000
00000001
00001000
00000000
00000010
00000000
00000100
00001000
00000000
00010000
00000000
,
00100000
00000000
10000000
00000000
00010000
00000000
00100000
01000000
00000000
00010000
00000000
00001000
00000100
00000000
00000010
00001000
,
00000000
00000000
00000001
00000000
00000001
00000000
00000010
00000100
00000000
00000010
00000000
00000001
00000100
00000000
00001000
00000000
,
00010000
00000000
00100000
00000000
00100000
00000000
00000000
10000000
00000000
00000000
00100000
00000000
00010000
00000000
00001000
00100000
,
00000000
00000000
00001000
00000000
00001000
00000000
00010000
00000100
00000000
00000000
00000010
00000000
00000010
00000001
00000000
00000000
,
00000002
00000000
00000200
00000000
00000000
00000303
00000100
00000010
,
00001010
00000010
00010000
00010020
00000000
00001030
00000100
00010000
,
00011000
00001000
00100000
00120000
00000000
00000000
10030000
02000000
,
03200000
00302000
00023000
00030020
00000000
00001030
00001000
00000200
,
00000000
00000310
00000001
00000200
00000000
00000300
00000010
00010000
,
00011000
00001000
00100000
01200000
00000000
00310000
10000000
00100000
,
01100000
01000000
00010000
00210000
00000000
00301000
00010000
00000200
,
00000320
00000000
00002030
00000000
00003020
00000000
00000032
00000000
00000000
00000000
00000103
00000000
00000100
00000000
00000010
00010000
,
00001000
00100000
02000000
23000000
00000000
30000000
00100000
01000000
,
01010000
00000000
00010000
00100000
00001000
00000000
00021000
00000000
00000000
00000000
00030100
00000000
00001000
00000000
00000010
00000000
,
00001010
00000000
00001000
00000001
00000100
00000000
00000102
00000000
00000000
00000000
00000013
00000000
00001000
00000000
00020000
00000000
,
02030000
23000000
30200000
00320000
00000000
00031000
00001000
00200000
,
00000000
00301000
00000100
00000020
00000000
00000030
00001000
00000001
,
00000011
00000000
00000010
00000100
00010000
00000000
00020100
00000000
00000000
00000000
00031000
00000000
00010000
00000000
01000000
00000000
,
01100000
00000000
00100000
00010000
10000000
00000000
20010000
00000000
00000000
00000000
30100000
00000000
00010000
00000000
00002000
00000000
,
00003020
00000000
00000032
00000000
00000203
00000000
00002300
00000000
00000000
00000000
00013000
00000000
00010000
00000000
00100000
10000000
,
00010000
00100000
02000000
03020000
00000000
00031000
00011000
00000000
;
