#TITLE:皇帝;
#ARTIST:胡彦斌;
#TITLETRANSLIT:Huang Di;
#ARTISTTRANSLIT:Anson Hu;
#BANNER:Huang Di.png;
#BACKGROUND:Huang Di-bg.png;
#CDTITLE:./CDTITLES/DanceDanceRevolution UNIVERSE3 Chinese Special Edition.png;
#MUSIC:Huang Di.ogg;
#SAMPLESTART:64.444;
#SAMPLELENGTH:15;
#BPMS:0=108;

//---------------dance-single - ----------------
#NOTES:
     dance-single:
     :
     Beginner:
     1:
     :
0000
0000
0000
0000
,
0000
0000
0000
0000
,
0000
0000
0000
0000
,
0000
0000
0000
0000
,
0000
0000
0000
0000
,
1000
0000
0000
0000
,
0001
0000
0000
0000
,
1000
0000
0000
0000
,
0002
0000
0000
0003
,
0001
0000
0000
0000
,
0100
0000
0000
0000
,
0010
0000
0000
0000
,
2000
0000
0000
3000
,
1000
0000
0000
0000
,
0100
0000
0010
0000
,
0001
0000
0000
0000
,
0200
0000
0000
0300
,
0100
0000
0010
0000
,
0100
0000
0001
0000
,
1000
0000
0000
0000
,
0002
0000
0000
0003
,
0001
0000
0100
0000
,
0010
0000
0000
0000
,
1000
0000
0100
0000
,
0020
0000
0000
0030
,
0001
0000
0001
0000
,
1000
0000
1000
0000
,
0100
0000
0000
0000
,
0020
0000
0000
0030
,
0010
0000
0001
0000
,
1000
0100
0010
0000
,
0001
0000
1000
0000
,
0002
0000
0000
0003
,
0001
0000
0100
0000
,
0010
1000
0100
0000
,
1000
0000
0001
0000
,
2000
0000
0000
3000
,
1000
0000
0000
0000
,
0001
0000
0000
0000
,
0100
0000
0000
0000
,
0220
0000
0000
0330
,
0110
0000
0000
0000
;

//---------------dance-single - ----------------
#NOTES:
     dance-single:
     :
     Easy:
     3:
     :
0000
0000
0000
0000
,
0000
0000
0000
0000
,
0000
0000
0000
0000
,
0000
0000
0000
0000
,
0000
0000
0000
0000
,
1000
0000
0001
0000
,
1000
0000
0100
0000
,
0010
0000
0001
0000
,
1000
0001
1000
0001
,
0001
0000
1000
0000
,
0001
0000
0100
0000
,
0010
0000
1000
0000
,
0001
1000
0001
1000
,
1001
0000
0000
0000
,
1000
0100
0010
0001
,
1001
0000
0000
0000
,
0001
0100
0010
1000
,
0001
0001
0001
0000
,
1000
1000
1000
0000
,
0100
0000
0010
0010
,
0001
1000
0001
1000
,
0001
0000
1000
0000
,
0001
0100
1000
0000
,
0010
0000
0100
0000
,
0010
1000
0001
0010
,
0001
0000
1000
0100
,
1000
0000
0001
0100
,
0001
0000
0000
0000
,
1000
0100
0010
0001
,
1000
0001
1000
0000
,
0001
1000
0001
0000
,
1000
0100
0010
0001
,
0001
1000
0001
1000
,
0001
0100
0010
0000
,
1000
0100
0010
0000
,
0001
0100
0010
1000
,
1000
0001
1000
0001
,
1000
0000
1001
0000
,
0001
0000
1001
0000
,
1000
0000
1001
0000
,
0001
0100
0010
1000
,
0110
0000
0000
0000
;

//---------------dance-single - ----------------
#NOTES:
     dance-single:
     :
     Medium:
     6:
     :
0000
0000
0000
0000
,
0000
0000
0000
0000
,
0000
0000
0000
0000
,
0000
0000
0000
0000
,
0000
0000
0000
0000
,
1100
0000
0000
0001
0000
1000
0100
0010
,
0001
0000
0000
0102
0000
0100
0003
0000
,
0011
0000
0000
1000
0000
0001
0100
0010
,
1000
0001
1000
0001
,
1001
0000
0000
0100
0000
0010
1000
0001
,
0010
0000
0000
0120
0000
0100
0030
0000
,
1001
0000
0000
0010
0000
0001
0100
1000
,
0100
0010
0100
0010
,
1000
0100
0010
0100
0010
0001
0000
1000
,
0001
0100
0010
0100
0010
0000
1001
0000
,
1000
0100
0010
0001
0010
0001
0000
1000
,
0001
0100
0010
1000
,
0001
0100
1000
0100
0001
1000
0001
0000
,
1000
0100
0001
0100
1000
0001
1000
0000
,
0001
0001
0000
1000
1000
0100
0100
1000
,
0001
1000
1001
1001
,
1000
0010
1000
0010
0000
0100
0001
0100
,
0002
0000
0000
0003
,
1000
0100
1000
0100
0000
0010
0001
0010
,
0001
1000
0110
1001
,
1000
0010
0001
0010
2000
0000
3000
0000
,
0001
0010
1000
0010
0002
0000
0003
0000
,
1000
0100
0001
0000
0000
0000
0000
0000
,
0110
1001
0110
1001
,
1000
0000
0100
0000
0001
0000
0100
0000
0010
0000
0000
1001
0000
0000
1000
0000
,
0001
0000
0100
0000
1000
0000
0100
0000
0010
0000
0000
1001
0000
0000
0001
0000
,
1000
0100
0010
0001
1000
0100
0010
0001
,
1100
0101
1100
0101
,
0001
0000
1000
0000
0100
0000
1000
0000
0001
0000
0000
1100
0000
0000
0001
0000
,
1000
0000
0001
0000
0100
0000
0001
0000
1000
0000
0000
0101
0000
0000
1000
0000
,
0001
0010
0001
0100
0010
1000
0100
1000
,
1010
0011
1010
0011
,
1000
0000
0000
0101
0000
1000
0100
0001
,
0100
0000
0000
1002
0000
1000
0003
0000
,
0001
0000
0000
1010
0000
0001
0100
0010
,
1100
1010
0011
0101
,
1001
0000
0000
0000
;

//---------------dance-single - ----------------
#NOTES:
     dance-single:
     :
     Hard:
     8:
     :
0000
0000
0000
0000
,
0000
0000
0000
0000
,
0000
0000
0000
0000
,
0000
0000
0000
0000
,
0000
0000
0000
0000
,
1001
0000
0000
0100
0000
0001
1000
0001
,
1100
0000
0000
0010
0000
1000
0001
1000
,
0101
0000
0000
0100
0000
0001
1000
0001
,
2000
3002
2003
3002
,
1003
0000
0100
0000
1000
0001
0000
0100
0000
0010
0100
0000
0001
0000
1000
0001
,
1000
0000
0001
0000
0010
0001
0000
0100
0000
0010
0100
0000
0001
0000
1000
0100
,
1000
0000
0100
0000
0010
0100
0000
0010
0000
0001
1000
0000
0001
0000
1000
0010
,
2000
3200
0302
0203
,
0310
0001
0100
0001
0010
0000
0001
1000
0000
0000
1001
0000
0000
0000
1000
0000
,
0100
0000
0010
0000
0001
0000
1000
0000
0100
0000
1000
0001
0000
0000
0100
0000
,
0010
1000
0100
1000
0010
0000
1000
0001
0000
0000
0100
0000
0000
0000
0010
0000
,
2000
3002
1003
1001
,
1000
0000
0100
0000
0010
0000
0001
0000
1000
0001
1000
0000
0101
0000
0000
0000
,
0001
0000
0100
0000
0010
0000
1000
0000
0001
1000
0001
0000
1100
0000
0000
0000
,
1000
1000
0000
1010
1010
0011
0011
0100
,
2001
3200
0320
0032
,
1003
0100
1000
0100
0000
1000
0010
1000
,
0000
0010
0001
0000
0000
0010
1000
0001
,
0000
0100
0001
0100
0000
0001
1000
0001
,
0200
0320
0230
0320
,
1030
0000
0100
0000
0001
0000
0100
0000
1000
0001
0000
0001
1000
0000
0000
0000
,
0001
0000
0100
0000
1000
0000
0100
0000
0001
1000
0000
1000
0001
0000
0000
0000
,
1000
0000
0100
0000
0001
0000
0000
0000
0100
0010
0000
0010
0100
0000
0000
0000
,
0110
1001
0110
1001
,
0001
0000
0100
0000
1000
0000
0100
0000
0010
0000
1000
0001
0000
1000
0001
0000
,
1000
0000
0100
0000
0001
0000
0100
0000
0010
0000
0001
1000
0000
0000
0000
0000
,
0001
0100
0010
1000
0100
0010
0001
0100
,
0020
1030
1100
0101
,
1000
0000
0100
0000
0001
0000
0100
0000
0010
0000
0001
0100
0000
0010
1000
0000
,
0001
0000
0100
0000
1000
0000
0100
0000
0010
0000
1000
0001
0000
0000
0000
0000
,
1001
0100
0001
0010
1001
0100
1000
0010
,
0101
1100
1010
0011
,
1001
0000
0000
0101
0000
1000
0100
0001
,
0110
0000
0000
1100
0000
0001
0100
1000
,
0110
0000
0000
1001
0000
1000
0001
0100
,
0020
0130
1001
0110
,
1001
0000
0000
0000
;

//---------------dance-double - ----------------
#NOTES:
     dance-double:
     :
     Beginner:
     1:
     :
00000000
00000000
00000000
00000000
,
00000000
00000000
00000000
00000000
,
00000000
00000000
00000000
00000000
,
00000000
00000000
00000000
00000000
,
00000000
00000000
00000000
00000000
,
10000000
00000000
00000000
00000000
,
00010000
00000000
00000000
00000000
,
00100000
00000000
00000000
00000000
,
00002000
00000000
00000000
00003000
,
00001000
00000000
00000000
00000000
,
00010000
00000000
00000000
00000000
,
00000100
00000000
00000000
00000000
,
00000020
00000000
00000000
00000030
,
00000010
00000000
00000000
00000000
,
00000001
00000000
00001000
00000000
,
00000001
00000000
00000000
00000000
,
00000200
00000000
00000000
00000300
,
00000100
00000000
00000010
00000000
,
00010000
00000000
00001000
00000000
,
00100000
00000000
00000000
00000000
,
02000000
00000000
00000000
03000000
,
01000000
00000000
10000000
00000000
,
01000000
00000000
00000000
00000000
,
00010000
00000000
00001000
00000000
,
00020000
00000000
00000000
00030000
,
00010000
00000000
00000100
00000000
,
00001000
00000000
00000001
00000000
,
00000100
00000000
00000000
00000000
,
00000002
00000000
00000000
00000003
,
00000001
00000000
00000100
00000000
,
00000010
00001000
00000010
00000000
,
00010000
00000000
00001000
00000000
,
00020000
00000000
00000000
00030000
,
00010000
00000000
00001000
00000000
,
01000000
00010000
01000000
00000000
,
00100000
00000000
10000000
00000000
,
00020000
00000000
00000000
00030000
,
00010000
00000000
00000000
00000000
,
10000000
00000000
00000000
00000000
,
00010000
00000000
00000000
00000000
,
00022000
00000000
00000000
00033000
,
00011000
00000000
00000000
00000000
;

//---------------dance-double - ----------------
#NOTES:
     dance-double:
     :
     Easy:
     3:
     :
00000000
00000000
00000000
00000000
,
00000000
00000000
00000000
00000000
,
00000000
00000000
00000000
00000000
,
00000000
00000000
00000000
00000000
,
00000000
00000000
00000000
00000000
,
10000000
00000000
01000000
00000000
,
00100000
00000000
00001000
00000000
,
00010000
00000000
00000100
00000000
,
00001000
00000001
00001000
00000001
,
00000001
00000000
00000100
00000000
,
00000010
00000000
00010000
00000000
,
00001000
00000000
00100000
00000000
,
00010000
10000000
00010000
10000000
,
10010000
00000000
00000000
00000000
,
10000000
00100000
01000000
00001000
,
00011000
00000000
00000000
00000000
,
00010000
00000100
00001000
00000010
,
00001000
00001000
00001000
00000000
,
00000001
00000001
00000001
00000000
,
00000100
00000000
00001000
00001000
,
00010000
00001000
00010000
00001000
,
00010000
00000000
01000000
00000000
,
00100000
00010000
10000000
00000000
,
00100000
00000000
10000000
00000000
,
01000000
00010000
00001000
00000100
,
00000001
00000000
00001000
00000001
,
00001000
00000000
00000001
00000100
,
00000001
00000000
00000000
00000000
,
00001000
00000010
00001000
00000010
,
00010000
00001000
00010000
00000000
,
00001000
01000000
00001000
00000000
,
01000000
00100000
10000000
01000000
,
00100000
00010000
00100000
00010000
,
00100000
00001000
00010000
00000000
,
00001000
00010000
00000100
00000000
,
00001000
00000100
00000010
00000001
,
00001000
00000001
00001000
00000001
,
00001000
00000000
00001001
00000000
,
00000100
00000000
00000110
00000000
,
00010000
00000000
00011000
00000000
,
00001000
00010000
01000000
10000000
,
10010000
00000000
00000000
00000000
;

//---------------dance-double - ----------------
#NOTES:
     dance-double:
     :
     Medium:
     6:
     :
00000000
00000000
00000000
00000000
,
00000000
00000000
00000000
00000000
,
00000000
00000000
00000000
00000000
,
00000000
00000000
00000000
00000000
,
00000000
00000000
00000000
00000000
,
11000000
00000000
00000000
00010000
00000000
00100000
00010000
01000000
,
00001000
00000000
00000000
00022000
00000000
00000000
00033000
00000000
,
00001100
00000000
00000000
00000001
00000000
00001000
00000100
00000010
,
00000001
00001000
00000001
00001000
,
00001001
00000000
00000000
00000100
00000000
00000010
00001000
00000100
,
00010000
00000000
00000000
00022000
00000000
00000000
00033000
00000000
,
00110000
00000000
00000000
01000000
00000000
00010000
10000000
01000000
,
00100000
01000000
00100000
01000000
,
10000000
01000000
00100000
00010000
01000000
00001000
00000000
00010000
,
00000100
00000010
00000001
00000010
00000001
00000000
00001001
00000000
,
00000001
00000100
00000010
00010000
00001000
00010000
00000000
00001000
,
01000000
00010000
10000000
00100000
,
10000000
01000000
00010000
01000000
00010000
00001000
00010000
00000000
,
00001000
00000100
00000001
00000100
00000001
00000010
00000001
00000000
,
00000010
00000010
00000000
00000100
00000100
00010000
00010000
00001000
,
00010000
00001000
00011000
00011000
,
00001000
01000000
00001000
01000000
00000000
00010000
10000000
00010000
,
20000000
00000000
00000000
30000000
,
01000000
00100000
01000000
00100000
00000000
00001000
00010000
00001000
,
00010000
00001000
00011000
00010100
,
00000100
00000010
00000001
00000010
00002000
00000000
00003000
00000000
,
00010000
01000000
10000000
01000000
00020000
00000000
00030000
00000000
,
00001000
00010000
00001000
00000000
00000000
00000000
00000000
00000000
,
00011000
00010010
00001010
00000110
,
00001000
00000000
00000001
00000000
00000100
00000000
00001000
00000000
00010000
00000000
00000000
00011000
00000000
00000000
00010000
00000000
,
00001000
00000000
00010000
00000000
01000000
00000000
10000000
00000000
00010000
00000000
00000000
10010000
00000000
00000000
01000000
00000000
,
10000000
01000000
00100000
00010000
00001000
00000010
00000100
00000001
,
00000011
00001010
00011000
00110000
,
00100000
00000000
10000000
00000000
01000000
00000000
10000000
00000000
00100000
00000000
00000000
01010000
00000000
00000000
00100000
00000000
,
00001000
00000000
00010000
00000000
00000100
00000000
00010000
00000000
00001000
00000000
00000000
00011000
00000000
00000000
00000100
00000000
,
00001000
00000100
00000010
00000001
00000100
00000010
00010000
00001000
,
00011000
00101000
00110000
10100000
,
10000000
00000000
00000000
01010000
00000000
10000000
01000000
00010000
,
00001000
00000000
00000000
00022000
00000000
00000000
00033000
00000000
,
00010000
00000000
00000000
00001010
00000000
00000001
00000100
00000010
,
00000101
00001100
00011000
01010000
,
11000000
00000000
00000000
00000000
;

//---------------dance-double - ----------------
#NOTES:
     dance-double:
     :
     Hard:
     8:
     :
00000000
00000000
00000000
00000000
,
00000000
00000000
00000000
00000000
,
00000000
00000000
00000000
00000000
,
00000000
00000000
00000000
00000000
,
00000000
00000000
00000000
00000000
,
10010000
00000000
00000000
01000000
00000000
00001000
00010000
00001000
,
00011000
00000000
00000000
00000100
00000000
00001000
00000001
00001000
,
00000110
00000000
00000000
00000001
00000000
00001000
00000010
00001000
,
00000002
00000203
00002300
00023000
,
00031000
00000000
00010000
00000000
00001000
01000000
00000000
00010000
00000000
01000000
00100000
00000000
10000000
00000000
00010000
10000000
,
00010000
00000000
10000000
00000000
01000000
00100000
00000000
01000000
00000000
00100000
00010000
00000000
00100000
00000000
00001000
00010000
,
00001000
00000000
00010000
00000000
00000100
00001000
00000000
00000010
00000000
00001000
00000001
00000000
00001000
00000000
00000001
00000100
,
00000002
00000203
00000320
00002030
,
00003100
00010000
00001000
00010000
00000100
00000000
00010000
00001000
00000000
00000000
00011000
00000000
00000000
00000000
00001000
00000000
,
01000000
00000000
00010000
00000000
10000000
00000000
00100000
00000000
01000000
00000000
00010000
10000000
00000000
00000000
01000000
00000000
,
00100000
00001000
00010000
00001000
00100000
00000000
00001000
00010000
00000000
00000000
00000100
00000000
00000000
00000000
00001000
00000000
,
00000020
00002030
00003001
00001001
,
00000001
00000000
00000100
00000000
00001000
00000000
00010000
00000000
00001000
00010000
00001000
00000000
00011000
00000000
00000000
00000000
,
00001000
00000000
00010000
00000000
01000000
00000000
10000000
00000000
00010000
10000000
00010000
00000000
11000000
00000000
00000000
00000000
,
10000000
10000000
00000000
00110000
00110000
00011000
00011000
00000010
,
00002001
00003200
00000320
00000032
,
00001003
00000100
00001000
00000010
00000000
00000100
00000001
00000100
,
00000000
00001000
00010000
00000000
00000000
00001000
00010000
01000000
,
00000000
00100000
00010000
00100000
00000000
00010000
10000000
00010000
,
20000000
32000000
03020000
00032000
,
00013000
00000000
00001000
00000000
00000010
00000000
00000001
00000000
00001000
00000001
00000000
00000001
00001000
00000000
00000000
00000000
,
00000001
00000000
00000010
00000000
00001000
00000000
00010000
00000000
00001000
00010000
00000000
00010000
00001000
00000000
00000000
00000000
,
00001000
00000000
00010000
00000000
00100000
00000000
00000000
00000000
01000000
00100000
00000000
00100000
01000000
00000000
00000000
00000000
,
01100000
10010000
01100000
10010000
,
10000000
00000000
01000000
00000000
00010000
00000000
01000000
00000000
00100000
00000000
00001000
00010000
00000000
00001000
00010000
00000000
,
00001000
00000000
00000100
00000000
00000001
00000000
00000100
00000000
00000010
00000000
00001000
00000001
00000000
00000000
00000000
00000000
,
00000001
00000100
00000010
00010000
00001000
00100000
01000000
10000000
,
00020000
10030000
11000000
01010000
,
00001000
00000000
00010000
00000000
00000100
00000000
00010000
00000000
00000010
00000000
00001000
00000100
00000000
00000010
00000001
00000000
,
00001000
00000000
00000001
00000000
00000100
00000000
00000010
00000000
00001000
00000000
00000100
00010000
00000000
00000000
00000000
00000000
,
00011000
00001000
01000000
00100000
10010000
10000000
01000000
00100000
,
01010000
00011000
00001100
00000101
,
00001001
00000000
00000000
00000011
00000000
00000010
00000100
00010000
,
00011000
00000000
00000000
00110000
00000000
00010000
01000000
00100000
,
10100000
00000000
00000000
01010000
00000000
10000000
00010000
00100000
,
00002000
00013000
00010100
01001000
,
00011000
00000000
00000000
00000000
;
