#TITLE:化蝶飛;
#ARTIST:花兒樂團;
#TITLETRANSLIT:Hua Die Fei;
#ARTISTTRANSLIT:The Flowers;
#BANNER:Hua Die Fei.png;
#BACKGROUND:Hua Die Fei-bg.png;
#CDTITLE:./CDTITLES/DanceDanceRevolution UNIVERSE3 Chinese Special Edition.png;
#MUSIC:Hua Die Fei.ogg;
#SAMPLESTART:58.646;
#SAMPLELENGTH:15;
#DISPLAYBPM:133;
#BPMS:0=133.001,198=132.896;

//---------------dance-single - ----------------
#NOTES:
     dance-single:
     :
     Beginner:
     1:
     :
0000
0000
0000
0000
,
0000
0000
0000
0000
,
0000
0000
0000
0000
,
0000
0000
0000
0000
,
0000
0000
0000
0000
,
0000
0000
1000
1000
,
1000
0000
0001
0000
,
1000
0000
0001
0001
,
0001
0000
0100
0000
,
0010
0000
1000
0000
,
1000
0000
0001
0000
,
0001
0000
0100
0000
,
0100
0000
0010
0000
,
0010
0000
1000
0000
,
1000
0000
0100
0000
,
0100
0000
0010
0000
,
0010
0000
0001
0000
,
0002
0000
0000
0003
,
0001
0000
1000
0000
,
0001
0000
1000
0000
,
0200
0000
0000
0300
,
0100
0000
0000
0000
,
1000
0000
0100
0000
,
0010
0000
0001
0000
,
2000
0000
0000
3000
,
1000
0000
0000
0000
,
0001
0000
0100
0000
,
0010
0000
1000
0000
,
0002
0000
0000
0003
,
0001
0000
0000
0000
,
0100
0000
0010
0000
,
0100
0000
0010
0010
,
0010
0000
1000
1000
,
1000
0000
0001
0000
,
1000
0000
0100
0100
,
0100
0000
0010
0000
,
0100
0000
1000
1000
,
1000
0000
0100
0000
,
0010
0000
0001
0001
,
0001
0000
0100
0000
,
0010
0000
1000
1000
,
2000
0000
0000
3000
,
0000
0000
0001
0001
,
0002
0000
0000
0003
,
0000
0000
0100
0100
,
0200
0000
0000
0300
,
0000
0000
0010
0010
,
0020
0000
0000
0030
;

//---------------dance-single - ----------------
#NOTES:
     dance-single:
     :
     Easy:
     3:
     :
0000
0000
0000
0000
,
0000
0000
0000
0000
,
0000
0000
0000
0000
,
0000
0000
0000
0000
,
0000
0000
0000
0000
,
0000
0000
1000
0001
,
1000
0000
0100
0000
,
0010
0000
0001
1000
,
0001
0000
0100
0000
,
0010
0000
1000
0001
,
1000
0000
0100
0010
,
0100
0000
0010
0100
,
0010
0000
0001
1000
,
0001
0001
1000
0001
,
1000
0000
0001
0100
,
0001
0000
0100
0010
,
0100
0000
0010
1000
,
0010
0010
0000
0000
,
1000
0001
0100
0000
,
0001
1000
0100
0000
,
1001
0000
1001
0000
,
1000
0100
0010
0001
,
1000
0001
0010
0000
,
0001
1000
0010
0000
,
0110
0000
0110
0000
,
0001
0100
0010
0000
,
1000
0010
0100
0000
,
0001
0010
0100
0000
,
0110
0000
1001
0000
,
1000
0001
0100
0001
,
1000
0100
0010
0000
,
0001
0100
0010
1000
,
1001
0000
1000
0001
,
1001
0000
0110
0000
,
1001
0000
0010
0100
,
0110
0000
1001
0000
,
0110
0000
0010
1000
,
1001
0000
1001
0000
,
0110
0000
0001
0100
,
0110
0000
1001
0000
,
1001
0000
1000
0100
,
0020
0000
0000
0030
,
0000
0000
0001
0100
,
0020
0000
0000
0030
,
0000
0000
1000
0100
,
0020
0000
0000
0030
,
0010
0000
0001
1000
,
2002
0000
0000
3003
;

//---------------dance-single - ----------------
#NOTES:
     dance-single:
     :
     Medium:
     5:
     :
0000
0000
0000
0000
,
0000
0000
0000
0000
,
0000
0000
0000
0000
,
0000
0000
0000
0000
,
0000
0000
0000
0000
,
0000
0000
1000
0001
,
0100
0000
0001
0100
0001
0000
1000
0000
,
0100
0000
0010
0001
,
1000
0000
0100
0010
0100
0000
0010
0000
,
1001
0000
0000
0000
0100
0000
0001
2000
,
0000
0000
3000
0000
0100
0000
1000
0002
,
0000
0000
0003
0000
0010
0000
0001
0200
,
0000
0000
0300
0000
0010
0000
1000
0001
,
0000
0001
0000
0000
1000
0000
0100
0020
,
0000
0000
0030
0000
0001
0000
0100
0020
,
0000
0000
0030
0000
1000
0000
0001
0200
,
0000
0000
0300
0000
0010
0000
0100
0010
,
0000
2002
0000
0000
0000
0000
3003
0000
,
1000
0001
0000
0100
0001
0100
0000
0010
,
1000
0010
0000
0100
0001
0100
0000
0010
,
1000
0100
0010
0001
,
1000
0100
0001
0100
1000
0000
1001
0000
,
1000
0001
0000
1000
0100
1000
0000
0001
,
0010
0001
0000
1000
0100
1000
0000
0001
,
0010
0001
0100
0010
,
1000
0100
0001
0100
1000
0000
0000
0000
,
1000
0001
0000
0100
0010
0100
0000
0010
,
1000
0010
0000
1000
0001
1000
0000
0001
,
0100
0001
0010
0100
,
1000
0100
0010
0001
1000
0000
1001
0000
,
0001
0100
0000
0010
1000
0010
0000
1000
,
0001
1000
0000
0100
0010
0000
0100
0000
,
1001
0000
1000
0100
,
0010
0000
0000
0001
0000
0000
0010
0000
0001
0000
0000
0100
0000
0000
0010
0000
,
1000
0000
0001
0010
,
0001
0000
0000
1000
0000
0000
0100
0000
1000
0000
0000
0001
0000
0000
0100
0000
,
0010
0000
1000
0001
,
1000
0000
0100
0010
0001
0000
1000
0000
,
0101
0000
0010
1000
,
0001
0000
0100
0010
1000
0000
0001
0000
,
1100
0000
0010
0100
,
2001
0000
0010
0000
,
3001
0000
1000
0100
,
1020
0000
0001
0000
,
0130
0000
0001
1000
,
0201
0000
0000
0000
0010
0000
0001
0301
,
0000
1000
1000
0000
0100
0000
0010
0000
,
0002
0000
0000
0000
,
0003
0000
0000
0000
;

//---------------dance-single - ----------------
#NOTES:
     dance-single:
     :
     Hard:
     7:
     :
0000
0000
0000
0000
,
0000
0000
0000
0000
,
0000
0000
0000
0000
,
0000
0000
0000
0000
,
0000
0000
0000
0000
,
0000
0000
1000
0001
,
1000
0000
0001
0100
1000
0000
0100
0001
,
0010
0000
0001
0000
1000
0100
0001
0100
,
1000
0000
0010
1000
0100
0000
0010
0000
,
1001
0000
0000
0000
1001
0100
0001
2000
,
0000
0000
3000
0000
1001
0100
1000
0002
,
0000
0000
0003
0000
1010
0001
1000
0200
,
0000
0000
0300
0000
0011
1000
0001
1100
,
0000
0101
0000
0000
1001
0100
0010
2002
,
0000
0000
3003
0000
0110
1000
0001
0220
,
0000
0000
0330
0000
0011
1000
0001
2200
,
0000
0000
3300
0000
1010
0100
0001
0110
,
0000
2002
0000
0000
0000
3003
0000
1000
,
0000
0001
0100
0001
0010
0000
0001
0001
,
0000
1000
0100
1000
0010
0000
1000
0001
,
0000
0100
0000
1001
0000
0110
0000
1001
,
0100
0010
0001
1000
0100
0010
0001
1000
,
0000
0001
1000
0100
1000
0000
0010
0010
,
0000
1000
0001
0010
0001
0000
0100
0100
,
0000
0010
0000
1100
0000
0011
0000
0101
,
0010
1000
0001
0100
0010
1000
0001
0100
,
0000
0001
0100
1000
0100
0000
0001
0001
,
0000
1000
0100
0001
0100
0000
1000
1000
,
0000
0001
0000
1020
0000
0130
0000
0001
,
0100
0010
1000
0001
0100
1000
0100
0001
,
0000
1000
0100
0010
0001
0000
1001
1001
,
0000
0001
0100
0010
1000
0000
0001
0000
,
0110
0000
0001
1000
,
0002
0000
0000
1000
0000
0000
1003
0000
2000
0000
0000
0001
0000
0000
3001
0000
,
0100
0011
1000
0001
,
2000
0000
0000
0001
0000
0000
3100
0000
0002
0000
0000
1000
0000
0000
0013
0000
,
0100
1010
0001
1000
,
0001
0000
1000
0100
1000
0000
0001
0100
,
0001
0000
0110
0000
1000
0001
0100
0001
,
1000
0000
0100
0010
0001
0000
1000
0000
,
1001
0000
1100
0101
,
0210
0001
0010
1000
,
0310
1000
1100
0110
,
0012
0100
1000
0100
,
0013
0100
0101
0110
,
1020
0000
0100
0000
0001
0000
0100
0130
,
0000
0001
1000
0000
0110
0000
1001
0000
,
0220
0000
0000
0000
,
0330
0000
0000
0000
;

//---------------dance-double - ----------------
#NOTES:
     dance-double:
     :
     Beginner:
     1:
     :
00000000
00000000
00000000
00000000
,
00000000
00000000
00000000
00000000
,
00000000
00000000
00000000
00000000
,
00000000
00000000
00000000
00000000
,
00000000
00000000
00000000
00000000
,
00000000
00000000
10000000
10000000
,
10000000
00000000
00010000
00000000
,
01000000
00000000
00001000
00001000
,
00001000
00000000
00010000
00000000
,
00000100
00000000
00000010
00000000
,
00000010
00000000
00000001
00000000
,
00000001
00000000
00000100
00000000
,
00000100
00000000
00001000
00000000
,
00001000
00000000
00010000
00000000
,
00010000
00000000
01000000
00000000
,
01000000
00000000
10000000
00000000
,
10000000
00000000
00100000
00000000
,
00200000
00000000
00000000
00300000
,
00100000
00000000
10000000
00000000
,
00010000
00000000
01000000
00000000
,
00002000
00000000
00000000
00003000
,
00001000
00000000
00000000
00000000
,
00010000
00000000
00000100
00000000
,
00000010
00000000
00000001
00000000
,
00002000
00000000
00000000
00003000
,
00001000
00000000
00000000
00000000
,
00000001
00000000
00000100
00000000
,
00000010
00000000
00010000
00000000
,
00002000
00000000
00000000
00003000
,
00001000
00000000
00000000
00000000
,
01000000
00000000
00010000
00000000
,
10000000
00000000
00100000
00100000
,
00100000
00000000
10000000
10000000
,
10000000
00000000
00010000
00000000
,
01000000
00000000
00001000
00001000
,
00001000
00000000
00010000
00000000
,
00000100
00000000
00001000
00001000
,
00001000
00000000
00000100
00000000
,
00000010
00000000
00000001
00000001
,
00000001
00000000
00000100
00000000
,
00001000
00000000
00010000
00010000
,
00020000
00000000
00000000
00030000
,
00000000
00000000
00001000
00001000
,
00002000
00000000
00000000
00003000
,
00000000
00000000
01000000
01000000
,
02000000
00000000
00000000
03000000
,
00000000
00000000
00100000
00100000
,
00200000
00000000
00000000
00300000
;

//---------------dance-double - ----------------
#NOTES:
     dance-double:
     :
     Easy:
     4:
     :
00000000
00000000
00000000
00000000
,
00000000
00000000
00000000
00000000
,
00000000
00000000
00000000
00000000
,
00000000
00000000
00000000
00000000
,
00000000
00000000
00000000
00000000
,
00000000
00000000
00001000
00010000
,
00001000
00000000
01000000
00000000
,
00100000
00000000
10000000
00010000
,
10000000
00000000
01000000
00000000
,
00100000
00000000
00001000
00010000
,
00001000
00000000
00010000
00000100
,
00010000
00000000
00000100
00000010
,
00000100
00000000
00000010
00000001
,
00001000
00001000
00000001
00000100
,
00000010
00000000
00010000
00000010
,
00010000
00000000
00001000
00010000
,
00001000
00000000
00100000
00010000
,
10000000
10000000
00000000
00000000
,
10000000
01000000
00010000
00000000
,
01000000
00010000
00001000
00000000
,
00011000
00000000
00011000
00000000
,
00010000
00001000
00000100
00000001
,
00001000
00000001
00000010
00000000
,
00000001
00000010
00001000
00000000
,
00000110
00000000
00000110
00000000
,
00000010
00000001
00000100
00000000
,
00000001
00000100
00001000
00000000
,
00000100
00001000
00010000
00000000
,
00011000
00000000
00011000
00000000
,
00001000
00010000
01000000
00100000
,
00010000
01000000
00100000
00000000
,
10000000
01000000
00100000
00010000
,
10010000
00000000
00100000
00001000
,
00011000
00000000
00000100
00000000
,
00000110
00000000
00000010
00000001
,
00001001
00000000
00000100
00000000
,
00011000
00000000
00010000
00001000
,
00011000
00000000
00100000
00000000
,
01100000
00000000
10000000
00010000
,
10010000
00000000
01000000
00000000
,
00011000
00000000
00010000
00000100
,
00000020
00000000
00000000
00000030
,
00000000
00000000
00000001
00000100
,
00000020
00000000
00000000
00000030
,
00000000
00000000
00010000
00001000
,
00200000
00000000
00000000
00300000
,
00100000
00000000
00010000
10000000
,
20020000
00000000
00000000
30030000
;

//---------------dance-double - ----------------
#NOTES:
     dance-double:
     :
     Medium:
     6:
     :
00000000
00000000
00000000
00000000
,
00000000
00000000
00000000
00000000
,
00000000
00000000
00000000
00000000
,
00000000
00000000
00000000
00000000
,
00000000
00000000
00000000
00000000
,
00000000
00000000
10000000
01000000
,
00100000
00000000
00010000
01000000
00010000
00000000
00100000
00000000
,
00001000
00000000
00010000
00000100
,
00001000
00000000
00000010
00000100
00000010
00000000
00001000
00000000
,
00000110
00000000
00000000
00000000
00000001
00000000
00001000
00000200
,
00000000
00000000
00000300
00000000
00010000
00000000
00001000
02000000
,
00000000
00000000
03000000
00000000
00010000
00000000
10000000
00200000
,
00000000
00000000
00300000
00000000
01000000
00000000
00001000
00010000
,
00000000
00010000
00000000
00000000
00001000
00000000
00010000
00000020
,
00000000
00000000
00000030
00000000
00001000
00000000
00000001
00000200
,
00000000
00000000
00000300
00000000
00000001
00000000
00000100
00000020
,
00000000
00000000
00000030
00000000
00010000
00000000
00001000
00010000
,
00000000
00022000
00000000
00000000
00000000
00000000
00033000
00000000
,
00001000
01000000
00000000
00010000
01000000
00010000
00000000
10000000
,
00100000
10000000
00000000
01000000
00100000
01000000
00000000
00100000
,
00001000
00010000
00000100
00001000
,
00000010
00001000
00000100
00001000
00000010
00000000
00000101
00000000
,
00001000
00000001
00000000
00000100
00000001
00000100
00000000
00000010
,
00001000
00000010
00000000
00010000
00001000
00010000
00000000
00001000
,
00100000
00010000
01000000
00100000
,
10000000
01000000
00100000
01000000
10000000
00000000
00000000
00000000
,
01000000
00100000
00000000
00010000
10000000
00010000
00000000
10000000
,
01000000
10000000
00000000
01000000
00010000
01000000
00000000
00010000
,
00001000
00000100
00000001
00000010
,
00000001
00000100
00000010
00001000
00000001
00000000
00000110
00000000
,
00000001
00000100
00000000
00000010
00001000
00000010
00000000
00010000
,
00001000
00010000
00000000
00001000
00100000
00000000
01000000
00000000
,
10010000
00000000
10000000
01000000
,
00100000
00000000
00000000
00010000
00000000
00000000
01000000
00000000
00001000
00000000
00000000
00010000
00000000
00000000
00000100
00000000
,
00001000
00000000
00000001
00000100
,
00000010
00000000
00000000
00001000
00000000
00000000
00000100
00000000
00010000
00000000
00000000
00001000
00000000
00000000
01000000
00000000
,
00100000
00000000
10000000
00010000
,
10000000
00000000
01000000
00010000
00001000
00000000
00010000
00000000
,
00011000
00000000
00001000
00010000
,
00000010
00000000
00001000
00000100
00000001
00000000
00000100
00000000
,
00001001
00000000
00000001
00000100
,
00001020
00000000
00000100
00000000
,
00010030
00000000
00001000
00010000
,
02100000
00000000
00010000
00000000
,
13000000
00000000
00010000
00100000
,
00012000
00000000
00000000
00000000
01000000
00000000
00010000
00013000
,
00000000
00000100
00000100
00000000
00001000
00000000
00000010
00000000
,
00000200
00000000
00000000
00000000
,
00000300
00000000
00000000
00000000
;

//---------------dance-double - ----------------
#NOTES:
     dance-double:
     :
     Hard:
     8:
     :
00000000
00000000
00000000
00000000
,
00000000
00000000
00000000
00000000
,
00000000
00000000
00000000
00000000
,
00000000
00000000
00000000
00000000
,
00000000
00000000
00000000
00000000
,
00000000
00000000
00100000
00010000
,
01000000
00000000
00100000
10000000
01000000
00000000
00100000
00001000
,
00010000
00000000
00001000
00000000
00010000
00001000
00000100
00000001
,
00000100
00000000
00000001
00000100
00000010
00000000
00001000
00000000
,
00001001
00000000
00000000
00000000
00001001
00000100
00000001
00002000
,
00000000
00000000
00003000
00000000
00010010
00001000
00010000
00002000
,
00000000
00000000
00003000
00000000
00101000
00010000
00001000
02000000
,
00000000
00000000
03000000
00000000
10010000
01000000
00100000
11000000
,
00000000
00110000
00000000
00000000
10010000
01000000
00100000
02002000
,
00000000
00000000
03003000
00000000
00101000
00010000
00001000
00022000
,
00000000
00000000
00033000
00000000
00010100
00001000
00000010
00002200
,
00000000
00000000
00003300
00000000
00001010
00000100
00000001
00000110
,
00000000
00002002
00000000
00000000
00000000
00003003
00000000
00000001
,
00000000
00000010
00001000
00010000
00001000
00000000
00010000
00010000
,
00000000
00001000
00010000
00100000
10000000
00000000
00010000
10000000
,
00000000
01100000
00000000
10010000
00000000
00101000
00000000
00011000
,
00010000
00000100
00001000
00000010
00010000
00000100
00001000
00000010
,
00000000
00001000
00000100
00000010
00000001
00000000
00001000
00001000
,
00000000
00000001
00000100
00001000
00010000
00000000
00001000
00001000
,
00000000
00010000
00000000
00011000
00000000
00110000
00000000
10010000
,
01000000
00100000
00010000
10000000
01000000
00100000
00010000
10000000
,
00000000
01000000
00010000
00001000
00010000
00000000
00001000
00001000
,
00000000
00010000
00001000
00000100
00001000
00000000
00000100
00000100
,
00000000
00000001
00000000
00001200
00000000
00000310
00000000
00000001
,
00000100
00000010
00001000
00010000
00100000
01000000
10000000
00010000
,
00000000
10000000
01000000
00010000
00001000
00000000
00011000
00011000
,
00000000
00010000
00001000
00000100
00000001
00000000
00001000
00000000
,
00000110
00000000
00000001
00000100
,
00000020
00000000
00000000
00001000
00000000
00000000
00001030
00000000
00000200
00000000
00000000
00010000
00000000
00000000
00010300
00000000
,
00001000
00011000
01000000
00010000
,
00200000
00000000
00000000
00010000
00000000
00000000
01300000
00000000
20000000
00000000
00000000
00100000
00000000
00000000
30010000
00000000
,
01000000
01100000
00100000
10000000
,
01000000
00000000
00100000
00010000
00100000
00000000
00001000
00010000
,
00001000
00000000
00011000
00000000
00010000
00001000
00000100
00001000
,
00010000
00000000
00001000
00000100
00000001
00000000
00001000
00000000
,
00001001
00000000
00000101
00000110
,
00002010
00000100
00000001
00000100
,
00003010
00010000
00011000
00110000
,
02010000
00100000
10000000
00100000
,
03010000
10000000
01010000
00101000
,
00021000
00000000
00100000
00000000
00001000
00000000
01000000
01030000
,
00000000
00100000
00001000
00000000
00011000
00000000
00001100
00000000
,
00000220
00000000
00000000
00000000
,
00000330
00000000
00000000
00000000
;
