#TITLE:第二世(合唱版);
#ARTIST:謝霆鋒;
#TITLETRANSLIT:DI ER SHI (Duet Version);
#ARTISTTRANSLIT:TSE NICHOLAS;
#BANNER:DI ER SHI (Duet Version).png;
#BACKGROUND:DI ER SHI (Duet Version)-bg.png;
#CDTITLE:./CDTITLES/DanceDanceRevolution UNIVERSE3 Chinese Special Edition.png;
#MUSIC:DI ER SHI (Duet Version).ogg;
#SAMPLESTART:9.032;
#SAMPLELENGTH:15;
#BPMS:0=124;

//---------------dance-single - ----------------
#NOTES:
     dance-single:
     :
     Beginner:
     1:
     :
0000
0000
0000
0000
,
0000
0000
0000
0000
,
0000
0000
0000
0000
,
0001
0000
1000
0000
,
0001
0000
0000
0000
,
1000
0000
0100
0000
,
1000
0000
0000
0000
,
0010
0000
0100
0000
,
0010
0000
0000
0000
,
0100
0000
0001
0000
,
0100
0000
0000
0000
,
0010
0000
1000
0000
,
0001
0000
1000
0000
,
1001
0000
0000
0000
,
1000
0000
0001
0000
,
1001
0000
0000
0000
,
0001
0000
0010
0000
,
0100
0000
0100
0000
,
0100
0000
0000
0000
,
1000
0000
1000
0000
,
1000
0000
0000
0000
,
0001
0000
0001
0000
,
0001
0000
0000
0000
,
0100
0000
0100
0000
,
0100
0000
0000
0000
,
0010
0000
1000
0000
,
0010
0000
0100
0000
,
0001
0000
0000
0000
,
0010
0000
0000
0000
,
0100
0000
0000
0000
,
1000
0000
0000
0000
,
0100
0000
0000
0000
,
0010
0000
0000
0000
,
0001
0000
0000
0000
,
1000
0000
0001
0000
,
1001
0000
0000
0000
,
0100
0000
0010
0000
,
0100
0000
0000
0000
,
0001
0000
1000
0000
,
0001
0000
0000
0000
,
0010
0000
0100
0000
,
0010
0000
0000
0000
,
0100
0000
1000
0000
,
0001
0000
0100
0000
,
0110
0000
0000
0000
,
0010
0000
1000
0000
,
0001
0000
0000
0000
,
0010
0000
0100
0000
,
0220
0000
0000
0330
;

//---------------dance-single - ----------------
#NOTES:
     dance-single:
     :
     Easy:
     3:
     :
0000
0000
0000
0000
,
0000
0000
0000
0000
,
0000
0000
0000
0000
,
1000
0000
0001
0010
,
0100
0000
0010
0001
,
1000
0000
1000
0000
,
0010
0000
0000
0000
,
0100
0000
0100
0000
,
0001
0000
0000
0000
,
1000
0000
0001
0000
,
1000
0000
0000
0000
,
0100
0000
0010
0000
,
0001
0000
0010
0000
,
0100
0000
1000
0000
,
0001
0000
0100
0010
,
1000
0000
0010
0000
,
0100
0001
0010
0000
,
0100
1000
0100
0000
,
0010
0001
0010
0000
,
0001
1000
0001
0000
,
1000
0010
1000
0000
,
0010
0100
0010
0000
,
0100
0001
0100
0000
,
0010
1000
0010
0000
,
1000
0001
1000
0001
,
0010
0000
0010
0000
,
0100
0000
0100
0000
,
1000
0000
0001
0000
,
0100
0000
0010
1000
,
0001
0000
0010
0000
,
0100
0000
1000
0001
,
0100
0000
0010
0000
,
1000
0000
0100
0010
,
0100
0000
1000
0000
,
0001
0000
0100
0010
,
1000
0000
0000
0001
,
0010
0000
0010
0100
,
1000
0000
1000
0100
,
0010
0000
0001
0100
,
0010
0000
0010
0100
,
0001
0000
1000
0100
,
0001
0000
0001
0100
,
1000
0000
0001
0100
,
1000
0100
0001
0000
,
0010
0000
0100
0000
,
1000
0000
0001
0100
,
0010
0000
1000
0000
,
0100
0010
0001
0010
,
0200
0000
0000
0300
;

//---------------dance-single - ----------------
#NOTES:
     dance-single:
     :
     Medium:
     5:
     :
0000
0000
0000
0000
,
0000
0000
0000
0000
,
0000
0000
0000
0000
,
0010
0000
1000
0000
0001
0010
0200
0000
,
0310
0001
0200
0320
,
1030
0100
0010
0000
0100
0000
1000
0001
,
0100
0010
1000
0100
,
0010
0000
0001
0010
0100
0000
0010
0001
,
0100
0010
1000
0000
0001
0000
0100
0010
,
1000
0000
0100
0000
0010
0000
0001
0010
,
0100
0000
0010
0001
0100
0000
0010
0000
,
1000
0000
0010
0100
0010
1000
0100
0010
,
0001
0000
0010
0100
0010
0000
1002
0000
,
0103
0000
0010
0000
1000
0010
0100
0001
,
1000
0000
0100
0000
0010
0100
0010
0000
,
0001
0000
0010
0000
0100
1000
0001
0100
,
0010
1000
0002
0003
,
0010
0100
0010
0100
,
1000
0001
1000
0001
,
0100
0010
0100
0010
,
1000
0100
0010
0002
,
0103
0010
1000
0010
,
0100
0010
1000
0010
,
0100
0001
0100
0010
,
1000
0100
0010
0200
,
1300
0000
0001
0000
0100
0010
1000
0010
,
0100
0000
0001
0000
0010
0100
1000
0000
,
0100
0010
0001
0010
,
0100
0000
1000
0000
0001
0100
0010
0000
,
1000
0010
0100
0001
,
0010
0000
0100
0000
0010
0001
0010
0100
,
1000
0100
0010
0001
,
0100
1000
0100
0001
,
1000
0100
0010
0100
,
1000
0001
1000
0010
,
0200
0000
0000
0000
0000
0000
0310
1000
,
0100
0000
0010
0000
0001
0010
0100
1000
,
0001
0000
0100
0000
0010
1000
0001
0000
,
0100
0000
0010
0000
1000
0000
0100
0010
,
0100
0000
0010
0000
0001
0000
0010
0100
,
1000
0000
0100
0000
0010
0000
0001
0100
,
0001
1000
0010
0100
,
0001
0000
1000
0000
0100
0010
0100
0000
,
1000
0000
0001
0100
0010
0000
1000
0000
,
0001
0000
1000
0000
0001
1000
0200
0000
,
0310
0001
0020
0230
,
1300
0000
0100
0000
0010
0100
2000
0000
,
3001
0100
0020
2030
,
3002
0000
0000
0003
;

//---------------dance-single - ----------------
#NOTES:
     dance-single:
     :
     Hard:
     8:
     :
0000
0000
0000
0000
,
0000
0000
0000
0000
,
0000
0000
0000
0000
,
0100
0010
0000
0100
0010
0000
0100
0000
0010
0000
0100
0000
0002
0000
0000
0000
,
0103
1000
0000
0100
1000
0000
0100
0000
0020
0000
0000
0000
0031
0000
0100
0000
,
0010
0000
1000
0000
0001
0000
0010
0200
0000
0000
0300
0000
1000
0000
0010
0000
,
0100
0000
0100
0000
0001
0000
0010
0200
0000
0000
0000
0000
0300
0000
0000
0000
,
2000
0000
3010
0100
0001
1000
0100
1000
,
0010
0100
0002
0000
0003
0000
0010
0100
,
1000
0000
0001
0000
0100
0000
0010
2000
0000
0000
3000
0000
0001
0000
0100
0000
,
0001
0000
0001
0000
0010
0000
0100
2000
0000
0000
0000
0000
3000
0000
0000
0000
,
0020
0000
0130
0001
0010
0100
1000
0001
,
0100
0000
0100
0000
0010
1000
0001
0020
0000
0000
0130
0000
2100
0000
0000
0000
,
3002
0000
0103
0020
0000
0000
2030
0000
0000
0000
3010
0000
0100
0000
0001
0000
,
0020
0000
0130
2000
0000
0000
3002
0000
0000
0000
0203
0000
0010
0000
0000
0000
,
0302
0000
1003
0200
0000
0000
0320
0000
0000
0000
0031
0000
1000
0001
1000
0000
,
0010
0100
0001
0100
0010
0100
0001
1000
0020
0000
0000
0000
0030
0000
0000
0000
,
1000
0100
0010
0100
0001
0100
0010
0001
,
0100
0010
1000
0010
0001
0010
1000
0010
,
0100
0001
0010
0001
1000
0001
0010
0100
,
1000
0000
0000
0000
0000
0000
0000
0000
0100
0000
0000
0000
0000
0000
0000
0000
0001
0000
0000
0000
0000
0000
0000
0000
0100
0000
0000
0000
0000
0000
0000
0000
0010
0000
0000
0000
0000
0000
0000
0000
0100
0000
0000
0000
0000
0000
0000
0000
2000
0000
0000
0000
0000
0000
0000
0000
0000
0000
0000
0000
0000
0000
0000
3000
,
0001
0100
0010
0100
1000
0100
0010
1000
,
0001
0010
0100
0010
1000
0010
0001
0100
,
0010
1000
0100
1000
0001
1000
0010
0100
,
0001
0010
1000
0010
0100
0010
0002
0000
,
0103
0000
0000
0010
1000
0000
0001
0000
0000
0000
0010
0000
1000
0000
0010
0000
,
0001
0000
0000
0001
0100
0000
0010
1000
0000
0010
1000
0000
0001
1000
0001
0000
,
0010
0100
1000
0100
0000
0010
0001
1000
,
0010
0100
0001
1000
0000
0100
0010
1000
,
0010
0001
1000
0010
0000
0100
0001
1000
,
0010
0000
0100
0000
0001
0000
0010
0000
0010
0000
0100
0000
1000
0001
1000
0000
,
0100
0010
0001
0010
0000
0100
1000
0001
,
0100
0010
1000
0001
0000
0010
0100
0001
,
0100
1000
0001
0100
0000
0010
1000
0001
,
0100
0000
0010
1000
0000
0001
0100
0000
0001
0010
0000
0100
1000
0000
0001
0100
,
0020
0000
0000
0000
0000
0000
0000
0000
0000
0000
0130
0000
0100
0001
0010
0000
,
0100
0000
1000
0000
0001
0000
0100
0020
0000
0000
0030
0000
1000
0000
0100
0000
,
0010
0000
0010
0000
0001
0000
0010
0200
0000
0000
0000
0000
0300
0000
0000
0000
,
2000
0000
3100
0010
0100
0001
0100
1000
,
0001
0100
0020
0000
0030
0000
0100
0001
,
0010
0000
0001
0000
0100
0000
1000
0200
0000
0000
0300
0000
0010
0000
1000
0000
,
0001
0000
0001
0000
0010
0000
0100
0002
0000
0000
0000
0000
0003
0000
0000
0000
,
0200
0000
1300
0010
0100
0001
0010
0100
,
1000
0000
0001
0000
0100
0010
1000
0002
0000
0000
0013
0000
0110
0000
0000
0000
,
1000
0001
0000
1000
0001
0000
1000
0000
0001
0000
1000
0000
0020
0000
0000
0000
,
0130
0001
0000
0100
0001
0000
0100
0000
0020
0000
0000
0000
2030
0000
0000
0000
,
3100
0001
0000
0100
0001
0000
0100
0000
0001
0000
0100
0000
2000
0000
0000
0000
,
3001
0100
0000
0001
0100
0000
0001
0000
2000
0000
0000
0000
3200
0000
0000
0000
,
0320
0000
0000
0000
0000
0000
0031
1000
;

//---------------dance-double - ----------------
#NOTES:
     dance-double:
     :
     Beginner:
     1:
     :
00000000
00000000
00000000
00000000
,
00000000
00000000
00000000
00000000
,
00000000
00000000
00000000
00000000
,
10000000
00000000
01000000
00000000
,
00100000
00000000
00000000
00000000
,
00001000
00000000
00010000
00000000
,
00001000
00000000
00000000
00000000
,
00010000
00000000
00000000
00000000
,
00000100
00000000
00000000
00000000
,
00001000
00000000
00000001
00000000
,
00001000
00000000
00000000
00000000
,
00000010
00000000
00000100
00000000
,
00000010
00000000
00010000
00000000
,
00011000
00000000
00000000
00000000
,
00001000
00000000
00100000
00000000
,
01100000
00000000
00000000
00000000
,
01000000
00000000
10000000
00000000
,
00010000
00000000
00010000
00000000
,
00010000
00000000
00000000
00000000
,
00100000
00000000
00100000
00000000
,
00100000
00000000
00000000
00000000
,
00001000
00000000
00001000
00000000
,
00001000
00000000
00000000
00000000
,
00010000
00000000
00010000
00000000
,
00010000
00000000
00000000
00000000
,
00000100
00000000
00001000
00000000
,
00000001
00000000
00000100
00000000
,
00000010
00000000
00000000
00000000
,
00010000
00000000
00000000
00000000
,
00001000
00000000
00000000
00000000
,
00100000
00000000
00000000
00000000
,
00010000
00000000
00000000
00000000
,
10000000
00000000
00000000
00000000
,
00100000
00000000
00000000
00000000
,
01000000
00000000
00001000
00000000
,
00011000
00000000
00000000
00000000
,
00010000
00000000
00000100
00000000
,
00010000
00000000
00000000
00000000
,
00000100
00000000
00000010
00000000
,
00000100
00000000
00000000
00000000
,
00000010
00000000
00000001
00000000
,
00001000
00000000
00000000
00000000
,
00000100
00000000
00010000
00000000
,
00001000
00000000
01000000
00000000
,
01100000
00000000
00000000
00000000
,
00100000
00000000
10000000
00000000
,
00010000
00000000
00000000
00000000
,
00100000
00000000
00001000
00000000
,
00022000
00000000
00000000
00033000
;

//---------------dance-double - ----------------
#NOTES:
     dance-double:
     :
     Easy:
     3:
     :
00000000
00000000
00000000
00000000
,
00000000
00000000
00000000
00000000
,
00000000
00000000
00000000
00000000
,
00000001
00000000
00000010
00000100
,
00010000
00000000
00001000
00100000
,
00010000
00000000
00010000
00000000
,
01000000
00000000
00000000
00000000
,
01000000
00000000
01000000
00000000
,
00100000
00000000
00000000
00000000
,
10000000
00000000
01000000
00000000
,
00010000
00000000
00000000
00000000
,
00010000
00000000
01000000
00000000
,
10000000
00000000
00010000
00000000
,
10000000
00000000
00100000
00000000
,
01000000
00000000
00001000
00010000
,
00001000
00000000
00010000
00000000
,
00000100
00001000
00000010
00000000
,
00000100
00000001
00000100
00000000
,
00000010
00001000
00000010
00000000
,
00010000
00001000
00010000
00000000
,
00001000
00100000
00001000
00000000
,
00100000
01000000
00100000
00000000
,
01000000
10000000
01000000
00000000
,
10000000
00100000
10000000
00000000
,
00100000
01000000
00001000
00010000
,
00001000
00000000
00001000
00000000
,
00010000
00000000
00010000
00000000
,
00000100
00000000
00001000
00000000
,
00000010
00000000
00001000
00000001
,
00001000
00000000
00000100
00000000
,
00010000
00000000
00001000
00100000
,
00010000
00000000
01000000
00000000
,
00100000
00000000
10000000
00100000
,
10000000
00000000
01000000
00000000
,
00100000
00000000
00001000
00010000
,
00001000
00000000
00000000
00010000
,
00000100
00000000
00001000
00000100
,
00000010
00000000
00000010
00000100
,
00001000
00000000
00000010
00001000
,
00000100
00000000
00000010
00000001
,
00000100
00000000
00000010
00010000
,
00001000
00000000
00001000
00100000
,
00010000
00000000
00100000
01000000
,
10000000
01000000
00010000
00000000
,
00001000
00000000
00010000
00000000
,
00000100
00000000
00001000
00000010
,
00000100
00000000
00000001
00000000
,
00000010
00000100
00010000
00001000
,
00020000
00000000
00000000
00030000
;

//---------------dance-double - ----------------
#NOTES:
     dance-double:
     :
     Medium:
     4:
     :
00000000
00000000
00000000
00000000
,
00000000
00000000
00000000
00000000
,
00000000
00000000
00000000
00000000
,
10000000
00000000
01000000
00000000
00100000
00001000
00020000
00000000
,
00030100
00001000
00000020
00000230
,
00000301
00000010
00000100
00000000
00010000
00000000
00001000
00010000
,
00001000
00100000
00010000
01000000
,
00100000
00000000
10000000
00010000
10000000
00000000
00010000
00100000
,
00001000
00010000
00001000
00000000
00010000
00000000
00000100
00001000
,
00000100
00000000
00000010
00000000
00000001
00000000
00000100
00000010
,
00010000
00000000
00001000
00010000
00001000
00000000
00100000
00000000
,
00010000
00000000
10000000
00010000
10000000
00010000
01000000
00100000
,
10000000
00000000
00010000
01000000
00010000
00000000
00210000
00000000
,
00301000
00000000
00010000
00000000
00000100
00001000
00000010
00001000
,
00000100
00000000
00001000
00000000
00000001
00000100
00000010
00000000
,
00010000
00000000
00001000
00000000
00100000
00010000
10000000
01000000
,
00100000
00010000
02000000
03000000
,
00001000
00010000
00000100
00010000
,
00001000
00010000
00000100
00001000
,
00000010
00000100
00000001
00000100
,
00000010
00001000
00000100
00020000
,
00031000
00100000
01000000
00100000
,
00010000
00100000
01000000
00100000
,
00010000
10000000
00100000
01000000
,
00100000
10000000
01000000
00020000
,
00031000
00000000
00010000
00000000
00000010
00001000
00000001
00001000
,
00000010
00000000
00000100
00000000
00000001
00001000
00000100
00000000
,
00000010
00000100
00010000
00001000
,
00100000
00000000
00010000
00000000
01000000
00100000
10000000
00000000
,
00010000
00100000
01000000
00010000
,
00001000
00000000
00000100
00000000
00000010
00001000
00000001
00001000
,
00000001
00000010
00000100
00010000
,
00001000
00100000
01000000
10000000
,
00010000
01000000
00100000
10000000
,
00100000
01000000
00001000
00100000
,
00002000
00000000
00000000
00000000
00000000
00000000
00003100
00000010
,
00000100
00000000
00000001
00000000
00000010
00000100
00010000
00001000
,
00010000
00000000
00001000
00000000
00100000
00010000
01000000
00000000
,
00100000
00000000
10000000
00000000
00010000
00000000
00100000
00001000
,
00010000
00000000
00000100
00000000
00001000
00000000
00000010
00000100
,
00000001
00000000
00000010
00000000
00000100
00000000
00010000
00001000
,
00010000
00001000
00100000
00010000
,
01000000
00000000
10000000
00000000
01000000
00100000
01000000
00000000
,
00100000
00000000
10000000
01000000
00010000
00000000
00001000
00000000
,
00010000
00000000
00001000
00000000
00000100
00000010
00002000
00000000
,
00003001
00000010
00000200
00020300
,
00031000
00000000
00100000
00000000
00010000
01000000
00200000
00000000
,
10300000
01000000
00200000
00302000
,
00023000
00000000
00000000
00030000
;

//---------------dance-double - ----------------
#NOTES:
     dance-double:
     :
     Hard:
     8:
     :
00000000
00000000
00000000
00000000
,
00000000
00000000
00000000
00000000
,
00000000
00000000
00000000
00000000
,
00000001
00001000
00000000
00000001
00001000
00000000
00000100
00000000
00010000
00000000
00001000
00000000
00200000
00000000
00000000
00000000
,
00310000
01000000
00000000
00010000
01000000
00000000
00100000
00000000
20000000
00000000
00000000
00000000
31000000
00000000
00100000
00000000
,
00001000
00000000
00010000
00000000
00000100
00000000
00001000
00000020
00000000
00000000
00000030
00000000
00000100
00000000
00000001
00000000
,
00000010
00000000
00000010
00000000
00000100
00000000
00010000
00002000
00000000
00000000
00000000
00000000
00003000
00000000
00000000
00000000
,
00200000
00000000
00310000
10000000
01000000
00010000
00001000
00010000
,
00000010
00001000
00000002
00000000
00000003
00000000
00000001
00000100
,
00001000
00000000
00000100
00000000
00000001
00000000
00000010
00000200
00000000
00000000
00000300
00000000
00010000
00000000
00001000
00000000
,
00100000
00000000
00100000
00000000
00010000
00000000
01000000
20000000
00000000
00000000
00000000
00000000
30000000
00000000
00000000
00000000
,
02000000
00000000
03100000
10000000
01000000
00100000
00001000
00010000
,
00001000
00000000
00001000
00000000
00010000
00000100
00001000
00000002
00000000
00000000
00000103
00000000
00000201
00000000
00000000
00000000
,
00000310
00000000
00000000
00010000
00001000
00000000
00100000
00010000
00000000
00010000
01000000
00000000
00100000
00000000
10000000
00000000
,
00010000
00000000
00000000
00010000
00100000
00000000
00001000
00010000
00000000
00010000
00001000
00000000
00000200
00000000
00000000
00000000
,
00000310
00000000
00000000
00001000
00000001
00000000
00000010
00000100
00000000
00010000
00001000
00000000
00100000
00010000
10000000
00000000
,
00100000
10000000
00010000
10000000
00100000
10000000
01000000
00100000
00002000
00000000
00000000
00000000
00003000
00000000
00000000
00000000
,
00010000
00001000
00000100
00001000
00010000
00001000
00000100
00000010
,
00001000
00000001
00000010
00000001
00000100
00000001
00000010
00000100
,
00010000
00001000
00100000
00001000
01000000
00001000
00100000
00010000
,
01000000
00000000
00000000
00000000
00000000
00000000
00000000
00000000
00100000
00000000
00000000
00000000
00000000
00000000
00000000
00000000
10000000
00000000
00000000
00000000
00000000
00000000
00000000
00000000
00100000
00000000
00000000
00000000
00000000
00000000
00000000
00000000
00010000
00000000
00000000
00000000
00000000
00000000
00000000
00000000
00100000
00000000
00000000
00000000
00000000
00000000
00000000
00000000
20000000
00000000
00000000
00000000
00000000
00000000
00000000
00000000
00000000
00000000
00000000
00000000
00000000
00000000
00000000
30000000
,
00010000
01000000
00100000
01000000
10000000
01000000
00001000
00010000
,
00000100
00000010
00000001
00000010
00001000
00000010
00000001
00001000
,
00000010
00000100
00000001
00000100
00001000
00010000
00100000
10000000
,
00010000
00100000
01000000
00100000
10000000
00100000
00020000
00000000
,
00130000
00000000
00000000
00001000
00010000
00000000
00000100
00000000
00000000
00000000
00001000
00000000
00000010
00000000
00000100
00000000
,
00000001
00000000
00000000
00000001
00001000
00000000
00000100
00010000
00000000
00001000
00010000
00000000
00001000
00100000
00010000
00000000
,
00100000
01000000
10000000
01000000
00000000
00010000
00001000
00000100
,
00000010
00001000
00000001
00000010
00000000
00000100
00010000
00001000
,
00100000
00010000
10000000
00100000
00000000
01000000
00100000
00010000
,
00001000
00000000
00000010
00000000
00000100
00000000
00001000
00000000
00001000
00000000
00000001
00000000
00000100
00000010
00000100
00000000
,
00000010
00010000
00001000
00100000
00000000
00010000
00100000
10000000
,
00100000
00001000
00010000
00000100
00000000
00001000
00000001
00000100
,
00001000
00000100
00000010
00001000
00000000
00000100
00010000
00001000
,
00100000
00000000
01000000
10000000
00000000
00010000
01000000
00000000
00100000
10000000
00000000
01000000
00100000
00000000
00001000
00010000
,
00002000
00000000
00000000
00000000
00000000
00000000
00000000
00000000
00000000
00000000
00013000
00000000
00010000
00000010
00001000
00000000
,
00000010
00000000
00000100
00000000
00000001
00000000
00000010
00000200
00000000
00000000
00000300
00000000
00010000
00000000
00001000
00000000
,
01000000
00000000
01000000
00000000
00100000
00000000
10000000
00020000
00000000
00000000
00000000
00000000
00030000
00000000
00000000
00000000
,
00200000
00000000
01300000
00100000
01000000
00010000
01000000
10000000
,
00100000
00010000
00002000
00000000
00003000
00000000
00000100
00000010
,
00001000
00000000
00000001
00000000
00000010
00000000
00000100
00020000
00000000
00000000
00030000
00000000
00001000
00000000
00100000
00000000
,
01000000
00000000
01000000
00000000
10000000
00000000
01000000
00020000
00000000
00000000
00000000
00000000
00030000
00000000
00000000
00000000
,
00002000
00000000
00003100
00000001
00001000
00000100
00010000
00001000
,
00100000
00000000
00010000
00000000
10000000
01000000
00100000
00020000
00000000
00000000
00130000
00000000
00101000
00000000
00000000
00000000
,
00001000
00010000
00000000
00001000
00010000
00000000
00001000
00000000
00000100
00000000
00000010
00000000
00002000
00000000
00000000
00000000
,
00003001
00000010
00000000
00000001
00000010
00000000
00000100
00000000
00020000
00000000
00000000
00000000
00032000
00000000
00000000
00000000
,
00103000
00010000
00000000
00100000
00010000
00000000
01000000
00000000
00100000
00000000
10000000
00000000
00020000
00000000
00000000
00000000
,
00130000
00001000
00000000
00100000
00001000
00000000
00010000
00000000
00000200
00000000
00000000
00000000
00002300
00000000
00000000
00000000
,
00003002
00000000
00000000
00000000
00000000
00000000
00001003
00000010
;
