#TITLE:錯左聰明 (鍾欣桐);
#ARTIST:Twins;
#TITLETRANSLIT:CUO ZAI CONG MING (Gillian Chung);
#BANNER:CUO ZAI CONG MING (Gillian Chung).png;
#BACKGROUND:CUO ZAI CONG MING (Gillian Chung)-bg.png;
#CDTITLE:./CDTITLES/DanceDanceRevolution UNIVERSE3 Chinese Special Edition.png;
#MUSIC:CUO ZAI CONG MING (Gillian Chung).ogg;
#SAMPLESTART:27.272;
#SAMPLELENGTH:15;
#BPMS:0=110;

//---------------dance-single - ----------------
#NOTES:
     dance-single:
     :
     Beginner:
     1:
     :
0000
0000
0000
0000
,
0000
0000
0000
0000
,
0000
0000
0000
0000
,
0001
0000
0000
0000
,
1000
0000
0000
0000
,
0100
0000
0000
0000
,
0100
0000
0000
0000
,
0010
0000
0010
0000
,
0010
0000
0000
0000
,
0001
0000
0000
0000
,
0001
0000
0000
0000
,
1000
0000
0001
0000
,
1000
0000
0000
0000
,
1001
0000
0000
0000
,
0001
0000
0000
0000
,
0100
0000
0000
0000
,
0010
0000
0000
0000
,
1000
0000
0000
0000
,
0100
0000
0000
0000
,
0010
0000
0000
0000
,
0100
0000
0000
0000
,
0110
0000
0000
0000
,
0010
0000
0000
0000
,
0001
0000
0000
0000
,
1000
0000
0000
0000
,
1000
0000
0000
0000
,
0001
0000
0000
0000
,
0001
0000
0000
0000
,
0100
0000
0000
0000
,
0110
0000
0000
0000
,
0010
0000
0000
0000
,
1000
0000
1000
0000
,
1000
0000
0000
0000
,
0100
0000
0000
0000
,
0100
0000
0100
0000
,
0010
0000
0000
0000
,
0001
0000
0000
0000
,
1001
0000
0000
0000
,
1000
0000
0000
0000
,
0001
0000
0000
0000
,
0100
0000
0000
0000
,
0010
0000
0000
0000
,
1000
0000
0000
0000
,
0100
0000
0100
0000
,
0100
0000
0010
0000
,
0010
0000
0000
0000
,
0001
0000
0000
0000
,
0010
0000
0000
0000
,
0100
0000
0000
0000
,
1000
0000
0000
0000
,
0001
0000
0000
0000
,
0100
0000
0000
0000
,
0010
0000
0000
0000
,
0000
0010
0000
0000
,
0000
1000
0000
0000
,
0000
0000
0200
0000
,
0000
0000
0000
0000
,
0000
0300
0000
0000
0000
0000
0000
0000
;

//---------------dance-single - ----------------
#NOTES:
     dance-single:
     :
     Easy:
     2:
     :
0000
0000
0000
0000
,
0000
0000
0000
0000
,
0000
0000
0000
0000
,
1000
0000
0010
0000
,
0100
0000
0001
0000
,
0010
0000
0010
0000
,
0100
0000
0000
0000
,
1000
0000
1000
0000
,
0001
0000
0000
0000
,
0100
0000
0010
0000
,
0100
0000
0010
0000
,
1000
0000
0001
0000
,
1000
0000
0000
0000
,
0100
0000
0100
0000
,
0010
0000
0000
0001
,
1000
0000
1000
0000
,
0010
0000
0000
0100
,
0001
0000
0001
0000
,
0010
0000
0010
0000
,
0100
0000
1000
0000
,
0001
0000
0100
0000
,
0110
0000
0010
0000
,
1000
0000
0000
0000
,
1001
0000
0001
0000
,
0010
0000
0100
0000
,
1000
0000
1000
0000
,
0001
0000
0001
0000
,
0100
0000
0000
0000
,
0010
0000
0010
0000
,
1000
0000
0001
0000
,
0010
0000
0100
1000
,
0001
0000
0001
0000
,
0100
0000
0001
0000
,
1000
0000
0000
0000
,
0100
0000
0010
0000
,
0110
0000
0100
0000
,
1000
0000
0001
0000
,
1001
0000
0001
0000
,
0100
0000
0000
0000
,
0010
0000
1000
0000
,
0001
0000
0000
0000
,
1000
0000
0100
0000
,
0001
0000
0000
0000
,
0001
0000
0100
0000
,
1000
0000
0000
0000
,
1001
0000
0001
0000
,
0100
0000
0000
0000
,
0110
0000
0010
0000
,
1000
0000
0000
0000
,
1001
0000
0001
0000
,
1000
0000
0010
0000
,
0100
0000
0001
0000
,
0010
0000
0100
0000
,
0000
1000
0000
0000
,
0000
0001
0000
0000
,
0000
0000
0200
0000
,
0000
0000
0000
0000
,
0000
0300
0000
0000
0000
0000
0000
0000
;

//---------------dance-single - ----------------
#NOTES:
     dance-single:
     :
     Medium:
     4:
     :
0000
0000
0000
0000
,
0000
0000
0000
0000
,
0000
0000
0000
0000
,
0001
1000
0000
0001
0000
1000
0000
0100
,
0000
0000
0000
0000
,
0010
0000
0001
1000
0000
0000
0010
0100
,
0000
0001
0000
0000
1000
0000
0100
0000
,
0010
0000
0001
0010
0000
0100
1000
0001
,
0000
0100
0000
0000
0010
0000
1000
0100
,
0000
0010
0000
0000
0001
0000
0010
0100
,
0000
1000
0000
0001
0000
0100
0010
1000
,
0001
0000
0000
0100
0010
0000
1000
0100
,
0000
0010
0000
0000
0100
0000
1000
0000
,
0001
0000
0000
0010
0000
0000
0100
0000
,
1000
0000
0010
0100
,
0001
0000
0000
0100
0000
0000
0010
0000
,
1000
0100
0010
0001
,
1000
0000
0010
0000
0100
0001
0100
0000
,
0010
0000
1000
0000
0100
0010
0001
0000
,
0010
0000
0000
0000
0100
1000
0100
0000
,
0010
0000
0001
0100
,
0010
0000
1000
0001
0000
0000
0010
0000
,
0100
0000
1000
0010
,
0100
0000
0001
1000
0000
0000
0100
0010
,
0000
0001
0000
0000
0100
0000
0001
0000
,
0010
0000
0000
0100
0000
0000
1000
0010
,
0000
0100
0000
0001
0000
0010
0100
0000
,
1000
0000
0000
0000
0000
0000
0010
0100
,
0000
0000
0001
0000
1000
0000
0100
0010
,
0100
0000
0000
1000
0001
0100
0000
0100
,
0000
0000
0000
0010
1000
0000
0001
0000
,
0010
0000
0000
0001
1000
0010
0000
0010
,
0000
0100
0000
0001
1000
0000
0100
0000
,
0110
0000
0010
0001
,
1001
0000
1000
0010
,
0110
0000
0000
0100
0001
0000
0010
0100
,
0000
1000
0001
1000
0001
0000
0100
0000
,
0010
0000
1000
0100
,
0010
0000
0000
0000
0001
0000
0010
0100
,
1000
0000
0001
0000
,
0100
0000
0000
0000
0010
0000
1000
0001
,
1000
0000
0000
0000
0100
0000
0000
0010
,
0001
0000
0000
0000
0010
0000
0000
0100
,
1000
0000
0000
0001
0000
0100
0010
1000
,
0000
0010
0000
1000
0100
0000
0010
0001
,
1000
0000
0000
0000
0010
0000
0100
0001
,
0000
1000
0000
0000
1000
0000
0001
0100
,
0010
0000
0000
0000
0010
0000
1000
0001
,
0000
0010
0000
0000
0100
0000
1000
0000
,
0001
0000
0000
0000
0010
0000
0100
1000
,
0000
0010
0000
0100
0000
0001
1000
0100
,
0010
0000
0000
0000
,
0010
0000
0100
0000
,
0000
1000
0000
0001
,
0000
0100
0000
0010
,
1000
0000
0200
0000
,
0000
0000
0000
0000
,
0000
0300
0000
0000
0000
0000
0000
0000
;

//---------------dance-single - ----------------
#NOTES:
     dance-single:
     :
     Hard:
     7:
     :
0000
0000
0000
0000
,
0000
0000
0000
0000
,
0000
0000
0000
0000
,
0001
2000
0000
3010
0000
0100
0000
0002
,
0000
0010
0000
0103
0010
1000
0001
0000
,
0010
0100
0010
0001
0000
0010
0100
0010
,
0000
0001
0000
0000
0100
0010
1000
0001
,
1000
0010
0100
0001
0000
0010
0100
1000
,
0000
0001
0000
0000
0100
0010
1000
0100
,
0000
0010
0000
0001
1000
0010
1000
0001
,
0000
0010
0000
0100
0000
1000
0001
0010
,
0100
0000
0000
1000
0001
0100
0010
1000
,
0000
0001
0000
0000
1000
0000
0100
0000
,
0011
0000
0100
1000
0000
0001
0000
0100
,
0000
0010
0000
0000
1000
0000
0001
0000
,
0010
0000
0100
1000
0000
0001
0000
0100
,
0000
0010
0000
1000
0000
0010
0100
0001
,
0000
0010
0000
0100
1000
0010
1000
0001
,
0000
0100
0000
0010
1000
0001
0010
0001
,
0000
0100
0010
1000
0001
0100
1000
0000
,
0100
1001
0000
0000
0001
0000
0100
0000
,
1010
0000
0001
1000
0000
0100
0000
0010
,
0000
0001
0000
0000
1000
0000
0001
0000
,
0100
0000
0010
1000
0000
0001
0010
1000
,
0000
0010
0000
0000
0001
0000
0100
0000
,
0010
0000
0000
1000
0100
0010
0001
1000
,
0000
0100
0000
0001
0000
0100
0010
0001
,
1000
0000
0000
0000
0000
0010
0100
0001
,
1000
0100
1000
0100
0010
0001
1000
0001
,
0100
1000
0100
0001
0000
0010
0000
0200
,
0000
0000
0000
0000
0300
0000
1000
0100
0010
0000
0100
0000
1000
0000
0001
0000
,
0200
0000
0310
0020
0000
2030
0000
3002
,
0000
0000
0023
0000
0000
0000
0230
0000
0000
0000
0000
0000
0000
0000
1300
0100
,
2000
0000
0000
0000
0000
0000
0000
0000
0000
0000
0000
0000
0000
0000
3001
0100
,
0001
0010
0100
0020
0000
0031
0100
2000
,
0000
0000
0000
3200
0000
0320
0000
2030
,
0000
3001
0010
2000
0000
3010
0001
0100
,
0010
0000
1000
0001
0000
0010
0000
0100
,
0000
1000
0000
0000
0001
0000
0100
0000
,
1000
0000
0100
0001
0000
1000
0100
1000
,
0000
0010
0000
0100
0001
1000
0001
0010
,
0000
0100
1000
0001
0010
1000
0010
0001
,
0000
0100
0000
0010
1000
0010
0100
0001
,
0000
0010
0100
1000
0100
0010
0001
1000
,
0000
0001
0000
0000
0010
0000
0100
0000
,
1001
0000
1000
0010
0000
0100
0001
0011
,
0000
0010
0000
0000
0100
0000
1000
0000
,
1010
0000
0100
0001
0100
0010
1000
1100
,
0000
0001
0000
0000
1000
0000
0001
0000
,
0011
0000
0000
0010
0100
1000
0001
1001
,
0000
0100
0000
1010
0000
0100
0001
0010
,
0100
0000
0000
0000
0000
1000
0001
0100
,
0000
0000
0010
0000
1000
0000
0001
0000
0000
0010
0000
0000
0100
0000
0000
0000
,
0000
0000
0000
0000
0000
0000
0000
1000
0000
0000
0000
0000
0000
0000
0000
0000
0000
0000
0000
0000
0000
0000
0000
0001
0000
0000
0000
0000
0000
0000
0000
0000
,
0000
0000
0000
0000
0000
0000
0000
0100
0000
0000
0000
0000
0000
0000
0000
0000
0000
0000
0000
0000
0000
0000
0010
0000
0000
0000
0000
0000
0000
0000
0000
0000
,
1000
0000
0200
0000
,
0000
0000
0000
0000
,
0000
0310
0000
0000
0000
0000
0000
0000
;

//---------------dance-double - ----------------
#NOTES:
     dance-double:
     :
     Beginner:
     1:
     :
00000000
00000000
00000000
00000000
,
00000000
00000000
00000000
00000000
,
00000000
00000000
00000000
00000000
,
10000000
00000000
00000000
00000000
,
01000000
00000000
00000000
00000000
,
00100000
00000000
00000000
00000000
,
00001000
00000000
00000000
00000000
,
00010000
00000000
00010000
00000000
,
00000100
00000000
00000000
00000000
,
00001000
00000000
00000000
00000000
,
00000010
00000000
00000000
00000000
,
00000100
00000000
00000001
00000000
,
00000001
00000000
00000000
00000000
,
00001001
00000000
00000000
00000000
,
00001000
00000000
00000000
00000000
,
00000100
00000000
00000000
00000000
,
00010000
00000000
00000000
00000000
,
00001000
00000000
00000000
00000000
,
00100000
00000000
00000000
00000000
,
00010000
00000000
00000000
00000000
,
01000000
00000000
00000000
00000000
,
01100000
00000000
00000000
00000000
,
00100000
00000000
00000000
00000000
,
10000000
00000000
10000000
00000000
,
01000000
00000000
00000000
00000000
,
00100000
00000000
00100000
00000000
,
00001000
00000000
00000000
00000000
,
00010000
00000000
00000000
00000000
,
00000100
00000000
00000000
00000000
,
00000110
00000000
00000000
00000000
,
00000010
00000000
00000000
00000000
,
00000001
00000000
00001000
00000000
,
00000001
00000000
00000000
00000000
,
00000100
00000000
00000000
00000000
,
00000010
00000000
00010000
00000000
,
00000010
00000000
00000000
00000000
,
00010000
00000000
00000000
00000000
,
00011000
00000000
00000000
00000000
,
00001000
00000000
00000000
00000000
,
00100000
00000000
00000000
00000000
,
00010000
00000000
00000000
00000000
,
01000000
00000000
00000000
00000000
,
00100000
00000000
00000000
00000000
,
10000000
00000000
10000000
00000000
,
01000000
00000000
01000000
00000000
,
00010000
00000000
00000000
00000000
,
00001000
00000000
00000000
00000000
,
00000010
00000000
00000000
00000000
,
00000001
00000000
00000000
00000000
,
00000100
00000000
00000000
00000000
,
00000010
00000000
00000000
00000000
,
00010000
00000000
00000000
00000000
,
00001000
00000000
00000000
00000000
,
00000000
00100000
00000000
00000000
,
00000000
00010000
00000000
00000000
,
00000000
00000000
20000000
00000000
,
00000000
00000000
00000000
00000000
,
00000000
30000000
00000000
00000000
00000000
00000000
00000000
00000000
;

//---------------dance-double - ----------------
#NOTES:
     dance-double:
     :
     Easy:
     2:
     :
00000000
00000000
00000000
00000000
,
00000000
00000000
00000000
00000000
,
00000000
00000000
00000000
00000000
,
00000001
00000000
00000010
00000000
,
00000100
00000000
00010000
00000000
,
00001000
00000000
00001000
00000000
,
00100000
00000000
00000000
00000000
,
00010000
00000000
00010000
00000000
,
01000000
00000000
00000000
00000000
,
00100000
00000000
10000000
00000000
,
01000000
00000000
00100000
00000000
,
00001000
00000000
00010000
00000000
,
00001000
00000000
00000000
00000000
,
00011000
00000000
00010000
00000000
,
00000010
00000000
00000000
00000100
,
00000001
00000000
00000010
00000000
,
00000100
00000000
00000000
00000100
,
00010000
00000000
00010000
00000000
,
00001000
00000000
00001000
00000000
,
01000000
00000000
00100000
00000000
,
10000000
00000000
01000000
00000000
,
01100000
00000000
00100000
00000000
,
00001000
00000000
00000000
00000000
,
00011000
00000000
00010000
00000000
,
00000100
00000000
00001000
00000000
,
00000010
00000000
00000010
00000000
,
00000100
00000000
00000100
00000000
,
00000001
00000000
00000000
00000000
,
00001000
00000000
00000100
00000000
,
00010000
00000000
00001000
00000000
,
01000000
00000000
00100000
10000000
,
00010000
00000000
00100000
00000000
,
00001000
00000000
00010000
00000000
,
00000100
00000000
00000000
00000000
,
00000010
00000000
00000001
00000000
,
00001001
00000000
00001000
00000000
,
00000010
00000000
00010000
00000000
,
00011000
00000000
00001000
00000000
,
00100000
00000000
00000000
00000000
,
00010000
00000000
00100000
00000000
,
01000000
00000000
00000000
00000000
,
10000000
00000000
01000000
00000000
,
00010000
00000000
00000000
00000000
,
00001000
00000000
00000100
00000000
,
00000001
00000000
00000000
00000000
,
00001001
00000000
00000001
00000000
,
00000100
00000000
00000000
00000000
,
00000110
00000000
00000010
00000000
,
00010000
00000000
00000000
00000000
,
00011000
00000000
00001000
00000000
,
00100000
00000000
00010000
00000000
,
10000000
00000000
00100000
00000000
,
01000000
00000000
00001000
00000000
,
00000000
00010000
00000000
00000000
,
00000000
00000100
00000000
00000000
,
00000000
00000000
00000020
00000000
,
00000000
00000000
00000000
00000000
,
00000000
00000030
00000000
00000000
00000000
00000000
00000000
00000000
;

//---------------dance-double - ----------------
#NOTES:
     dance-double:
     :
     Medium:
     4:
     :
00000000
00000000
00000000
00000000
,
00000000
00000000
00000000
00000000
,
00000000
00000000
00000000
00000000
,
10000000
01000000
00000000
00100000
00000000
01000000
00000000
00100000
,
00000000
00000000
00000000
00000000
,
00001000
00000000
00010000
00000100
00000000
00000000
00001000
00000010
,
00000000
00000100
00000000
00000000
00000001
00000000
00000010
00000000
,
00000100
00000000
00010000
00001000
00000000
00100000
00010000
10000000
,
00000000
00100000
00000000
00000000
01000000
00000000
00100000
00010000
,
00000000
00001000
00000000
00000000
00010000
00000000
00000100
00001000
,
00000000
00000001
00000000
00001000
00000000
00000010
00010000
00000010
,
00001000
00000000
00000000
00000100
00010000
00000000
00001000
00100000
,
00000000
00010000
00000000
00000000
00100000
00000000
01000000
00000000
,
10000000
00000000
00000000
00100000
00000000
00000000
01000000
00000000
,
00001000
00000000
00010000
00000100
,
00001000
00000000
00000000
00000100
00000000
00000000
00000010
00000000
,
00001000
00000010
00000001
00000100
,
00001000
00000000
00010000
00000000
00100000
10000000
00010000
00000000
,
00100000
00000000
01000000
00000000
00100000
00001000
00010000
00000000
,
00000010
00000000
00000000
00000000
00000100
00000001
00001000
00000000
,
00000010
00000000
00010000
00001000
,
00100000
00000000
00010000
10000000
00000000
00000000
01000000
00000000
,
00010000
00000000
00001000
00000100
,
00000001
00000000
00000010
00000100
00000000
00000000
00010000
00001000
,
00000000
00100000
00000000
00000000
00010000
00000000
10000000
00000000
,
00100000
00000000
00000000
01000000
00000000
00000000
00001000
00010000
,
00000000
00000100
00000000
00001000
00000000
00000010
00000100
00000000
,
00000001
00000000
00000000
00000000
00000000
00000000
00001000
00000100
,
00000000
00000000
00010000
00000000
00001000
00000000
00100000
00010000
,
00100000
00000000
00000000
01000000
10000000
00010000
00000000
01000000
,
00000000
00000000
00000000
00100000
00010000
00000000
00001000
00000000
,
00000100
00000000
00000000
00000001
00001000
00000001
00000000
00000010
,
00000000
00000100
00000000
00010000
00001000
00000000
00100000
00000000
,
00110000
00000000
00010000
01000000
,
01010000
00000000
00100000
10000000
,
10100000
00000000
00000000
10000000
01000000
00000000
00010000
00001000
,
00000000
00000100
00000010
00000100
00000010
00000000
00001000
00000000
,
00000001
00000000
00000010
00000100
,
00010000
00000000
00000000
00000000
00001000
00000000
00100000
00010000
,
10000000
00000000
00100000
00000000
,
01000000
00000000
00000000
00000000
00001000
00000000
00010000
00000100
,
00001000
00000000
00000000
00000000
00000010
00000000
00000000
00001000
,
00000001
00000000
00000000
00000000
00000010
00000000
00000000
00001000
,
00000010
00000000
00000000
00000100
00000000
00010000
00001000
01000000
,
00000000
00010000
00000000
01000000
00100000
00000000
10000000
00010000
,
10000000
00000000
00000000
00000000
00100000
00000000
01000000
00001000
,
00000000
00010000
00000000
00000000
00000010
00000000
00000100
00001000
,
00000100
00000000
00000000
00000000
00000001
00000000
00001000
00000010
,
00000000
00010000
00000000
00000000
00001000
00000000
00100000
00000000
,
00010000
00000000
00000000
00000000
00100000
00000000
01000000
10000000
,
00000000
00100000
00000000
01000000
00000000
00001000
00010000
00001000
,
00010000
00000000
00000000
00000000
,
00000100
00000000
00000010
00000000
,
00000000
00000001
00000000
00000100
,
00000000
00001000
00000000
00010000
,
01000000
00000000
20000000
00000000
,
00000000
00000000
00000000
00000000
,
00000000
30000000
00000000
00000000
00000000
00000000
00000000
00000000
;

//---------------dance-double - ----------------
#NOTES:
     dance-double:
     :
     Hard:
     7:
     :
00000000
00000000
00000000
00000000
,
00000000
00000000
00000000
00000000
,
00000000
00000000
00000000
00000000
,
00000001
00000200
00000000
00000310
00000000
00010000
00000000
00002000
,
00000000
00100000
00000000
00013000
01000000
10000000
00100000
00000000
,
01000000
10000000
01000000
00010000
00000000
01000000
10000000
01000000
,
00000000
00001000
00000000
00000000
00100000
00001000
00010000
00000100
,
00001000
00000010
00000100
00001000
00000000
00000100
00000001
00001000
,
00000000
00000010
00000000
00000000
00000100
00010000
00001000
00100000
,
00000000
00010000
00000000
01000000
00100000
10000000
01000000
00100000
,
00000000
00001000
00000000
00010000
00000000
00000100
00001000
00000010
,
00001000
00000000
00000000
00000001
00000100
00000010
00010000
00001000
,
00000000
00100000
00000000
00000000
00010000
00000000
00100000
00000000
,
11000000
00000000
00100000
00001000
00000000
00010000
00000000
00000100
,
00000000
00001000
00000000
00000000
00000010
00000000
00001000
00000000
,
00000001
00000000
00000010
00000100
00000000
00000010
00000000
00001000
,
00000000
00010000
00000000
00100000
00000000
10000000
00010000
01000000
,
00000000
00100000
00000000
00010000
00001000
00010000
00000100
00010000
,
00000000
00000010
00000000
00000100
00000001
00000100
00001000
00010000
,
00000000
00100000
10000000
00010000
01000000
10000000
00010000
00000000
,
00001000
00011000
00000000
00000000
00010000
00000000
00000100
00000000
,
00010100
00000000
00010000
00001000
00000000
00000100
00000000
00000001
,
00000000
00000010
00000000
00000000
00000100
00000000
00010000
00000000
,
00001000
00000000
00100000
00010000
00000000
10000000
01000000
00010000
,
00000000
00001000
00000000
00000000
00000010
00000000
00000001
00000000
,
00001000
00000000
00000000
00000010
00010000
00001000
00010000
00001000
,
00000000
00100000
00000000
00010000
00000000
01000000
00100000
10000000
,
00010000
00000000
00000000
00000000
00000000
00100000
01000000
10000000
,
01000000
00100000
00001000
00010000
00000100
00001000
00000010
00000100
,
00000001
00000100
00001000
00010000
00000000
00100000
00000000
20000000
,
00000000
00000000
00000000
00000000
00000000
00000000
30010000
01000000
00100000
00000000
01000000
00000000
00100000
00000000
00010000
00000000
,
00002000
00000000
00003100
00000200
00000000
00000320
00000000
00002030
,
00000000
00000000
00003002
00000000
00000000
00000000
00000023
00000000
00000000
00000000
00000000
00000000
00000000
00000000
00000130
00010000
,
00000200
00000000
00000000
00000000
00000000
00000000
00000000
00000000
00000000
00000000
00000000
00000000
00000000
00000000
00010300
00001000
,
00010000
01000000
00100000
00020000
00000000
01030000
00100000
20000000
,
00000000
00000000
00000000
30200000
00000000
00320000
00000000
00032000
,
00000000
00003010
00000001
00002000
00000000
00003010
00000100
00001000
,
00010000
00000000
01000000
00100000
00000000
00010000
00000000
10000000
,
00000000
00100000
00000000
00000000
01000000
00000000
00001000
00000000
,
00010000
00000000
00000100
00000010
00000000
00000001
00001000
00000001
,
00000000
00000100
00000000
00000010
00010000
00001000
00010000
00100000
,
00000000
10000000
00010000
10000000
01000000
00010000
01000000
00100000
,
00000000
00001000
00000000
00010000
00001000
00000100
00000010
00001000
,
00000000
00000001
00000010
00000100
00001000
00000100
00000010
00001000
,
00000000
00010000
00000000
00000000
00001000
00000000
00100000
00000000
,
00110000
00000000
00010000
10000000
00000000
00100000
01000000
01001000
,
00000000
00010000
00000000
00000000
00001000
00000000
00010000
00000000
,
00010010
00000000
00001000
00000010
00000100
00000001
00000010
00001001
,
00000000
00000100
00000000
00000000
00000010
00000000
00010000
00000000
,
00011000
00000000
00000000
00001000
00100000
00010000
00100000
01100000
,
00000000
01000000
00000000
11000000
00000000
10000000
00100000
01000000
,
00001000
00000000
00000000
00000000
00000000
00010000
00000100
00001000
,
00000000
00000000
00000010
00000000
00000100
00000000
00000001
00000000
00000000
00000010
00000000
00000000
00000100
00000000
00000000
00000000
,
00000000
00000000
00000000
00000000
00000000
00000000
00000000
00010000
00000000
00000000
00000000
00000000
00000000
00000000
00000000
00000000
00000000
00000000
00000000
00000000
00000000
00000000
00000000
01000000
00000000
00000000
00000000
00000000
00000000
00000000
00000000
00000000
,
00000000
00000000
00000000
00000000
00000000
00000000
00000000
10000000
00000000
00000000
00000000
00000000
00000000
00000000
00000000
00000000
00000000
00000000
00000000
00000000
00000000
00000000
00100000
00000000
00000000
00000000
00000000
00000000
00000000
00000000
00000000
00000000
,
01000000
00000000
00002000
00000000
,
00000000
00000000
00000000
00000000
,
00000000
00013000
00000000
00000000
00000000
00000000
00000000
00000000
;
