#TITLE:Big City;
#ARTIST:張惠妺;
#ARTISTTRANSLIT:A-Mei;
#BANNER:Big City.png;
#BACKGROUND:Big City-bg.png;
#CDTITLE:./CDTITLES/DanceDanceRevolution UNIVERSE3 Chinese Special Edition.png;
#MUSIC:Big City.ogg;
#SAMPLESTART:80;
#SAMPLELENGTH:15;
#DISPLAYBPM:75;
#BPMS:0=75;

//---------------dance-single - ----------------
#NOTES:
     dance-single:
     :
     Beginner:
     1:
     :
0000
0000
0000
0000
,
0000
0000
0000
0000
,
0000
0000
0000
0000
,
0010
0000
0000
0000
,
0100
0000
0000
0000
,
0001
0000
0000
0000
,
0010
0000
0000
0000
,
0100
0000
0000
0000
,
1000
0000
0000
0000
,
0010
0000
0000
0000
,
1000
0000
0000
0000
,
0100
0000
0000
0000
,
0001
0000
0000
0000
,
0100
0000
0010
0010
,
0010
0000
0001
0001
,
0001
0000
1000
1000
,
1000
0000
0001
0000
,
1001
0000
0001
0000
,
1001
0000
1000
0000
,
1001
0000
0001
0000
,
0010
0000
0100
0000
,
0110
0000
0100
0000
,
0110
0000
0010
0000
,
0110
0000
0100
0000
,
0001
0000
1000
0000
,
0010
0000
1000
0000
,
0001
0000
0100
0000
,
1001
0000
1000
0000
,
0100
0000
0010
0000
,
0001
0000
0010
0000
,
0100
0000
1000
0000
,
0110
0000
0010
0000
,
0001
0000
1000
0000
;

//---------------dance-single - ----------------
#NOTES:
     dance-single:
     :
     Easy:
     3:
     :
0000
0000
0000
0000
,
0000
0000
0000
0000
,
0000
0000
0000
0000
,
0001
0000
1000
0100
,
0010
0000
0001
0100
,
0010
0000
0010
1000
,
0001
0000
0001
1000
,
0100
0000
0100
0010
,
0100
1000
0001
0010
,
0100
0000
0100
1000
,
0001
0000
0001
1000
,
0010
0000
0010
0100
,
0010
0000
0001
0100
,
0010
0001
1000
0100
,
0010
0000
0100
1000
,
0010
0001
1000
0100
,
0001
0000
1000
0010
,
1001
0000
0100
1000
,
0110
0001
1000
0010
,
1001
0000
0010
0001
,
1000
0000
0100
0001
,
1001
0000
0010
0001
,
0110
0000
0001
0100
,
1001
0010
0100
1000
,
0001
0100
0010
1000
,
1001
0000
0100
1000
,
0110
0000
0001
0010
,
1001
1000
0010
0001
,
0010
0100
0010
1000
,
1001
0000
0010
0001
,
0110
0000
1000
0100
,
1001
0001
0100
1000
,
0100
0010
0100
0002
,
0000
0000
0003
0000
;

//---------------dance-single - ----------------
#NOTES:
     dance-single:
     :
     Medium:
     5:
     :
0000
0000
0000
0000
,
0000
0000
0000
0000
,
0000
0000
0000
0000
,
1000
0000
0001
0100
,
1000
0000
0100
0001
,
0010
0000
1000
0000
0010
0001
0010
0000
,
0100
0000
0001
0000
0100
1000
0100
0000
,
0010
0000
0001
0000
1000
0100
1000
0000
,
0010
0001
0100
1000
,
0010
0000
0100
0000
0001
1000
0100
0000
,
0001
0000
0100
0000
1000
0010
0100
0000
,
1000
0000
0100
0000
0010
1000
0100
0000
,
0001
0100
1000
0010
,
0001
0001
0100
0000
1000
1000
0010
0000
,
0100
0100
0001
0000
0010
0010
1000
0000
,
0100
1000
0010
0000
0100
0001
0010
0000
,
2000
3020
0032
1003
,
0100
0000
1001
0000
0000
0100
0000
0000
0010
0000
0000
1000
0000
0000
0001
0000
,
0010
0000
1001
0000
0000
0010
0000
0000
0100
0000
0000
0001
0000
0000
1000
0000
,
0001
0000
0110
0000
0000
1000
0000
0000
0001
0000
0000
0010
0000
0000
0100
0000
,
1000
0010
1000
0000
0001
0100
0001
0000
,
0010
0000
1001
0000
0000
0010
0000
0000
0100
0000
0000
0001
0000
0000
1000
0000
,
0100
0000
1001
0000
0000
0100
0000
0000
0010
0000
0000
1000
0000
0000
0001
0000
,
1000
0000
0110
0000
0000
0001
0000
0000
1000
0000
0000
0100
0000
0000
0010
0000
,
0001
0100
0001
0000
1000
0010
1000
0000
,
0101
0000
0020
0000
0000
2030
0000
0000
3200
0000
0000
0302
0000
0000
0103
0000
,
1001
0000
0200
0000
0000
0320
0000
0000
2030
0000
0000
3002
0000
0000
0103
0000
,
1010
0000
0200
0000
0000
2300
0000
0000
3020
0000
0000
0032
0000
0000
0013
0000
,
1000
0100
1000
0000
0001
0010
0001
0000
,
1100
0000
0020
0000
0000
0032
0000
0000
0203
0000
0000
2300
0000
0000
3100
0000
,
1001
0000
0200
0000
0000
0320
0000
0000
0032
0000
0000
2003
0000
0000
3100
0000
,
0011
0000
0200
0000
0000
0302
0000
0000
0023
0000
0000
2030
0000
0000
3010
0000
,
0001
0100
0001
0000
1000
0020
2000
0000
,
0000
0000
3030
0000
;

//---------------dance-single - ----------------
#NOTES:
     dance-single:
     :
     Hard:
     7:
     :
0000
0000
0000
0000
,
0000
0000
0000
0000
,
0000
0000
0000
0000
,
0020
0000
2030
3200
,
0302
0000
0203
0320
,
0031
0001
1000
0010
0100
0100
0002
0023
,
0130
0100
1000
0001
0010
0010
0200
2300
,
3010
0010
0001
0010
1000
1000
0001
0000
,
1000
0000
0001
0100
0000
0010
0000
1000
0000
0001
0000
0010
0000
0000
0100
0000
,
1001
1000
0001
0100
0010
0010
2000
3002
,
0013
0010
0001
1000
0100
0100
0020
0230
,
1300
1000
0010
0100
0001
0001
1000
0000
,
0001
0000
1000
0010
0000
0100
0000
0001
0000
0000
1000
0100
0000
0000
0010
0000
,
0001
0100
1000
0100
0001
0000
1000
0100
0010
0000
0100
0000
1000
0000
0001
0000
,
0100
0001
0010
0001
0100
0000
0010
0000
1000
0000
0001
0000
0010
0000
0100
0000
,
1000
0100
0010
0001
0100
0000
0010
1000
0100
0000
0001
0100
1000
0010
0001
0010
,
1000
0001
0100
0010
0100
0000
0100
0000
0100
0010
1000
0001
0010
0000
0010
0000
,
0001
0000
1100
0000
0000
0012
0000
0000
0103
0000
0000
1000
0000
0000
0100
0000
,
0001
0000
1010
0000
0000
0201
0000
0000
1300
0000
0000
0100
0000
0000
0001
0000
,
1000
0000
0110
0000
0000
2001
0000
0000
0010
0000
0000
3100
0000
0000
1000
0000
,
0010
1000
0001
1000
0100
0000
1000
0000
1000
0010
0001
0010
0100
0000
0010
0010
,
1000
0000
0101
0000
0000
2010
0000
0000
3100
0000
0000
0001
0000
0000
0100
0000
,
1000
0000
0011
0000
0000
1200
0000
0000
0301
0000
0000
0100
0000
0000
1000
0000
,
0001
0000
0110
0000
0000
1002
0000
0000
0010
0000
0000
0103
0000
0000
0001
0000
,
1000
0001
0100
0001
1000
0000
0010
0000
0100
0001
1000
0001
0100
0000
0010
0000
,
1001
0000
1000
0000
0010
0100
0000
0000
0001
0000
0000
0010
0100
0000
1000
0000
,
0011
0000
0010
0000
0100
1000
0000
0000
0001
0000
0000
0100
0001
0000
1000
0000
,
0110
0000
0100
0000
0001
0010
0000
0000
0100
0000
0000
1000
0010
0000
0001
0000
,
0010
0000
1000
0100
0000
0001
0000
0100
0000
1000
0000
0010
0000
0001
0000
0010
,
0100
0000
1001
0000
0100
0010
0000
0000
0001
0000
0000
0010
0100
0000
1000
0000
,
0010
0000
0101
0000
1000
0100
0000
0000
0010
0000
0000
0100
1000
0000
0001
0000
,
0010
0000
1100
0000
0010
0001
0000
0000
1000
0000
0000
0001
0010
0000
0100
0000
,
1000
0000
0001
0100
0000
0000
0000
0001
1000
0000
0200
0020
0000
0000
0000
0000
,
0000
0000
0330
0000
;

//---------------dance-double - ----------------
#NOTES:
     dance-double:
     :
     Beginner:
     1:
     :
00000000
00000000
00000000
00000000
,
00000000
00000000
00000000
00000000
,
00000000
00000000
00000000
00000000
,
10000000
00000000
00000000
00000000
,
00010000
00000000
00000000
00000000
,
10000000
00000000
00000000
00000000
,
01000000
00000000
00000000
00000000
,
00100000
00000000
00000000
00000000
,
00001000
00000000
00000000
00000000
,
00010000
00000000
00000000
00000000
,
00000100
00000000
00000000
00000000
,
00000010
00000000
00000000
00000000
,
00000001
00000000
00000000
00000000
,
00000100
00000000
00000010
00000000
,
00010000
00000000
00001000
00000000
,
00100000
00000000
01000000
00000000
,
10000000
00000000
00010000
00000000
,
10010000
00000000
00010000
00000000
,
10010000
00000000
10000000
00000000
,
01000000
00000000
00010000
00000000
,
00001000
00000000
00000100
00000000
,
00000110
00000000
00000100
00000000
,
00000110
00000000
00000010
00000000
,
00001000
00000000
00000100
00000000
,
00010000
00000000
00001000
00000000
,
00100000
00000000
00010000
00000000
,
10000000
00000000
01000000
00000000
,
00010000
00000000
00001000
00000000
,
00000100
00000000
00000010
00000000
,
00000100
00000000
00000001
00000000
,
00000010
00000000
00001000
00000000
,
00010000
00000000
00001000
00000000
,
00100000
00000000
01000000
00000000
;

//---------------dance-double - ----------------
#NOTES:
     dance-double:
     :
     Easy:
     3:
     :
00000000
00000000
00000000
00000000
,
00000000
00000000
00000000
00000000
,
00000000
00000000
00000000
00000000
,
00010000
00000000
00001000
00000100
,
00000010
00000000
00000001
00000100
,
00000010
00000000
00010000
00001000
,
00100000
00000000
01000000
10000000
,
00010000
00000000
01000000
00001000
,
00010000
00000100
00001000
00000010
,
00000100
00000000
00000100
00000001
,
00001000
00000000
00001000
00000001
,
00000010
00000000
00000100
00010000
,
00001000
00000000
00010000
00001000
,
00100000
00010000
10000000
01000000
,
00010000
00000000
00000100
00000010
,
00000001
00000000
00000100
00001000
,
00010000
00000000
01000000
10000000
,
10010000
00100000
01000000
10000000
,
01100000
00000000
10000000
00100000
,
10010000
01000000
00100000
00001000
,
00010000
00000000
00000100
00001000
,
00001001
00000100
00000010
00000001
,
00000110
00000000
00000001
00000100
,
00001001
00000000
00000100
00010000
,
00001000
01000000
00100000
10000000
,
10010000
00000000
01000000
10000000
,
01100000
00000000
00010000
00100000
,
10010000
00000000
00100000
00001000
,
00010000
00000010
00001000
00000001
,
00001001
00001000
00000010
00000001
,
00000110
00000000
00001000
00000100
,
00001001
00000000
00000100
00010000
,
00001000
01000000
00010000
20000000
,
00000000
00000000
30000000
00000000
;

//---------------dance-double - ----------------
#NOTES:
     dance-double:
     :
     Medium:
     6:
     :
00000000
00000000
00000000
00000000
,
00000000
00000000
00000000
00000000
,
00000000
00000000
00000000
00000000
,
10000000
00000000
00010000
01000000
,
00001000
00000000
00010000
00000100
,
00000010
00000000
00000001
00000000
00001000
00000010
00001000
00000000
,
00000100
00000000
00010000
00000000
00001000
00010000
00001000
00000000
,
01000000
00000000
00010000
00000000
10000000
01000000
10000000
00000000
,
00100000
00010000
01000000
10000000
,
00100000
00000000
01000000
00000000
00010000
10000000
01000000
00000000
,
00010000
00000000
00001000
00000000
00010000
00000100
00001000
00000000
,
00000001
00000000
00000100
00000000
00000010
00001000
00000100
00000000
,
00000001
00000100
00001000
00000010
,
00000001
00000001
00000010
00000000
00001000
00001000
00000100
00000000
,
00010000
00010000
00001000
00000000
00100000
00100000
01000000
00000000
,
01000000
10000000
00100000
00000000
01000000
00010000
00100000
00000000
,
00002000
00023000
02030000
13000000
,
00010000
00000000
10010000
00000000
00000000
01000000
00000000
00000000
00100000
00000000
00000000
00010000
00000000
00000000
00001000
00000000
,
00010000
00000000
00011000
00000000
00000000
00010000
00000000
00000000
00000010
00000000
00000000
00001000
00000000
00000000
00000100
00000000
,
00000010
00000000
00000110
00000000
00000000
00001000
00000000
00000000
00000001
00000000
00000000
00000010
00000000
00000000
00000100
00000000
,
00001000
00000010
00001000
00000000
00000001
00000100
00000001
00000000
,
00001000
00000000
00001001
00000000
00000000
00000010
00000000
00000000
00000100
00000000
00000000
00001000
00000000
00000000
00010000
00000000
,
00001000
00000000
00011000
00000000
00000000
00001000
00000000
00000000
01000000
00000000
00000000
00010000
00000000
00000000
00100000
00000000
,
01000000
00000000
01100000
00000000
00000000
10000000
00000000
00000000
00010000
00000000
00000000
01000000
00000000
00000000
00100000
00000000
,
10000000
01000000
10000000
00000000
00010000
00100000
00010000
00000000
,
11000000
00000000
00200000
00000000
00000000
20300000
00000000
00000000
32000000
00000000
00000000
03020000
00000000
00000000
00031000
00000000
,
00011000
00000000
00010000
00000000
00000000
00000010
00000000
00000000
00001000
00000000
00000000
00000001
00000000
00000000
00000100
00000000
,
00001010
00000000
00000200
00000000
00000000
00002300
00000000
00000000
00003020
00000000
00000000
00000032
00000000
00000000
00000013
00000000
,
00001000
00000100
00001000
00000000
00000001
00000010
00000001
00000000
,
00001100
00000000
00000020
00000000
00000000
00000032
00000000
00000000
00000203
00000000
00000000
00002300
00000000
00000000
00013000
00000000
,
00011000
00000000
00001000
00000000
00000000
00100000
00000000
00000000
00010000
00000000
00000000
10000000
00000000
00000000
01000000
00000000
,
00110000
00000000
02000000
00000000
00000000
23000000
00000000
00000000
30200000
00000000
00000000
00320000
00000000
00000000
00031000
00000000
,
00000010
00001000
00000010
00000000
00000001
00002000
00000002
00000000
,
00000000
00000000
00003003
00000000
;

//---------------dance-double - ----------------
#NOTES:
     dance-double:
     :
     Hard:
     7:
     :
00000000
00000000
00000000
00000000
,
00000000
00000000
00000000
00000000
,
00000000
00000000
00000000
00000000
,
00200000
00000000
20300000
32000000
,
03020000
00000000
00032000
00003200
,
00000301
00000001
00001000
00000010
00000100
00000100
00002000
00023000
,
00030100
00000100
00001000
00000001
00000010
00000010
00000200
00020300
,
00031000
00001000
00100000
00010000
10000000
10000000
01000000
00000000
,
10000000
00000000
00010000
01000000
00000000
00100000
00000000
10000000
00000000
00010000
00000000
00100000
00000000
00000000
01000000
00000000
,
10010000
10000000
00010000
01000000
00100000
00100000
00020000
00032000
,
01003000
01000000
00010000
10000000
00100000
00100000
02000000
03002000
,
00013000
00010000
00000100
00001000
00000001
00000001
00000010
00000000
,
00000001
00000000
00001000
00000100
00000000
00000010
00000000
00000001
00000000
00000000
00001000
00000010
00000000
00000000
00000100
00000000
,
00000001
00000100
00001000
00000100
00000001
00000000
00001000
00000100
00000010
00000000
00001000
00000000
00010000
00000000
00000100
00000000
,
00001000
00000010
00001000
00000100
00010000
00000000
00001000
00000000
01000000
00000000
00010000
00000000
00100000
00000000
01000000
00000000
,
00010000
00001000
00100000
00010000
01000000
00000000
00100000
10000000
01000000
00000000
00010000
01000000
10000000
00000000
10000000
00100000
,
00010000
00000000
00010000
00001000
00000100
00000000
00000010
00000000
00000100
00000001
00001000
00000010
00000100
00000000
00000001
00000000
,
00000010
00000000
00001100
00000000
00000000
00000011
00000000
00000000
00001000
00000000
00000000
00000010
00000000
00000000
00010000
00000000
,
00000100
00000000
00010100
00000000
00000000
00011000
00000000
00000000
00101000
00000000
00000000
00010000
00000000
00000000
01000000
00000000
,
00100000
00000000
10010000
00000000
00000000
01100000
00000000
00000000
10000000
00000000
00000000
00010000
00000000
00000000
00100000
00000000
,
01000000
10000000
00010000
10000000
00100000
00000000
10000000
00000000
10000000
01000000
00010000
01000000
00100000
00000000
01000000
01000000
,
10000000
00000000
00110000
00000000
00000000
11000000
00000000
00000000
00010000
00000000
00000000
01000000
00000000
00000000
00001000
00000000
,
00100000
00000000
00101000
00000000
00000000
00011000
00000000
00000000
00010100
00000000
00000000
00001000
00000000
00000000
00000010
00000000
,
00000100
00000000
00001001
00000000
00000000
00000110
00000000
00000000
00000001
00000000
00000000
00001000
00000000
00000000
00000100
00000000
,
00001000
00000100
00010000
00001000
01000000
00000000
00001000
00000000
00010000
00001000
01000000
00010000
00100000
00000000
01000000
00000000
,
10010000
00000000
00010000
00000000
00100000
00001000
00000000
00000000
00010000
00000000
00000000
00000100
00010000
00000000
00001000
00000000
,
00011000
00000000
00010000
00000000
00000100
00001000
00000000
00000000
00000001
00000000
00000000
00000010
00000001
00000000
00001000
00000000
,
00000110
00000000
00000100
00000000
00000001
00000010
00000000
00000000
00000100
00000000
00000000
00001000
00000010
00000000
00000001
00000000
,
00000010
00000000
00001000
00000100
00000000
00010000
00000000
00001000
00000000
00100000
00000000
00010000
00000000
10000000
00000000
01000000
,
00100000
00000000
10010000
00000000
00100000
01000000
00000000
00000000
00001000
00000000
00000000
00010000
00001000
00000000
00010000
00000000
,
00001000
00000000
00011000
00000000
00010000
00000100
00000000
00000000
00001000
00000000
00000000
00000010
00010000
00000000
00001000
00000000
,
00000100
00000000
00000110
00000000
00000010
00001000
00000000
00000000
00000001
00000000
00000000
00001000
00000100
00000000
00000001
00000000
,
00000100
00000000
00000010
00000001
00000000
00000000
00000000
00001000
00000100
00000000
00020000
00002000
00000000
00000000
00000000
00000000
,
00000000
00000000
00033000
00000000
;
