#TITLE:布拉格之戀;
#ARTIST:Twins;
#TITLETRANSLIT:BU LA GE ZHI LIAN;
#BANNER:BU LA GE ZHI LIAN.png;
#BACKGROUND:BU LA GE ZHI LIAN-bg.png;
#CDTITLE:./CDTITLES/DanceDanceRevolution UNIVERSE3 Chinese Special Edition.png;
#MUSIC:BU LA GE ZHI LIAN.ogg;
#SAMPLESTART:59.3;
#SAMPLELENGTH:15;
#BPMS:0=100;

//---------------dance-single - ----------------
#NOTES:
     dance-single:
     :
     Beginner:
     1:
     :
0000
0000
0000
0000
,
0000
0000
0000
0000
,
0000
0000
0000
0000
,
0000
0000
0000
0000
,
1000
0000
0000
0001
,
0000
0000
0100
0000
,
0000
0010
0000
0000
,
1000
0000
0000
0001
,
0000
0000
0010
0000
,
0000
0100
0000
0000
,
1000
0000
0000
0001
,
0000
0000
1000
0000
,
0000
0010
0000
0000
,
0100
0000
0000
0001
,
0000
0000
0100
0000
,
0000
0001
0000
0000
,
1000
0000
0000
0100
,
0000
0000
1000
0000
,
0000
0100
0000
0000
,
0010
0000
0000
0010
,
0000
0000
0001
0000
,
0000
0001
0000
0000
,
1000
0000
0000
1000
,
0000
0000
0010
0000
,
0000
0010
0000
0100
,
0001
0000
0000
1000
,
0000
0100
0010
0000
,
0000
0001
0000
0001
,
1000
0000
0000
0010
,
0000
0100
0001
0000
,
0000
1000
0000
1000
,
0100
0000
0000
0010
,
0000
0000
0001
0000
,
0000
1000
0000
0000
,
0010
0000
0000
0100
,
0000
0000
0001
0000
,
0000
0010
0000
0000
,
0100
0000
0000
1000
,
0000
0000
0010
0000
,
0000
0100
0000
0000
,
0002
0000
0000
0003
;

//---------------dance-single - ----------------
#NOTES:
     dance-single:
     :
     Easy:
     2:
     :
0000
0000
0000
0000
,
0000
0000
0000
0000
,
0000
0000
0000
0000
,
0000
0000
0000
0000
,
0010
0000
0000
0100
,
0000
0000
1000
0100
,
0010
0001
0000
0000
,
0100
0010
1000
0001
,
0010
0100
1000
0100
,
0000
0010
0000
0000
,
0001
1000
0001
0100
,
0001
0010
0100
1000
,
0000
0001
0000
0000
,
0100
0010
1000
0010
,
0000
0000
0100
0001
,
0100
0010
0000
0000
,
1000
0001
1000
0100
,
0000
0000
0010
0001
,
0010
0100
0000
0000
,
1000
0001
0000
1000
,
0010
0000
0100
0001
,
0000
0010
0100
0000
,
1000
0001
0000
0100
,
0010
0000
1000
0001
,
0000
0010
0100
0000
,
0010
0000
0010
0001
,
0000
0001
1000
0000
,
1000
0010
0000
0010
,
0100
0000
0100
0001
,
0000
0001
1000
0000
,
0100
0010
0000
0010
,
0001
0000
0001
1000
,
0000
1000
0010
0000
,
0010
0100
0000
0100
,
0001
0000
0000
0010
,
0000
0000
0100
0000
,
0000
1000
0000
0000
,
0001
0000
0000
0100
,
0000
0000
0010
0000
,
0000
1000
0000
0000
,
0200
0000
0000
0300
;

//---------------dance-single - ----------------
#NOTES:
     dance-single:
     :
     Medium:
     4:
     :
0000
0000
0000
0000
,
0000
0000
0000
0000
,
0000
0000
0000
0000
,
0000
0000
0000
0000
,
1000
0000
0010
0100
,
0000
0001
1000
0000
,
0100
0010
0000
0010
,
0001
0010
0100
1000
,
0100
0010
0001
0100
,
0000
0010
0000
0100
,
0010
1000
0001
0100
,
0010
1000
0001
0010
,
0100
1000
0000
0001
,
0100
0010
0100
0001
,
0010
0100
1000
0100
,
0010
0001
0000
0000
,
0100
0010
1000
0001
,
1000
0100
0010
0100
,
1000
0001
0100
0010
,
1000
0001
0000
0010
,
0100
0000
1000
0001
,
0100
0010
1000
0000
,
0001
0010
0100
0010
,
0001
0100
0010
0000
,
1000
0000
0001
0000
0010
0000
0100
1000
,
0001
0000
0100
0010
,
0000
1000
0001
0000
0010
0000
0100
0000
,
1000
0001
0100
0000
0000
0000
0010
1000
,
0001
0000
0010
0100
,
0000
1000
0001
0000
0100
0000
0010
0000
,
1000
0001
0010
0000
0000
0000
0100
0010
,
0001
0000
0000
1000
0010
0000
0100
0000
,
0000
0000
0001
0000
1000
0000
0000
0100
,
0010
0001
0010
0000
0000
0000
0100
0000
,
1000
0000
0001
0100
,
0000
0000
0010
1000
,
0000
1000
0001
0000
,
0001
0010
0000
0010
,
0100
0000
0100
1000
,
0000
0001
0100
0000
,
0020
0000
0000
0030
;

//---------------dance-single - ----------------
#NOTES:
     dance-single:
     :
     Hard:
     5:
     :
0000
0000
0000
0000
,
0000
0000
0000
0000
,
0000
0000
0000
0000
,
0000
0000
0000
0000
,
0010
0001
0010
0100
0010
0001
0100
0010
,
1000
0010
0100
0001
2000
0000
3200
0000
,
0000
0310
0002
0000
0000
0000
0000
0000
,
1003
0010
0100
0001
,
1000
0100
1000
0010
,
0000
0000
0000
0000
0000
0200
0000
0000
0301
0000
0000
0000
0000
0000
0000
0000
0000
0000
0000
0000
0000
0000
0000
0000
0010
0000
0000
0000
0100
0000
0000
0000
,
1000
0100
0010
0001
,
1000
0010
0100
0001
,
1000
0000
0000
0000
0000
0200
0000
0000
0310
0000
0000
0000
0000
0000
0000
0000
0000
0000
0000
0000
0000
0000
0000
0000
0001
0000
0000
0000
0000
0000
0000
0000
,
1000
0010
0100
0001
1000
0100
0020
0000
,
0230
2300
3020
0230
,
0301
0000
0000
0000
0000
2000
0000
0000
3002
0000
0000
0000
0000
0000
0000
0000
0000
0000
0000
0000
0000
0000
0000
0000
0000
0000
0000
0000
0000
0000
0000
0000
,
0013
0100
1000
0100
0001
0100
0020
0000
,
0032
0203
0320
0032
,
0023
0000
1030
0001
0100
0001
1000
0100
,
0020
0000
0032
0000
1003
0010
1000
0001
,
0010
0000
0100
1000
0002
0000
0203
0000
,
0310
1000
0001
0010
0100
0000
1000
0000
,
0002
0103
0010
2000
,
3100
0000
0010
0000
0002
0000
0000
0103
,
0010
1000
0100
0001
0100
0010
0001
0100
,
0020
1000
0230
0302
,
0013
0100
2000
0000
3001
1000
0001
0100
,
0010
1000
0200
0000
0300
0000
0010
0001
,
2000
0010
3002
0203
,
0310
1000
0001
0000
0010
0100
1000
0010
,
0001
0010
2000
0000
3000
0000
0001
0010
,
0002
0000
0000
0103
0020
0000
2030
0000
,
3000
0000
0200
0000
0310
0000
0000
0001
,
1000
0010
0200
0000
0000
0300
0002
0000
,
2003
0100
0010
3002
,
0000
0000
0013
0100
,
0100
0000
1000
0000
0001
0000
0001
0100
,
0010
0000
1000
0100
0010
0001
0100
0000
,
0010
0000
0010
1000
0001
0000
0010
0000
,
0010
0100
1000
0000
0001
0000
0001
0100
,
0020
0000
0000
0030
;

//---------------dance-double - ----------------
#NOTES:
     dance-double:
     :
     Beginner:
     1:
     :
00000000
00000000
00000000
00000000
,
00000000
00000000
00000000
00000000
,
00000000
00000000
00000000
00000000
,
00000000
00000000
00000000
00000000
,
00000001
00000000
00000000
00000100
,
00000000
00000000
00000010
00000000
,
00000000
00010000
00000000
00000000
,
00001000
00000000
00000000
00100000
,
00000000
00000000
01000000
00000000
,
00000000
10000000
00000000
00000000
,
00010000
00000000
00000000
01000000
,
00000000
00000000
00100000
00000000
,
00000000
00010000
00000000
00000000
,
00001000
00000000
00000000
00010000
,
00000000
00000000
00001000
00000000
,
00000000
00010000
00000000
00000000
,
00000100
00000000
00000000
00001000
,
00000000
00000000
00000100
00000000
,
00000000
00001000
00000000
00000000
,
00000010
00000000
00000000
00001000
,
00000000
00000000
00000001
00000000
,
00000000
00000010
00000000
00000000
,
00000100
00000000
00000000
00010000
,
00000000
00000000
00001000
00000000
,
00000000
00100000
00000000
00010000
,
01000000
00000000
00000000
00100000
,
00000000
00100000
10000000
00000000
,
00000000
01000000
00000000
00100000
,
00001000
00000000
00000000
00010000
,
00000000
00010000
00000100
00000000
,
00000000
00000010
00000000
00000001
,
00001000
00000000
00000000
00000010
,
00000000
00000000
00000100
00000000
,
00000000
00001000
00000000
00000000
,
00010000
00000000
00000000
00100000
,
00000000
00000000
10000000
00000000
,
00000000
01000000
00000000
00000000
,
00010000
00000000
00000000
00001000
,
00000000
00000000
00000100
00000000
,
00000000
00000001
00000000
00000000
,
00000020
00000000
00000000
00000030
;

//---------------dance-double - ----------------
#NOTES:
     dance-double:
     :
     Easy:
     2:
     :
00000000
00000000
00000000
00000000
,
00000000
00000000
00000000
00000000
,
00000000
00000000
00000000
00000000
,
00000000
00000000
00000000
00000000
,
00000001
00000000
00000000
00000010
,
00000000
00000000
00000100
00010000
,
00001000
00100000
00000000
00000000
,
00010000
01000000
00100000
10000000
,
00010000
01000000
00100000
10000000
,
00000000
01000000
00000000
00000000
,
00100000
00001000
00010000
00000100
,
00001000
00000010
00000100
00000001
,
00000000
00000010
00000000
00000000
,
00000100
00010000
00001000
00100000
,
00000000
00000000
00010000
01000000
,
10000000
01000000
00000000
00000000
,
00001000
00010000
00000010
00001000
,
00000000
00000000
00000001
00001000
,
00000001
00000010
00000000
00000000
,
00000010
00000100
00000000
00000100
,
00010000
00000000
00010000
00001000
,
00000000
00001000
01000000
00000000
,
01000000
00100000
00000000
00100000
,
10000000
00000000
10000000
01000000
,
00000000
01000000
00010000
00000000
,
00010000
00000000
00001000
00010000
,
00000000
00010000
00000100
00000000
,
00000100
00001000
00000000
00001000
,
00000010
00000000
00000010
00000100
,
00000000
00000100
00000001
00000000
,
00000001
00000010
00000000
00000010
,
00000100
00000000
00000100
00010000
,
00000000
00010000
00001000
00000000
,
00001000
01000000
00000000
01000000
,
00100000
00000000
00000000
10000000
,
00000000
00000000
01000000
00000000
,
00000000
00100000
00000000
00000000
,
00001000
00000000
00000000
00010000
,
00000000
00000000
00000100
00000000
,
00000000
00001000
00000000
00000000
,
00000020
00000000
00000000
00000030
;

//---------------dance-double - ----------------
#NOTES:
     dance-double:
     :
     Medium:
     4:
     :
00000000
00000000
00000000
00000000
,
00000000
00000000
00000000
00000000
,
00000000
00000000
00000000
00000000
,
00000000
00000000
00000000
00000000
,
10000000
00000000
01000000
00100000
,
00000000
00001000
00010000
00000000
,
00000100
00001000
00000000
00000010
,
00001000
00000010
00000100
00000001
,
00000010
00000100
00010000
00001000
,
00000000
00100000
00000000
00010000
,
01000000
10000000
01000000
00010000
,
00100000
00001000
00010000
00000100
,
00001000
00000010
00000000
00000100
,
00000001
00001000
00000001
00000010
,
00000100
00010000
00001000
01000000
,
00100000
10000000
00000000
00000000
,
01000000
00100000
01000000
00010000
,
00001000
00000100
00000010
00001000
,
00000001
00000010
00000100
00010000
,
00001000
00100000
00000000
00100000
,
01000000
00000000
10000000
00010000
,
01000000
00100000
00010000
00000000
,
00001000
00010000
00000100
00000010
,
00001000
00000010
00000001
00000000
,
00000100
00000000
00000010
00000000
00010000
00000000
00001000
00100000
,
01000000
00000000
10000000
00100000
,
00000000
01000000
00001000
00000000
00010000
00000000
00000010
00000000
,
00001000
00000100
00001000
00000000
00000000
00000000
00000010
00000100
,
00000001
00000000
00000010
00000100
,
00000000
00010000
00001000
00000000
00100000
00000000
00010000
00000000
,
01000000
00010000
00100000
00000000
00000000
00000000
01000000
10000000
,
00100000
00000000
00000000
01000000
00100000
00000000
00010000
00000000
,
00000000
00000000
00010000
00000000
00001000
00000000
00000000
00000100
,
00000010
00001000
00000001
00000000
00000000
00000000
00000010
00000000
,
00000100
00000000
00000100
00010000
,
00000000
00000000
00001000
00100000
,
00000000
00100000
00010000
00000000
,
00010000
01000000
00000000
01000000
,
10000000
00000000
10000000
01000000
,
00000000
01000000
00001000
00000000
,
00020000
00000000
00000000
00030000
;

//---------------dance-double - ----------------
#NOTES:
     dance-double:
     :
     Hard:
     5:
     :
00000000
00000000
00000000
00000000
,
00000000
00000000
00000000
00000000
,
00000000
00000000
00000000
00000000
,
00000000
00000000
00000000
00000000
,
00000010
00001000
00000010
00000100
00000001
00000010
00000100
00010000
,
00001000
00100000
00010000
01000000
00200000
00000000
20300000
00000000
,
00000000
31000000
00020000
00000000
00000000
00000000
00000000
00000000
,
00031000
00000010
00000001
00000100
,
00001000
00010000
00100000
10000000
,
00000000
00000000
00000000
00000000
00000000
02000000
00000000
00000000
03100000
00000000
00000000
00000000
00000000
00000000
00000000
00000000
00000000
00000000
00000000
00000000
00000000
00000000
00000000
00000000
01000000
00000000
00000000
00000000
00100000
00000000
00000000
00000000
,
00001000
00010000
00000010
00000100
,
00000001
00000100
00001000
00010000
,
01000000
00000000
00000000
00000000
00000000
20000000
00000000
00000000
30010000
00000000
00000000
00000000
00000000
00000000
00000000
00000000
00000000
00000000
00000000
00000000
00000000
00000000
00000000
00000000
00100000
00000000
00000000
00000000
00000000
00000000
00000000
00000000
,
00001000
00010000
00000100
00001000
00000010
00000100
00000002
00000000
,
00000023
00000230
00020300
00032000
,
01003000
00000000
00000000
00000000
00000000
00200000
00000000
00000000
20300000
00000000
00000000
00000000
00000000
00000000
00000000
00000000
00000000
00000000
00000000
00000000
00000000
00000000
00000000
00000000
00000000
00000000
00000000
00000000
00000000
00000000
00000000
00000000
,
31000000
00100000
10000000
00100000
00001000
00010000
00000020
00000000
,
00000230
00002300
00003200
00000302
,
00000023
00000000
00001030
00010000
01000000
00100000
00010000
01000000
,
00200000
00000000
20300000
00000000
31000000
00100000
01000000
00010000
,
00001000
00000000
00000100
00000001
00000020
00000000
00000230
00000000
,
00010300
00001000
00100000
00010000
10000000
00000000
00100000
00000000
,
02000000
03001000
00010000
00000200
,
00001300
00000000
00000010
00000000
00000200
00000000
00000000
00000301
,
00000100
00001000
00010000
00100000
01000000
00010000
10000000
01000000
,
00200000
10000000
02300000
03020000
,
00031000
00000010
00000200
00000000
00000301
00000100
00001000
00000010
,
00010000
00001000
00200000
00000000
00300000
00000000
00010000
01000000
,
00200000
10000000
02300000
03002000
,
00013000
00000100
00000010
00000000
00000001
00000100
00001000
00010000
,
00100000
10000000
00020000
00000000
00030000
00000000
00100000
01000000
,
00020000
00000000
00000000
00031000
00000200
00000000
00000302
00000000
,
00000003
00000000
00000020
00000000
00000130
00000000
00000000
00010000
,
00001000
00100000
00020000
00000000
00000000
00030000
02000000
00000000
,
03200000
01000000
10000000
00320000
,
00000000
00000000
00130000
00001000
,
00010000
00000000
00000010
00000000
00000100
00000000
00000100
00000001
,
00000010
00000000
00000100
00000010
00001000
00010000
01000000
00000000
,
00100000
00000000
00100000
00010000
10000000
00000000
00100000
00000000
,
00100000
01000000
00001000
00000000
00010000
00000000
00010000
00000100
,
00000020
00000000
00000000
00000030
;
