#TITLE:vertical;
#ARTIST:Ryu☆;
#BANNER:vertical.png;
#BACKGROUND:vertical-bg.png;
#CDTITLE:./CDTITLES/DanceDanceRevolution UNIVERSE3.png;
#MUSIC:vertical.ogg;
#SAMPLESTART:61.875;
#SAMPLELENGTH:15;
#BPMS:0=128;

//---------------dance-single - ----------------
#NOTES:
     dance-single:
     :
     Beginner:
     1:
     :
0000
0000
0000
0000
,
0000
0000
0000
0000
,
0000
0000
0000
0000
,
0000
0000
0000
0000
,
0000
0000
0000
0000
,
1000
0000
0000
0000
,
0001
0000
0000
0000
,
1000
0000
0000
0000
,
0001
0000
0000
0000
,
0020
0000
0000
0030
,
0010
0000
0010
0000
,
0200
0000
0000
0300
,
0100
0000
0100
0000
,
1000
0000
0000
0000
,
0010
0000
0000
0000
,
0100
0000
0000
0000
,
0001
0000
0000
0000
,
0010
0000
0000
0000
,
0001
0000
0000
0000
,
1000
0000
0000
0000
,
0100
0000
0000
0000
,
1000
0000
0000
0000
,
0010
0000
0000
0000
,
0100
0000
0000
0000
,
0001
0000
0000
0000
,
0020
0000
0000
0030
,
0010
0000
0000
0000
,
0200
0000
0000
0300
,
0100
0000
0000
0000
,
2000
0000
0000
3000
,
1000
0000
0000
0000
,
0002
0000
0000
0003
,
0001
0000
0000
0000
,
1000
0000
1000
0000
,
1000
0000
0000
0000
,
0001
0000
0001
0000
,
0001
0000
0000
0000
,
0010
0000
0010
0000
,
0010
0000
0000
0000
,
0100
0000
0100
0000
,
0100
0000
0000
0000
,
1000
0000
0001
0000
,
1000
0000
0000
0000
,
0010
0000
0100
0000
,
0010
0000
0000
0000
,
1000
0000
0001
0000
,
1000
0000
0000
0000
,
0100
0000
0010
0000
,
0100
0000
0000
0000
,
1001
0000
0000
0000
;

//---------------dance-single - ----------------
#NOTES:
     dance-single:
     :
     Easy:
     3:
     :
0000
0000
0000
0000
,
0000
0000
0000
0000
,
0000
0000
0000
0000
,
0000
0000
0000
0000
,
0000
0000
0000
0000
,
0001
0000
0001
0000
,
1000
0000
0100
0000
,
1000
0000
1000
0000
,
0001
0000
1001
0000
,
1000
0000
0010
0000
,
0001
0000
0010
0000
,
0100
0000
1000
0000
,
0001
0000
1000
0100
,
0010
0000
0001
0000
,
1000
0000
0010
0000
,
0100
0000
0001
0000
,
1000
0000
0100
0100
,
1001
0000
0000
0000
,
0001
0000
1000
0000
,
0001
0000
0100
0000
,
0001
0000
1000
0000
,
0100
0000
0010
0000
,
0100
0000
0010
0000
,
0002
0000
0003
0000
,
2000
0000
3000
0000
,
0010
0000
0100
0000
,
0020
0000
0030
0000
,
1000
0000
0001
0000
,
2000
0000
3000
0000
,
0100
0000
0010
0000
,
0002
0000
0003
0000
,
0100
0000
0010
0000
,
2000
0000
3000
0000
,
0001
0000
1000
0000
,
0100
0000
0010
0000
,
0001
0000
0100
0000
,
0010
0000
0100
0001
,
1000
0000
0010
0000
,
0100
0000
0010
0000
,
1000
0000
0001
0000
,
0010
0000
0001
0100
,
0010
0000
1000
0000
,
0001
0000
1000
0000
,
0100
0000
0010
0000
,
0001
0000
0100
0010
,
1000
0000
0001
0000
,
1000
0000
0010
0000
,
0100
0000
0001
0000
,
0010
0000
0100
0100
,
1001
0000
0000
0000
;

//---------------dance-single - ----------------
#NOTES:
     dance-single:
     :
     Medium:
     5:
     :
0000
0000
0000
0000
,
0000
0000
0000
0000
,
0000
0000
0000
0000
,
0000
0000
0000
0000
,
0000
0000
0000
0000
,
0010
1000
0010
1000
,
0100
0001
0100
0001
,
0010
0100
0010
0100
,
1001
0000
0000
0000
,
1000
0100
0001
0100
,
1000
0000
0100
0000
0001
1000
1000
0000
,
0001
0100
1000
0100
,
0001
0000
0100
0000
1000
0001
0001
0000
,
1000
0010
0001
0010
,
1000
0000
0010
0000
0001
1000
1000
0000
,
0001
0010
1000
0010
,
0001
0000
0010
0000
1000
0001
0000
0000
,
0100
0010
1000
0010
,
0100
0010
1000
1000
,
0100
0010
0001
0010
,
0100
0000
0010
0000
0001
1000
0001
1000
,
0010
0100
0010
1000
,
0001
1000
0010
0110
,
0100
0000
0100
0000
0100
0000
0100
1000
,
0002
0000
0000
0003
,
0020
0000
0000
0030
,
0002
0000
0000
0003
,
2000
0000
0000
3000
,
0020
0000
0000
0030
,
0200
0000
0000
0300
,
0002
0000
0000
0003
,
2000
0000
0000
3000
,
0200
0000
0000
0300
,
1000
0010
0100
0001
,
0010
0100
1000
0001
,
0100
0010
0100
0001
,
0010
0000
0001
0000
1000
0001
1001
0000
,
0100
0010
0001
1000
,
0010
1000
0100
0010
,
0001
1000
0010
0000
,
1000
0000
0001
0000
0010
0100
0110
0000
,
0001
1000
0010
1000
,
0100
0001
0100
1000
,
0010
0100
0001
0010
,
0100
0000
1000
0000
0001
1000
1001
0000
,
0100
0010
1000
0001
,
0100
0000
1000
0000
0100
0000
0001
0001
,
0001
0000
0010
0000
0100
0000
1000
1000
,
1000
0000
0010
0000
1000
0001
1000
0001
,
0100
0000
0000
0000
;

//---------------dance-single - ----------------
#NOTES:
     dance-single:
     :
     Hard:
     7:
     :
0000
0000
0000
0000
,
0000
0000
0000
0000
,
0000
0000
0000
0000
,
0000
0000
0000
0000
,
0000
0000
0000
0000
,
0100
0010
0100
0010
,
0001
0000
0100
0000
0010
1000
0010
0000
,
0100
0001
1000
0001
,
1001
0000
0000
0000
,
1000
0001
0010
0000
0001
1000
0010
0000
,
1000
0000
0100
0000
0010
0010
0010
0000
,
0001
1000
0010
0000
1000
0001
0010
0000
,
0001
0000
0100
0000
0010
0010
0010
0000
,
1000
0001
1000
0000
0010
0100
0010
0000
,
1000
0000
0010
0000
0100
0100
0100
0000
,
0001
1000
0001
0000
0010
0100
0010
0000
,
0001
0000
0010
0000
0001
1000
0000
0000
,
0001
0100
0010
0100
0000
0001
0000
1000
0100
0000
1000
0001
1000
0000
0100
0000
,
0010
0001
0100
1000
0100
0001
0100
1000
,
0100
0001
0010
0100
0010
0001
1000
0100
,
0001
0100
1000
0100
0001
0100
0100
0100
,
0010
0001
1000
0010
1000
0001
0010
0000
,
0100
1000
0010
0100
0001
0001
1001
0000
,
1100
0000
0101
0000
1100
0000
0101
1100
,
2002
0000
0000
3003
,
0000
1000
0010
0000
0100
0001
0010
0100
,
0000
1000
0001
0000
0010
0001
1000
0010
,
0000
0100
0010
0000
1000
0001
1000
0100
,
0000
0010
0001
0000
1000
0010
0100
0001
,
0000
1000
0100
0000
1000
0010
1000
0100
,
0000
0010
0100
0000
1000
0001
0100
0001
,
0000
0010
0100
0000
0010
0001
0100
0001
,
0000
1000
0010
0000
1000
0100
0010
0001
,
0100
1010
0100
0011
,
1000
1100
0001
0101
,
0010
1100
0010
0101
,
1000
0000
1001
0000
0001
0100
0110
0000
,
1000
0011
0001
1100
,
1000
0101
0001
1010
,
0001
0110
1000
0110
,
0001
0000
1001
0000
1000
0001
1001
0000
,
0100
0010
0011
0000
0100
0010
1010
0000
,
0001
0010
0110
0000
1000
0010
0110
0000
,
0001
1000
1010
0000
1000
0001
0011
0000
,
0100
1000
1010
0000
0100
0001
0011
0000
,
0100
1000
1001
0000
0010
0001
1001
0000
,
0010
0100
0101
0000
1000
0100
0110
0110
,
0001
1000
1100
0000
0100
1000
1001
1001
,
0100
0001
0011
0000
0001
1000
0110
0110
,
0001
0000
0000
0000
;

//---------------dance-single - ----------------
#NOTES:
     dance-single:
     :
     Challenge:
     9:
     :
0000
0000
0000
0000
,
0000
0000
0000
0000
,
0000
0000
0000
0000
,
0000
0000
0000
0000
,
0000
0000
0000
0000
,
0010
0100
0010
0100
,
1000
0000
0001
0000
0100
0100
0100
0000
,
0010
1000
0001
0010
,
0100
0000
1000
0000
0001
0010
0001
0000
1000
0010
1000
0000
0001
0000
0000
0000
,
0010
0001
0100
1000
0100
0010
1000
0001
,
0010
1000
0010
0001
0100
0010
1010
0000
,
0100
0010
0001
1000
0100
0010
1000
0010
,
0001
0000
0100
0000
0010
0000
0000
1000
0001
0000
0100
0000
1010
0000
0000
0000
,
0100
0010
0001
1000
0010
1000
0100
0010
,
0001
1000
0001
0010
0001
0100
0110
0000
,
1000
0100
0010
0100
1000
0001
0010
0100
,
1000
0000
0010
0000
0100
0000
0001
0000
0010
0000
0001
1000
0000
0000
0000
0000
,
0001
0010
0100
1000
0000
0010
0000
1000
0001
0000
0010
0100
0010
0000
0001
0000
,
0100
0010
1010
1000
0100
0010
0011
0001
,
1000
0010
0011
0001
0010
1000
1001
0001
,
0100
0010
1010
1000
0001
0011
1001
1100
,
1000
0010
0110
0100
0001
0010
0100
0000
,
1000
0010
0110
0100
0001
1000
0100
0000
,
0010
0001
0100
0000
0010
1000
0100
0000
0010
0001
0100
0000
0010
0000
0010
0000
,
0010
0000
1000
0100
1000
0001
0100
0000
0010
0100
0010
1000
0001
0000
0000
0000
,
0010
0000
0001
0000
1000
0000
0000
0000
0001
0000
1000
0100
0000
0010
0000
0000
,
0001
0000
0100
0000
0010
0000
0000
0000
0001
0000
0010
1000
0000
0001
0000
0000
,
0010
0000
0100
0000
1000
0000
0000
0000
0001
0000
0100
0010
0000
1000
0000
0000
,
0001
0000
0010
0000
1000
0000
0000
0000
0010
0000
0001
1000
0000
0010
0000
0000
,
0100
0000
0001
0000
0010
0000
0000
0000
0001
0000
1000
0010
0000
0100
0000
0000
,
0010
0000
1000
0000
0100
0000
0000
0000
0001
0000
0100
1000
0000
0001
0000
0000
,
0100
0000
1000
0000
0100
0000
0000
0000
0010
0000
1000
0001
0000
1000
0000
0000
,
0100
0000
0010
0000
0001
0000
0000
0000
1000
0000
0010
0100
0000
0001
0000
0000
,
0010
0001
1001
0000
0010
1000
1001
0000
,
0100
0010
1010
0000
0100
0010
0011
0000
,
1000
0100
0011
0000
0001
0100
1010
0000
,
0100
0000
0010
0000
1001
0000
0000
0001
1000
0000
0101
0000
1100
0000
0000
0000
,
0001
0100
1010
0000
0100
0010
1001
0000
,
0100
0010
1100
0000
0001
1000
0011
0000
,
1000
0010
0101
0000
0010
0100
0011
0000
,
1000
0000
0001
0000
1010
0000
0000
0010
0100
0000
1001
0000
0110
0000
0000
0000
,
0001
0010
0110
0100
1000
0010
0110
0100
,
0001
1000
1100
0100
0010
0001
0101
0100
,
1000
0100
0101
0001
0010
0100
1100
1000
,
0001
0000
0010
0000
0110
0000
0000
0100
1000
0000
0011
0000
1010
0000
1000
0001
,
1000
0000
0100
0000
0110
0000
0010
0001
0010
0000
0100
0000
1100
0000
1000
0010
,
1000
0000
0001
0000
0101
0000
0100
0010
0100
0000
0001
0000
0011
0000
1010
0000
,
1000
0100
0011
1000
0001
0100
1010
0011
,
0100
0000
0010
0000
1001
0000
0000
0010
0100
0000
1001
0000
0110
0000
1001
0000
,
0110
0000
0000
0000
;

//---------------dance-double - ----------------
#NOTES:
     dance-double:
     :
     Beginner:
     1:
     :
00000000
00000000
00000000
00000000
,
00000000
00000000
00000000
00000000
,
00000000
00000000
00000000
00000000
,
00000000
00000000
00000000
00000000
,
00000000
00000000
00000000
00000000
,
00100000
00000000
00000000
00000000
,
10000000
00000000
00000000
00000000
,
01000000
00000000
00000000
00000000
,
00010000
00000000
00000000
00000000
,
00002000
00000000
00000000
00003000
,
00001000
00000000
00001000
00000000
,
00020000
00000000
00000000
00030000
,
00010000
00000000
00010000
00000000
,
00001000
00000000
00000000
00000000
,
00000010
00000000
00000000
00000000
,
00000001
00000000
00000000
00000000
,
00000100
00000000
00000000
00000000
,
00000010
00000000
00000000
00000000
,
00000100
00000000
00000000
00000000
,
00000001
00000000
00000000
00000000
,
00000010
00000000
00000000
00000000
,
00000100
00000000
00000000
00000000
,
00010000
00000000
00000000
00000000
,
00001000
00000000
00000000
00000000
,
01000000
00000000
00000000
00000000
,
00020000
00000000
00000000
00030000
,
00010000
00000000
00000000
00000000
,
00200000
00000000
00000000
00300000
,
00100000
00000000
00000000
00000000
,
00020000
00000000
00000000
00030000
,
00010000
00000000
00000000
00000000
,
20000000
00000000
00000000
30000000
,
10000000
00000000
00000000
00000000
,
01000000
00000000
01000000
00000000
,
01000000
00000000
00000000
00000000
,
00010000
00000000
00010000
00000000
,
00010000
00000000
00000000
00000000
,
00001000
00000000
00001000
00000000
,
00001000
00000000
00000000
00000000
,
00000100
00000000
00000100
00000000
,
00000100
00000000
00000000
00000000
,
00000001
00000000
00001000
00000000
,
00000001
00000000
00000000
00000000
,
00000010
00000000
00000010
00000000
,
00000010
00000000
00000000
00000000
,
00001000
00000000
00010000
00000000
,
00001000
00000000
00000000
00000000
,
00100000
00000000
00100000
00000000
,
00100000
00000000
00000000
00000000
,
10010000
00000000
00000000
00000000
;

//---------------dance-double - ----------------
#NOTES:
     dance-double:
     :
     Easy:
     3:
     :
00000000
00000000
00000000
00000000
,
00000000
00000000
00000000
00000000
,
00000000
00000000
00000000
00000000
,
00000000
00000000
00000000
00000000
,
00000000
00000000
00000000
00000000
,
00001000
00000000
00000001
00000000
,
00000010
00000000
00000100
00000000
,
00010000
00000000
00001000
00000000
,
00100000
00000000
10010000
00000000
,
10000000
00000000
00100000
00000000
,
00010000
00000000
00001000
00000000
,
00000010
00000000
00000001
00000000
,
00000100
00000000
00000001
00001000
,
00000001
00000000
00000100
00000000
,
00001000
00000000
00010000
00000000
,
01000000
00000000
10000000
00000000
,
00100000
00000000
00010000
00010000
,
00011000
00000000
00000000
00000000
,
00001000
00000000
00010000
00000000
,
00000100
00000000
00000010
00000000
,
00000100
00000000
00010000
00000000
,
00001000
00000000
01000000
00000000
,
00100000
00000000
01000000
00000000
,
00020000
00000000
00030000
00000000
,
20000000
00000000
30000000
00000000
,
01000000
00000000
00010000
00000000
,
00002000
00000000
00003000
00000000
,
00010000
00000000
00001000
00000000
,
00000200
00000000
00000300
00000000
,
00000001
00000000
00000010
00000000
,
00000200
00000000
00000300
00000000
,
00010000
00000000
00001000
00000000
,
02000000
00000000
03000000
00000000
,
00100000
00000000
10000000
00000000
,
01000000
00000000
00010000
00000000
,
00001000
00000000
00000100
00000000
,
00000001
00000000
00000010
00000100
,
00000010
00000000
00000001
00000000
,
00000100
00000000
00001000
00000000
,
00010000
00000000
01000000
00000000
,
10000000
00000000
00100000
01000000
,
00100000
00000000
10000000
00000000
,
00010000
00000000
00100000
00000000
,
00001000
00000000
00010000
00000000
,
00000010
00000000
00001000
00000001
,
00001000
00000000
00000100
00000000
,
00010000
00000000
00001000
00000000
,
01000000
00000000
00010000
00000000
,
10000000
00000000
01000000
00010000
,
00011000
00000000
00000000
00000000
;

//---------------dance-double - ----------------
#NOTES:
     dance-double:
     :
     Medium:
     5:
     :
00000000
00000000
00000000
00000000
,
00000000
00000000
00000000
00000000
,
00000000
00000000
00000000
00000000
,
00000000
00000000
00000000
00000000
,
00000000
00000000
00000000
00000000
,
00000100
00000001
00000100
00000001
,
00000010
00001000
00000010
00001000
,
00010000
00100000
00010000
00100000
,
10010000
00000000
00000000
00000000
,
01000000
00100000
00001000
00100000
,
01000000
00000000
00100000
00000000
00001000
00010000
00010000
00000000
,
00000100
00000010
00000001
00000010
,
00000100
00000000
00000010
00000000
00000001
00001000
00000001
00000000
,
00000100
00000010
00010000
00000010
,
00000100
00000000
00000010
00000000
00010000
00001000
00001000
00000000
,
01000000
00100000
10000000
00100000
,
01000000
00000000
00100000
00000000
10000000
00010000
00000000
00000000
,
10000000
01000000
10000000
01000000
,
00010000
00001000
00010000
00001000
,
00000100
00000001
00000100
00000001
,
00000010
00000000
00000100
00000000
00010000
00001000
00010000
00001000
,
00000010
00000001
00000010
00000001
,
00000100
00001000
00000100
00001000
,
00010000
00000000
00010000
00000000
00010000
00000000
00010000
00001000
,
00022000
00000000
00000000
00033000
,
02000000
00000000
00000000
03000000
,
20000000
00000000
00000000
30000000
,
00200000
00000000
00000000
00300000
,
00020000
00000000
00000000
00030000
,
00002000
00000000
00000000
00003000
,
00000020
00000000
00000000
00000030
,
00000002
00000000
00000000
00000003
,
00000200
00000000
00000000
00000300
,
00000010
00001000
00000001
00000010
,
00000100
00000010
00000001
00001000
,
00000100
00010000
00000010
00010000
,
00001000
00000000
00100000
00000000
00001000
00010000
00011000
00000000
,
01000000
00100000
10000000
01000000
,
00100000
00001000
01000000
00100000
,
10000000
00010000
00100000
00000000
,
01000000
00000000
00100000
00000000
00001000
00010000
00011000
00000000
,
00000010
00000001
00000100
00000010
,
00010000
00001000
01000000
00100000
,
10000000
01000000
00010000
00001000
,
00000100
00000000
00000001
00000000
00000010
00000100
00001001
00000000
,
00000010
00010000
00001000
00100000
,
01000000
00000000
10000000
00000000
00100000
00000000
00010000
00010000
,
00010000
00000000
00001000
00000000
00000010
00000000
00000001
00000001
,
00000001
00000000
00000100
00000000
00001000
00010000
00001000
00010000
,
00001000
00000000
00000000
00000000
;

//---------------dance-double - ----------------
#NOTES:
     dance-double:
     :
     Hard:
     7:
     :
00000000
00000000
00000000
00000000
,
00000000
00000000
00000000
00000000
,
00000000
00000000
00000000
00000000
,
00000000
00000000
00000000
00000000
,
00000000
00000000
00000000
00000000
,
00100000
00010000
01000000
00100000
,
10000000
00000000
01000000
00000000
00100000
00001000
00010000
00000000
,
00100000
10000000
01000000
00010000
,
00011000
00000000
00000000
00000000
,
00001000
00010000
00001000
00000000
00010000
00000100
00010000
00000000
,
00000010
00000000
00000100
00000000
00000001
00000001
00000001
00000000
,
00000010
00000001
00000010
00000000
00000100
00010000
00000100
00000000
,
00010000
00000000
00001000
00000000
01000000
01000000
01000000
00000000
,
00100000
10000000
00100000
00000000
01000000
00100000
01000000
00000000
,
00001000
00000000
00100000
00000000
00010000
00010000
00010000
00000000
,
10000000
01000000
10000000
00000000
01000000
00010000
01000000
00000000
,
00100000
00000000
00001000
00000000
00010000
00001000
00000000
00000000
,
00010000
00000100
00010000
00000100
00000000
00000010
00000000
00000001
00001000
00000000
00000010
00010000
00001000
00000000
00100000
00000000
,
01000000
00010000
01000000
10000000
00100000
10000000
01000000
00010000
,
01000000
10000000
00100000
00010000
00001000
00000010
00001000
00010000
,
00100000
00010000
00001000
00000010
00000001
00001000
00001000
00001000
,
00000001
00000100
00001000
00010000
00001000
00000100
00000010
00000000
,
00010000
00001000
00100000
01000000
10000000
00100000
01100000
00000000
,
01001000
00000000
00011000
00000000
00010100
00000000
00000110
00001001
,
00002002
00000000
00000000
00003003
,
00000000
00000001
00000100
00000000
00000010
00010000
00001000
00010000
,
00000000
00001000
00100000
00000000
00010000
01000000
00100000
10000000
,
00000000
00010000
10000000
00000000
00100000
10000000
01000000
00100000
,
00000000
00001000
00010000
00000000
00000010
00000100
00000001
00001000
,
00000000
00000100
00000010
00000000
00000100
00010000
00001000
01000000
,
00000000
00100000
01000000
00000000
00001000
00100000
00010000
00100000
,
00000000
00001000
01000000
00000000
00100000
10000000
00010000
10000000
,
00000000
00100000
01000000
00000000
00001000
00010000
00000100
00010000
,
00000010
00001010
00000001
00000011
,
00000100
00010100
00001000
01001000
,
00100000
00101000
01000000
01100000
,
10000000
00000000
11000000
00000000
01000000
00010000
00011000
00000000
,
00000100
00000110
00000001
00001001
,
00000010
00010010
00001000
00101000
,
00010000
00010010
00100000
01100000
,
10000000
00000000
10100000
00000000
01000000
00001000
00011000
00000000
,
00000100
00000010
00000001
00000000
00000100
00001000
00010000
00000000
,
00000100
00001000
00000010
00000000
00010000
00001000
00100000
00000000
,
00010000
01000000
10000000
00000000
01000000
00001000
00010000
00000000
,
00100000
10000000
01000000
00000000
00100000
00001000
00010000
00000000
,
00000010
00001000
00001001
00000000
00000001
00000100
00001100
00000000
,
00001000
00010000
00010100
00000000
00000100
00001000
00001100
00010100
,
00010000
00001000
01001000
00000000
01000000
00100000
10100000
10010000
,
00010000
00100000
01100000
00000000
01000000
00100000
00101000
00011000
,
00010000
00000000
00000000
00000000
;

//---------------dance-double - ----------------
#NOTES:
     dance-double:
     :
     Challenge:
     9:
     :
00000000
00000000
00000000
00000000
,
00000000
00000000
00000000
00000000
,
00000000
00000000
00000000
00000000
,
00000000
00000000
00000000
00000000
,
00000000
00000000
00000000
00000000
,
00000001
00000010
00000001
00001000
,
00000100
00000000
00010000
00000000
00001000
00001000
00001000
00000000
,
00100000
00010000
10000000
00100000
,
01000000
00000000
00001000
00000000
00010000
00000100
00010000
00000000
00000010
00000100
00000010
00000000
00001000
00000000
00000000
00000000
,
00000001
00000010
00001000
00010000
00000010
00001000
00000100
00000001
,
00000100
00010000
00001000
01000000
00100000
10000000
11000000
00000000
,
00100000
00001000
00010000
00000010
00010000
00100000
00010000
00001000
,
01000000
00000000
00100000
00000000
10000000
00000000
00000000
01000000
00100000
00000000
00001000
00000000
00011000
00000000
00000000
00000000
,
01000000
00100000
01000000
00001000
00100000
00001000
00010000
00000010
,
00000100
00000001
00000010
00001000
00010000
00001000
00101000
00000000
,
01000000
00100000
10000000
01000000
10000000
00010000
00100000
00001000
,
01000000
00000000
00100000
00000000
00010000
00000000
00001000
00000000
00000010
00000000
00000001
00001000
00000000
00000000
00000000
00000000
,
00000001
00000010
00000100
00010000
00000000
00001000
00000000
01000000
00100000
00000000
10000000
01000000
00100000
00000000
00001000
00000000
,
00010000
00000100
00001100
00001000
00000010
00000100
00001100
00001000
,
00000100
00000001
00000011
00000010
00001000
00010000
00110000
00100000
,
01000000
00001000
00011000
00010000
00100000
10100000
10010000
01010000
,
01000000
00100000
10100000
10000000
01000000
00010000
00002000
00000000
,
00013000
00000010
00000110
00000100
00000001
00000010
00000100
00000000
,
00010000
00001000
01000000
00000000
00001000
00010000
00000100
00000000
00000010
00000001
00000100
00000000
00000010
00000000
00000010
00000000
,
00000010
00000000
00010000
00001000
01000000
00100000
01000000
00000000
00010000
10000000
01000000
00100000
01000000
00000000
00000000
00000000
,
00100000
00000000
00001000
00000000
01000000
00000000
00000000
00000000
00100000
00000000
10000000
01000000
00000000
00010000
00000000
00000000
,
00001000
00000000
00000100
00000000
00000001
00000000
00000000
00000000
00000010
00000000
00000100
00001000
00000000
00000001
00000000
00000000
,
00000100
00000000
00000010
00000000
00010000
00000000
00000000
00000000
00001000
00000000
00100000
00010000
00000000
01000000
00000000
00000000
,
10000000
00000000
01000000
00000000
00010000
00000000
00000000
00000000
00100000
00000000
00001000
00010000
00000000
00000010
00000000
00000000
,
00001000
00000000
00000100
00000000
00000010
00000000
00000000
00000000
00000001
00000000
00000100
00001000
00000000
00010000
00000000
00000000
,
00000100
00000000
00000010
00000000
00000001
00000000
00000000
00000000
00000100
00000000
00000010
00010000
00000000
00001000
00000000
00000000
,
00100000
00000000
00001000
00000000
00010000
00000000
00000000
00000000
00100000
00000000
00010000
00001000
00000000
00100000
00000000
00000000
,
01000000
00000000
00100000
00000000
00001000
00000000
00000000
00000000
00010000
00000000
00000010
00000100
00000000
00000001
00000000
00000000
,
00000100
00000010
00010000
00001000
00000010
00000001
00000100
00001000
,
00000100
00000010
00010000
00001000
01000000
00100000
10000000
01000000
,
00100000
00010000
01000000
00001000
00100000
00001000
00010000
00100000
,
10000000
00000000
00100000
00000000
01000000
00000000
00000000
00010000
10000000
00000000
01010000
00000000
11000000
00000000
00000000
00000000
,
00100000
00001000
00100000
00010000
01000000
00001000
00010000
00000100
,
00000010
00000001
00000100
00010000
00000100
00000001
00001000
00000100
,
00000010
00001000
00000010
00000001
00001000
00000010
00010000
00001000
,
01000000
00000000
00100000
00000000
10000000
00000000
00000000
01000000
00100000
00000000
10010000
00000000
01100000
00000000
00000000
00000000
,
00001000
00010000
00010010
00000010
00000100
00000001
00001001
00001000
,
00000100
00010000
00011000
00001000
01000000
00100000
10100000
10000000
,
01000000
00010000
00011000
00001000
00000100
00000001
00000011
00000010
,
00001000
00000000
00010000
00000000
00010010
00000000
00000000
00000010
00010000
00000000
00010100
00000000
01001000
00000000
01000000
00000000
,
00100000
10000000
01010000
00100000
00001000
00010000
00001010
00000100
,
00000001
00000010
00001100
00010000
00000100
00010000
00101000
00010010
,
00001000
00100000
11000000
00100000
00010000
10000000
01010000
11000000
,
00100000
00000000
00001000
00000000
00010010
00000000
00000000
00000100
00000010
00000000
00000011
00000000
00000101
00000000
00001100
00000000
,
00011000
00000000
00000000
00000000
;
