#TITLE:koibana;
#ARTIST:Togo Project feat. *manna;
#BANNER:koibana.png;
#BACKGROUND:koibana-bg.png;
#CDTITLE:./CDTITLES/DanceDanceRevolution UNIVERSE3.png;
#MUSIC:koibana.ogg;
#SAMPLESTART:12.834;
#SAMPLELENGTH:15;
#BPMS:0=187;

//---------------dance-single - ----------------
#NOTES:
     dance-single:
     :
     Beginner:
     1:
     :
0000
0000
0000
0000
,
0000
0000
0000
0000
,
0000
0000
0000
0000
,
0000
0000
0000
0000
,
0000
0000
0000
0000
,
0000
0000
0000
0000
,
1000
0000
0000
0000
,
0001
0000
0000
0000
,
0100
0000
0000
0000
,
0001
0000
0000
0000
,
1000
0000
0000
0000
,
0001
0000
0000
0000
,
0010
0000
0000
0000
,
0001
0000
0000
0000
,
0100
0000
0010
0000
,
0100
0000
0000
0000
,
1000
0000
0001
0000
,
1000
0000
0000
0000
,
1000
0000
0000
0000
,
0100
0000
0000
0000
,
0010
0000
0000
0000
,
0001
0000
0000
0000
,
0100
0000
0010
0000
,
0100
0000
0000
0000
,
1000
0000
0001
0000
,
1000
0000
0000
0000
,
1000
0000
0000
0000
,
0010
0000
0000
0000
,
0001
0000
0000
0000
,
0010
0000
0000
0000
,
1000
0000
0000
0000
,
0100
0000
0000
0000
,
0001
0000
0000
0000
,
0010
0000
0000
0000
,
0100
0000
0100
0000
,
1000
0000
0000
0000
,
0010
0000
0010
0000
,
0001
0000
0000
0000
,
0001
0000
0000
0000
,
1000
0000
0000
0000
,
1001
0000
0000
0000
,
0000
0000
0000
0000
,
1000
0000
0000
0000
,
0010
0000
0000
0000
,
0100
0000
0000
0000
,
0001
0000
0000
0000
,
0001
0000
0000
0000
,
1000
0000
0000
0000
,
1001
0000
0000
0000
,
0000
1000
1000
0000
,
0001
0000
0000
0000
,
1000
0000
0000
0000
,
0001
0000
0000
0000
,
1000
0000
0000
0000
,
0010
0010
0000
0000
,
0100
0100
0000
0000
,
0001
0001
0000
0000
,
1000
0000
0000
0000
,
0100
0100
0000
0000
,
1000
0000
0000
0000
,
0001
0001
0000
0000
,
0010
0000
0000
0000
,
1000
0000
0000
0000
,
0001
0000
0000
0000
,
0100
0000
0000
0000
,
0010
0000
1000
0000
,
0001
0000
0000
0000
,
1000
0000
0000
0000
,
0100
0000
0000
0000
,
0010
0000
0100
0000
,
0000
0010
0000
0000
;

//---------------dance-single - ----------------
#NOTES:
     dance-single:
     :
     Easy:
     3:
     :
0000
0000
0000
0000
,
0000
0000
0000
0000
,
0000
0000
0000
0000
,
0000
0000
0000
0000
,
0000
0000
0000
0000
,
0000
0000
0000
0000
,
1000
0001
0000
1000
,
0100
0010
0000
0000
,
0001
1000
0000
0001
,
0100
0010
1000
0000
,
0100
0000
1000
0001
,
0000
0001
1000
0000
,
0010
0000
1000
0100
,
0000
0100
1000
0000
,
0001
0001
0000
0100
,
0010
1000
0000
0000
,
0100
0100
0000
1000
,
0010
1000
0001
0000
,
1000
0000
0001
0010
,
0000
0010
0001
0000
,
0100
0000
0010
1000
,
0000
1000
0010
0000
,
1000
0001
0000
0010
,
0000
0001
0000
1000
,
1001
0001
0000
0100
,
0000
0010
0000
0110
,
0000
0100
0001
1000
,
0000
0000
0001
1000
,
0000
0001
0010
0100
,
0000
0000
0010
0100
,
0000
1000
0001
0010
,
0000
0000
0001
0010
,
0000
0001
0010
0100
,
2000
0000
0000
3000
,
0010
0000
0100
0000
,
0001
0000
1000
0100
,
1000
0000
0001
0000
,
0010
0000
0100
1000
,
0001
0000
1000
0000
,
0010
0000
0100
0001
,
0020
0000
0000
0030
,
0200
0000
0000
0300
,
1000
0000
0001
0000
,
1001
0000
1000
0010
,
0100
0000
0010
0000
,
0110
0000
0000
0000
,
0000
0100
0001
1000
,
0010
0000
1000
0001
,
0010
0000
0001
0000
,
1000
0001
0100
0000
,
1001
0000
0000
0000
,
0110
0000
0000
0000
,
1001
0000
0000
0000
,
0110
0000
0000
0000
,
0001
0000
1000
0000
,
0100
1000
0100
0000
,
1000
0000
0010
0000
,
0110
0000
0000
0000
,
1000
0000
0001
0000
,
1000
0100
0010
0000
,
0001
0100
0010
1000
,
0100
0000
0000
0000
,
1000
0000
0001
0000
,
0100
0010
0110
0000
,
0010
0000
1000
0000
,
0001
1000
1001
0000
,
0100
0000
0010
0000
,
0001
1000
1001
0000
,
0100
0000
0001
0000
,
1000
0000
0010
0000
,
0000
0100
0000
0000
;

//---------------dance-single - ----------------
#NOTES:
     dance-single:
     :
     Medium:
     5:
     :
0000
0000
0000
0000
,
0000
0000
0000
0000
,
0000
0000
0000
0000
,
0000
0000
0000
0000
,
0000
0000
0000
0000
,
0000
0000
0000
0000
,
1000
0000
0100
0000
0001
0000
0000
0100
,
1000
0010
0100
0000
,
0100
0000
0001
0000
0010
0000
0000
0001
,
0100
1000
0100
0000
,
0001
0000
0000
0000
1000
0001
1000
0000
,
0100
0000
0110
0000
,
1000
0000
0000
0000
0001
1000
0001
0000
,
0100
0000
0110
0000
,
0100
0000
1001
0000
0100
0000
0000
1000
,
0100
0010
0001
0000
,
0100
0000
1001
0000
0100
0000
0000
0001
,
0100
0010
1000
0000
,
0001
0000
0000
0000
1000
0100
1000
0000
,
0010
0000
0101
0000
,
1000
0000
0000
0000
0100
1000
0100
0000
,
0010
0000
1010
0000
,
1000
1100
0000
0101
,
0000
0011
0000
1010
,
0010
0110
0000
1001
,
0000
0110
0000
1001
,
0001
1000
0010
0100
,
0000
0000
0001
0000
0000
1000
0100
0000
,
1000
0100
0010
0001
,
0000
0000
1000
0000
0000
0100
0010
0000
,
0001
0100
0010
1000
,
0000
0000
0001
0000
0000
1000
0100
0000
,
0010
0000
0100
0000
1000
0000
0001
0200
,
0000
0000
0000
0300
,
0001
0000
0000
1000
0010
1000
0000
0010
,
0000
0000
0100
0000
,
0010
0000
0000
1000
0001
1000
0000
0001
,
0000
0000
0110
0000
,
1000
0000
0000
0010
0100
0010
0000
0100
,
0000
0001
0100
1000
,
0100
0000
0010
0000
,
1000
0000
0001
0000
,
0010
0000
0000
0100
1000
0100
0000
1000
,
0000
0000
1001
0000
,
1000
0000
0000
0001
0010
0001
0000
0010
,
0000
0000
0110
0000
,
0010
0000
0000
0010
0100
0010
0000
0100
,
0000
0000
0110
0000
,
0010
0000
0001
0000
,
0000
1000
0100
0001
0100
0000
0000
0000
,
1000
0000
0000
0000
,
0001
0000
0000
0000
,
0100
0000
0000
0000
0000
0000
0000
0010
,
0000
0000
0000
0000
,
1000
0000
0100
1000
0010
0000
0000
1000
,
0000
0000
0001
0100
0010
0000
0000
0000
,
0101
0000
0010
0100
0010
0000
0000
1000
,
0000
0100
1000
0001
0100
0000
0000
0000
,
1001
0000
1001
0000
0000
1000
0000
0100
,
0000
1000
0100
0010
0000
0000
0000
0000
,
0001
0000
0100
0000
1000
0000
0000
0110
,
0000
0010
1000
0001
0010
0000
0000
0000
,
0100
0000
1000
0000
1100
0000
0000
0010
,
0001
0100
0101
0000
,
0001
0000
0010
0000
0011
0000
0000
0010
,
0100
1000
1100
0000
,
1000
0000
0001
0000
1001
0000
0000
1000
,
0010
0100
0110
0000
,
1000
0000
0010
0000
1010
0000
0000
0100
,
0001
1000
0100
0010
,
0000
0100
0000
0000
;

//---------------dance-single - ----------------
#NOTES:
     dance-single:
     :
     Hard:
     7:
     :
0000
0000
0000
0000
,
0000
0000
0000
0000
,
0000
0000
0000
0000
,
0000
0000
0000
0000
,
0000
0000
0000
0000
,
0000
0000
0000
0000
,
0001
0000
0000
1000
0100
0010
0000
0100
,
0000
1000
0001
0000
0000
0000
0000
0000
,
1000
0000
0000
0001
0100
0010
1000
0100
,
0000
1000
0001
0000
0000
0000
0000
0000
,
1000
0000
0000
0000
0001
0000
0100
0010
,
0000
0000
1010
0000
0001
0000
1000
0100
,
0000
0000
0000
0000
0000
0000
0010
0001
,
0100
0010
1000
0001
,
1001
0000
0000
1000
0100
1000
0000
0001
,
0000
0100
0010
0000
0000
0000
0000
0000
,
1001
0000
0000
0001
0100
0001
0000
1000
,
0000
0100
0010
0000
0000
0000
0000
0000
,
1010
0000
0000
0000
1000
0000
0001
0100
,
0000
0000
0010
0000
1000
0000
0001
0010
,
0000
0000
0000
0000
0000
0000
0100
1000
,
0010
0100
0001
1000
,
1100
0000
0000
0010
0001
0010
0000
0100
,
0000
1000
0001
0000
0000
0000
1001
0000
,
0101
0000
0000
0100
0010
1000
0001
0010
,
0000
0100
1000
0000
0000
0000
1001
0000
,
0000
0000
1000
0100
0001
0100
0000
1000
,
0000
0000
1001
0000
0000
0001
1000
0000
,
0000
0000
0001
0100
1000
0100
0000
0001
,
0000
0000
1001
0000
0000
1000
0001
0000
,
0000
0000
1000
0010
0001
0010
0000
0100
,
0000
0000
0110
0000
0000
0010
1000
0000
,
0000
0000
0001
0010
1000
0010
0000
0200
,
0000
0000
0000
0300
,
1000
0000
0000
0010
0100
0010
0000
1000
,
0000
1010
1001
0101
,
0001
0000
0000
0100
0010
0100
0000
0001
,
0000
0011
0110
1100
,
1000
0000
0000
0001
0020
0000
0100
0000
,
0030
1000
0000
0010
0100
0000
0001
0000
,
0020
0100
0000
0100
,
0000
0130
0010
0001
,
1000
0000
0000
0001
1000
0100
0000
0010
,
0000
1100
1001
0101
,
0001
0000
0000
1000
0001
0010
0000
0100
,
0000
0010
0000
0001
,
0000
0011
1010
1100
,
0102
0000
0013
0000
0100
1000
0001
0100
,
0010
0000
0000
0000
,
0000
1000
0001
0010
0100
0000
0000
0000
,
1000
0000
0000
0001
1000
0000
0000
0001
,
0000
0000
0000
1000
0001
0000
0000
0000
,
0100
0000
0000
0010
0100
0000
0000
0010
,
0000
0000
0000
0000
,
1000
0000
0010
1000
0100
0010
0000
0001
,
0000
0100
0010
1000
0001
0000
1001
0000
,
1000
0000
0100
1000
0001
0010
0000
0100
,
0000
1000
0010
0100
0001
0000
0000
0000
,
0101
0000
1010
0000
1000
0100
0000
1000
,
0000
0001
0010
0001
0000
0000
0000
0000
,
0100
0000
0010
1000
0001
0010
0000
0110
,
0000
0100
1000
0001
0100
0000
0000
0000
,
0101
0000
0000
0001
0100
0010
0000
1000
,
0000
0001
1000
0000
0000
0000
1010
0000
,
1100
0000
0000
1000
0100
0010
0000
0001
,
0000
1000
0001
0000
0000
0000
0101
0000
,
0110
0000
0000
0100
0001
0010
0000
0001
,
0000
1000
0100
0000
0000
0000
1010
0000
,
1001
0000
0000
0100
1000
0001
0100
0010
,
0000
1000
0001
0000
0000
0000
0200
0000
,
0000
0310
0000
0000
;

//---------------dance-double - ----------------
#NOTES:
     dance-double:
     :
     Beginner:
     1:
     :
00000000
00000000
00000000
00000000
,
00000000
00000000
00000000
00000000
,
00000000
00000000
00000000
00000000
,
00000000
00000000
00000000
00000000
,
00000000
00000000
00000000
00000000
,
00000000
00000000
00000000
00000000
,
10000000
00000000
00000000
00000000
,
01000000
00000000
00000000
00000000
,
00010000
00000000
00000000
00000000
,
00001000
00000000
00000000
00000000
,
00000010
00000000
00000000
00000000
,
00000001
00000000
00000000
00000000
,
00000100
00000000
00000000
00000000
,
00010000
00000000
00000000
00000000
,
00001000
00000000
00010000
00000000
,
00001000
00000000
00000000
00000000
,
01000000
00000000
00010000
00000000
,
01000000
00000000
00000000
00000000
,
10000000
00000000
00000000
00000000
,
01000000
00000000
00000000
00000000
,
00100000
00000000
00000000
00000000
,
00001000
00000000
00000000
00000000
,
00010000
00000000
00001000
00000000
,
00010000
00000000
00000000
00000000
,
00000100
00000000
00001000
00000000
,
00000100
00000000
00000000
00000000
,
00000010
00000000
00000000
00000000
,
00000001
00000000
00000000
00000000
,
00000100
00000000
00000000
00000000
,
00000010
00000000
00000000
00000000
,
00010000
00000000
00000000
00000000
,
00001000
00000000
00000000
00000000
,
00010000
00000000
00000000
00000000
,
01000000
00000000
00000000
00000000
,
10000000
00000000
10000000
00000000
,
00010000
00000000
00000000
00000000
,
00100000
00000000
00100000
00000000
,
00001000
00000000
00000000
00000000
,
00010000
00000000
00000000
00000000
,
00001000
00000000
00000000
00000000
,
00011000
00000000
00000000
00000000
,
00000000
00000000
00000000
00000000
,
00010000
00000000
00000000
00000000
,
00000100
00000000
00000000
00000000
,
00001000
00000000
00000000
00000000
,
00000001
00000000
00000000
00000000
,
00001000
00000000
00000000
00000000
,
00000010
00000000
00000000
00000000
,
00010000
00000000
00000000
00000000
,
00000000
00001000
00001000
00000000
,
00010000
00000000
00000000
00000000
,
01000000
00000000
00000000
00000000
,
00100000
00000000
00000000
00000000
,
00001000
00000000
00000000
00000000
,
00010000
00010000
00000000
00000000
,
00000100
00000100
00000000
00000000
,
00000010
00000010
00000000
00000000
,
00000001
00000000
00000000
00000000
,
00000100
00000100
00000000
00000000
,
00001000
00000000
00000000
00000000
,
00010000
00010000
00000000
00000000
,
01000000
00000000
00000000
00000000
,
10000000
00000000
00000000
00000000
,
00010000
00000000
00000000
00000000
,
01000000
00000000
00000000
00000000
,
00001000
00000000
00010000
00000000
,
00001000
00000000
00000000
00000000
,
00000100
00000000
00000000
00000000
,
00000010
00000000
00000000
00000000
,
00000100
00000000
00000001
00000000
,
00000000
00001000
00000000
00000000
;

//---------------dance-double - ----------------
#NOTES:
     dance-double:
     :
     Easy:
     3:
     :
00000000
00000000
00000000
00000000
,
00000000
00000000
00000000
00000000
,
00000000
00000000
00000000
00000000
,
00000000
00000000
00000000
00000000
,
00000000
00000000
00000000
00000000
,
00000000
00000000
00000000
00000000
,
10000000
00010000
00000000
01000000
,
00001000
00010000
00000000
00000000
,
00000100
00010000
00000000
00001000
,
00010000
01000000
10000000
00000000
,
00010000
00000000
01000000
00001000
,
00000000
00010000
00001000
00000000
,
00000010
00000000
00010000
00000100
,
00000000
00010000
00001000
00000000
,
00010000
01000000
00000000
00010000
,
00001000
00000100
00000000
00000000
,
00000001
00000001
00000000
00000100
,
00001000
00010000
01000000
00000000
,
10000000
00000000
00010000
00100000
,
00000000
00001000
00010000
00000000
,
00000100
00000000
00001000
00000010
,
00000000
00010000
00001000
00000000
,
00010000
00010000
00000000
01000000
,
00000000
00100000
00000000
00001000
,
00011000
00010000
00000000
00000100
,
00000000
00000010
00000000
00000110
,
00000000
00001000
00000001
00001000
,
00000000
00000000
00000100
00010000
,
00000000
00001000
00010000
00001000
,
00000000
00000000
00100000
01000000
,
00000000
10000000
00010000
10000000
,
00000000
00000000
00010000
00100000
,
00000000
00001000
00010000
00001000
,
00020000
00000000
00000000
00030000
,
00000100
00000000
00010000
00000000
,
00001000
00000000
01000000
00010000
,
00100000
00000000
00001000
00000000
,
00010000
00000000
00000100
00001000
,
00000010
00000000
00010000
00000000
,
00001000
00000000
00010000
00001000
,
00022000
00000000
00000000
00033000
,
00000000
00000000
00000000
00000000
,
01000000
00000000
00100000
00000000
,
01100000
00000000
01000000
00001000
,
00010000
00000000
00001000
00000000
,
00011000
00000000
00000000
00000000
,
00000000
00010000
00001000
00000100
,
00000001
00000000
00000010
00001000
,
00010000
00000000
00100000
00000000
,
10000000
00010000
01000000
00000000
,
10010000
00000000
00000000
00000000
,
01100000
00000000
00000000
00000000
,
00011000
00000000
00000000
00000000
,
00000110
00000000
00000000
00000000
,
00000001
00000000
00001000
00000000
,
00000001
00000100
00001000
00000000
,
00010000
00000000
01000000
00000000
,
01100000
00000000
00000000
00000000
,
10000000
00000000
00010000
00000000
,
10000000
00010000
00100000
00000000
,
00001000
00010000
00001000
00000100
,
00000001
00000000
00000000
00000000
,
00000100
00000000
00000001
00000000
,
00001000
00000010
00000110
00000000
,
00001000
00000000
00000100
00000000
,
00010000
00001000
00011000
00000000
,
01000000
00000000
00010000
00000000
,
10000000
00100000
10010000
00000000
,
01000000
00000000
00010000
00000000
,
00100000
00000000
00001000
00000000
,
00000000
00010000
00000000
00000000
;

//---------------dance-double - ----------------
#NOTES:
     dance-double:
     :
     Medium:
     5:
     :
00000000
00000000
00000000
00000000
,
00000000
00000000
00000000
00000000
,
00000000
00000000
00000000
00000000
,
00000000
00000000
00000000
00000000
,
00000000
00000000
00000000
00000000
,
00000000
00000000
00000000
00000000
,
10000000
00000000
01000000
00000000
00010000
00000000
00000000
00001000
,
00000000
00000100
00000000
00000001
00000000
00000000
00000000
00000000
,
00000001
00000000
00000010
00000000
00001000
00000000
00010000
01000000
,
00000000
10000000
00000000
00100000
00000000
00000000
00000000
00000000
,
10000000
00000000
00000000
00000000
01000000
00100000
01000000
00000000
,
00010000
00000000
00001100
00000000
,
00000001
00000000
00000000
00000000
00000100
00000010
00000100
00000000
,
00001000
00000000
01010000
00000000
,
10000000
00000000
00010000
00000000
10000000
00000000
00000000
00100000
,
01000000
00001000
00010000
00000000
,
00000100
00000000
00001000
00000000
00000001
00000000
00000000
00000100
,
00000010
00010000
00001000
00000000
,
00010000
00000000
00000000
00000000
01000000
10000000
01000000
00000000
,
00100000
00000000
00011000
00000000
,
00000010
00000000
00000000
00000000
00000100
00000001
00000100
00000000
,
00001000
00000000
00011000
00000000
,
01000000
10100000
00000000
00110000
,
00000000
00011000
00000000
00001010
,
00000001
00001100
00000000
00011000
,
00000000
01010000
00000000
11000000
,
00100000
00001000
00010000
00000010
,
00000000
00000000
00001000
00000000
00000000
00000010
00000100
00000000
,
00000001
00000100
00001000
00010000
,
00000000
00000000
01000000
00000000
00000000
00100000
01000000
00000000
,
10000000
01000000
00010000
00001000
,
00000000
00000000
00000100
00000000
00000000
00000010
00000100
00000000
,
00000001
00000000
00000010
00000000
00001000
00000000
00010000
00002000
,
00000000
00000000
00000000
00003000
,
00010000
00000000
00000000
00000100
00001000
00000100
00000000
00010000
,
00000000
00000000
00011000
00000000
,
00001000
00000000
00000000
01000000
00010000
01000000
00000000
00001000
,
00000000
00000000
00011000
00000000
,
01000000
00000000
00000000
00100000
10000000
00100000
00000000
01000000
,
00000000
00001000
00010000
00000100
,
00000010
00000000
00000001
00000000
,
00000100
00000000
00001000
00000000
,
00010000
00000000
00000000
00000010
00001000
00000010
00000000
00000100
,
00000000
00000000
00000001
00000000
,
00000010
00000000
00000000
00000100
00001000
00000100
00000000
00010000
,
00000000
00000000
01000000
00000000
,
10000000
00000000
00000000
00100000
01000000
00100000
00000000
10000000
,
00000000
00000000
00010000
01000000
,
00001000
00000000
00011000
00000000
,
00000000
00010000
00001000
00000100
00000010
00000000
00000000
00000000
,
00001000
00000000
00000000
00000000
,
00000001
00000000
00000000
00000000
,
00001000
00000000
00000000
00000000
00000000
00000000
00000000
01000000
,
00000000
00000000
00000000
00000000
,
10000000
00000000
00100000
01000000
00001000
00000000
00000000
00010000
,
00000000
00000000
00000100
00001000
00000010
00000000
00000000
00000000
,
00000110
00000000
00001000
00000100
00010000
00000000
00000000
00001000
,
00000000
00010000
01000000
10000000
00100000
00000000
00000000
00000000
,
00011000
00000000
00011000
00000000
00000000
00010000
00000000
00001000
,
00000000
00000100
00000001
00000010
00000000
00000000
00000000
00000000
,
00001000
00000000
00010000
00000000
00100000
00000000
00000000
10010000
,
00000000
10000000
01000000
00010000
00001000
00000000
00000000
00000000
,
00000100
00000000
00001001
00000000
00001100
00000000
00000000
00010000
,
00001000
01001000
01010000
00000000
,
00100000
00000000
10100000
00000000
01100000
00000000
00000000
00001000
,
00010000
00011000
00010010
00000000
,
00001010
00000000
00001001
00000000
00000101
00000000
00000000
00001100
,
00000000
00010100
00000000
00011000
00000000
00000000
00000000
00000000
,
00101000
00000000
00110000
00000000
10010000
00000000
00000000
01010000
,
00000000
01001000
00000000
00011000
00000000
00000000
00010000
00000000
,
00000000
01000000
00000000
00000000
;

//---------------dance-double - ----------------
#NOTES:
     dance-double:
     :
     Hard:
     7:
     :
00000000
00000000
00000000
00000000
,
00000000
00000000
00000000
00000000
,
00000000
00000000
00000000
00000000
,
00000000
00000000
00000000
00000000
,
00000000
00000000
00000000
00000000
,
00000000
00000000
00000000
00000000
,
01000000
00000000
00000000
10000000
01000000
00010000
00000000
00001000
,
00000000
00010000
00001000
00000000
00000000
00000000
00000000
00000000
,
00000100
00000000
00000000
00000010
00001000
00000100
00010000
00001000
,
00000000
01000000
00100000
00000000
00000000
00000000
00000000
00000000
,
10010000
00000000
00000000
00000000
01000000
00000000
00001000
00010000
,
00000000
00000000
00011000
00000000
00010000
00000000
00000100
00000010
,
00000000
00000000
00000000
00000000
00000000
00000000
00000001
00000100
,
00001000
00010000
00001000
00100000
,
01100000
00000000
00000000
10000000
00010000
01000000
00000000
00001000
,
00000000
00010000
00000100
00000000
00000000
00000000
00000000
00000000
,
00001001
00000000
00000000
00000010
00001000
00000100
00000000
00010000
,
00000000
00001000
01000000
00000000
00000000
00000000
00000000
00000000
,
10100000
00000000
00000000
00000000
00010000
00000000
01000000
00010000
,
00000000
00000000
00100000
00000000
00001000
00000000
00010000
00001000
,
00000000
00000000
00000000
00000000
00000000
00000000
00000100
00000001
,
00000010
00000100
00001000
00000010
,
00001100
00000000
00000000
00010000
00001000
00010000
00000000
01000000
,
00000000
10000000
00010000
00000000
00000000
00000000
01010000
00000000
,
01001000
00000000
00000000
00010000
00000010
00001000
00000100
00010000
,
00000000
00001000
01000000
00000000
00000000
00000000
01100000
00000000
,
00000000
00000000
10000000
01000000
00010000
00001000
00000000
00000010
,
00000000
00000000
00000110
00000000
00000000
00000100
00000010
00000000
,
00000000
00000000
00000001
00000100
00001000
00010000
00000000
00100000
,
00000000
00000000
10100000
00000000
00000000
10000000
00010000
00000000
,
00000000
00000000
00100000
00001000
00010000
01000000
00000000
00100000
,
00000000
00000000
00011000
00000000
00000000
00000100
00001000
00000000
,
00000000
00000000
00000010
00010000
00000100
00001000
00000000
00000020
,
00000000
00000000
00000000
00000030
,
00000100
00000000
00000000
00000010
00001000
00000010
00000000
00010000
,
00000000
00001000
00010000
01000000
,
10000000
00000000
00000000
01000000
00100000
01000000
00000000
00010000
,
00000000
00001000
00000010
00000001
,
00000100
00000000
00000000
00000010
00000100
00000000
00001000
00000000
,
00000000
00010000
00000000
01000000
00100000
00000000
00010000
00000000
,
10000000
00100000
01000000
00001000
,
00010000
00000100
00000010
00000001
,
00000100
00000000
00000000
00000001
00000100
00001000
00000000
00010000
,
00000000
01000000
10000000
00100000
,
01100000
00000000
00000000
10000000
00010000
01000000
00000000
00001000
,
00000000
00010000
00000000
00001000
,
00000000
00000100
00000010
00010000
,
00001000
00000000
01000000
00000000
00010000
00100000
00001000
00010000
,
00000100
00000000
00000000
00000000
,
00000000
00001000
00000010
00000100
00000001
00000000
00000000
00000000
,
00000100
00000000
00000000
00000010
00000010
00000000
00000000
00000000
,
00010000
00000000
00000000
00001000
00001000
00000000
00000000
00000000
,
01000000
00000000
00000000
00100000
00100000
00000000
00000000
00000000
,
10000000
00000000
00000000
00000000
,
00100000
00000000
10000000
01000000
00100000
00010000
00000000
01000000
,
00000000
00001000
00010000
00000100
00001000
00000000
00000010
00000000
,
00000100
00000000
00000001
00000100
00000010
00001000
00000000
00000100
,
00000000
00010000
00001000
01000000
00100000
00000000
00000000
00000000
,
10100000
00000000
10010000
00000000
01000000
00001000
00000000
00010000
,
00000000
00000100
00001000
00000100
00000000
00000000
00000000
00000000
,
00000010
00000000
00000001
00000100
00001000
00010000
00000000
00011000
,
00000000
00001000
00010000
01000000
10000000
00000000
00000000
00000000
,
10100000
00000000
00000000
10000000
01000000
00100000
00000000
00001000
,
00000000
00010000
00001000
00000000
00000000
00000000
00001100
00000000
,
00000011
00000000
00000000
00000001
00000100
00000010
00000000
00010000
,
00000000
00001000
00010000
00000000
00000000
00000000
01010000
00000000
,
10010000
00000000
00000000
00001000
01000000
00010000
00000000
00100000
,
00000000
00001000
00010000
00000000
00000000
00000000
00001100
00000000
,
00000110
00000000
00000000
00000100
00001000
00000010
00010000
00001000
,
00000000
01000000
00100000
00000000
00000000
00000000
20000000
00000000
,
00000000
30010000
00000000
00000000
;
