
//----- song ID: fmgr -----
#TITLE:freshmagicgroove;
#ARTIST:IKAAN.fresh!;
#BANNER:freshmagicgroove.png;
#BACKGROUND:freshmagicgroove-bg.png;
#CDTITLE:./CDTitles/DDR UNIVERSE3.png;
#MUSIC:freshmagicgroove.ogg;
#OFFSET:-0.001;
#SAMPLESTART:54.428;
#SAMPLELENGTH:15;
#DISPLAYBPM:110;
#BPMS:0=108,2=110;
#NOTES:
     dance-single:
     :
     Beginner:
     1:
     :
0000
0000
0000
0000
,
1000
0000
0000
0000
,
0010
0000
0000
0000
,
0100
0000
0000
0000
,
0001
0000
0000
0000
,
1000
0000
0000
0000
,
0100
0000
0000
0000
,
0010
0000
0000
0000
,
0001
0000
0001
0000
,
0010
0000
0000
0000
,
0100
0000
0000
0000
,
1000
0000
0000
0000
,
0001
0000
0000
0000
,
0100
0000
0100
0000
,
0010
0000
0000
0000
,
1000
0000
1000
0000
,
0001
0000
0000
0000
,
0010
0000
0001
0000
,
1000
0000
0000
0000
,
0010
0000
1000
0000
,
0001
0000
0000
0000
,
1001
0000
0000
0000
,
0000
0000
0000
0000
,
0110
0000
0000
0000
,
0000
0000
0000
0000
,
1000
0000
0001
0000
,
1000
0000
0000
0000
,
0010
0000
0100
0000
,
0010
0000
0000
0000
,
1000
0000
0000
0000
,
0100
0000
0000
0000
,
0001
0000
0000
0000
,
0100
0000
0000
0000
,
1000
0000
0001
0000
,
0100
0000
0000
0000
,
0010
0000
1000
0000
,
0001
0000
0001
0000
,
0010
0000
0010
0000
,
0100
0000
0100
0000
,
1000
0000
1000
0000
,
0001
0000
0001
0000
;
#NOTES:
     dance-single:
     :
     Easy:
     3:
     :
0000
0000
0000
0000
,
1000
0000
0001
0000
,
0100
0000
0010
0000
,
1000
0000
0001
0000
,
0100
0000
0001
0000
,
0010
0000
0100
1000
,
0100
0000
0010
0000
,
0001
0000
0100
0001
,
0100
0000
0100
0000
,
0010
0000
0010
0000
,
1000
0000
1000
0000
,
0001
0000
0001
0000
,
0010
0000
0010
0000
,
0100
1000
0100
0000
,
0010
0001
0010
0000
,
0001
1000
0001
0000
,
0100
0001
0100
0000
,
0010
0000
1000
0001
,
0100
0000
0001
0000
,
0010
0000
0100
1000
,
0001
0000
0100
0000
,
0020
0000
0000
0000
,
0000
0000
0000
0030
,
2000
0000
0000
0000
,
0000
0000
0000
3000
,
0001
0000
0010
0010
,
0100
0000
1000
0001
,
1000
0000
0010
0010
,
0100
0000
0001
0100
,
0010
0000
1000
0100
,
0001
0000
0001
0100
,
1000
0000
0001
0000
,
0100
0010
1000
0001
,
0100
0000
0100
0000
,
0010
0000
0010
0000
,
1000
0000
1000
0000
,
0001
0000
0001
0001
,
0010
0000
0100
0100
,
1000
0000
0001
0100
,
0010
0000
1000
1000
,
0001
0000
0100
0010
;
#NOTES:
     dance-single:
     :
     Medium:
     5:
     :
0000
0000
0000
0000
,
1000
0000
0001
0000
0100
0010
0100
0000
,
0001
0000
0010
0000
0100
1000
0100
0000
,
1000
0000
0010
0000
0100
0001
0100
0000
,
0010
1000
0010
0000
0100
0001
0010
0000
,
0100
0000
1000
0000
0001
1000
0001
0000
,
0100
0000
0010
0000
1000
0100
0010
0000
,
0001
0000
0010
0000
0100
1000
0001
0000
,
0100
0000
0000
0001
0000
0000
1000
0000
0000
0001
0000
0000
1000
0000
0100
0000
,
0010
0000
0001
1000
0000
1000
0010
0000
,
0100
0000
0001
0010
0000
0010
0100
0000
,
1000
0000
0010
0100
0000
0100
0001
0000
,
1000
0000
0100
0010
0000
0100
0010
0001
,
1000
0000
0010
0000
0100
0001
0010
0000
,
0100
0000
1000
0000
0010
1000
0001
0000
,
0010
0000
0100
1000
0000
1000
0001
0000
,
0100
0010
1000
0000
0001
0100
0001
0000
,
1000
0000
0100
0010
0001
0000
0010
0100
,
1000
0001
0100
0010
,
1000
0000
0001
0100
0010
0000
1000
0010
,
0100
0001
0010
0100
,
2000
0000
0000
0000
,
3002
0000
0000
0000
,
0203
0000
0000
0000
,
0320
0000
0000
0000
,
1030
0000
0001
1000
0001
0000
0010
0100
,
0010
0001
1000
0010
,
0100
0000
0001
1000
0010
0000
0100
0001
,
0010
0000
0100
0000
1000
0100
0010
0000
,
0001
0000
1000
0010
0100
0000
0001
0000
,
1000
0000
0100
0010
0100
0000
1000
0000
,
0001
0100
0010
0000
1000
0010
0100
0000
,
0001
1000
0001
0000
0010
0100
1000
0100
,
0010
0000
0001
0000
1000
0010
1000
0000
,
0001
0000
0100
0000
0010
1000
0001
0000
,
0010
0000
0100
1000
0100
0000
0010
0000
,
1001
0101
1100
1010
,
1001
0000
0010
0000
0100
0001
1000
0000
,
0100
0000
0010
0000
0001
0010
0100
0000
,
1000
0000
0001
0000
0100
0010
0100
0000
,
0001
0000
1000
0000
0100
0010
0001
1000
;
#NOTES:
     dance-single:
     :
     Hard:
     7:
     :
0000
0000
0000
0000
,
1000
0000
0000
0000
1100
0000
0000
0100
0000
0000
0010
0000
1001
0000
0000
0000
,
0001
0000
0000
0000
0101
0000
0000
0010
0000
0000
1000
0000
1010
0000
0000
0000
,
0100
0000
0000
0000
1001
0000
0000
1000
0000
0000
0100
0000
0110
0000
0000
0000
,
0010
0000
0000
0000
0011
0000
0000
1000
0000
0000
0001
0000
0101
0000
0100
0000
,
0020
0000
0000
0000
1000
0000
0000
0100
0000
0000
0100
0000
1000
0000
0030
0000
,
2000
0000
0000
0000
0001
0000
0000
0010
0000
0000
0010
0000
0001
0000
3000
0000
,
0020
0000
0000
0000
0100
0000
0000
1000
0000
0000
0100
0000
1000
0000
0030
0000
,
1000
0000
0000
0001
0000
0000
0010
0000
0000
0100
0000
0000
1000
0000
0001
0000
,
1000
0000
0000
0000
0100
0000
0000
0010
0000
0000
0001
0000
1000
0000
0000
0000
,
0010
0000
0000
0000
0100
0000
0000
0001
0000
0000
1000
0000
0001
0000
0001
0000
,
0010
0000
0000
0000
0100
0000
0000
1000
0000
0000
0001
0000
1000
0000
0000
0000
,
0010
0000
0000
0000
0100
0000
0000
0001
1000
0000
0100
0000
0010
0000
0001
0000
,
1000
0000
0000
1000
0100
0000
0000
0010
0000
0000
0001
0000
1000
0000
0000
0000
,
0010
0000
0000
0010
0100
0000
0000
0001
0000
0000
1000
0000
0010
0000
1000
0000
,
0100
0000
0000
0100
0010
0000
0000
0001
0000
0000
1000
0000
0010
0000
0000
0000
,
1000
0000
0000
0001
0100
0000
0000
0010
0000
0000
1000
0000
0001
0000
0010
0000
,
0100
0000
0000
0100
1000
0000
0000
1000
0100
0000
0010
0000
0001
0000
0000
0000
,
1000
0000
0000
0010
0100
0000
0000
0001
1000
0000
0100
0000
0010
0000
0100
0000
,
1000
0000
0000
1000
0001
0000
0000
0001
0010
0000
0100
0000
0010
0000
0000
0000
,
0001
0000
0000
0000
1000
0000
0010
0000
0100
0001
0000
0001
0010
0000
0000
0000
,
0120
0100
0100
0100
,
0001
0001
0001
0031
,
1002
1000
1000
1000
,
0100
0000
0000
0100
0000
0000
0100
0000
0000
0100
0000
0000
0100
0000
0003
0000
,
1000
0000
0000
0001
0100
0000
0000
0010
0000
0000
1000
0000
0001
0000
0000
0000
,
0010
0000
0000
0010
0001
0000
0000
0100
0000
0000
0100
0000
0010
0000
1000
0000
,
0001
0000
0000
1000
0001
0000
0000
0010
0000
0000
0100
0000
1000
0000
0000
0000
,
0010
0000
0000
1000
0001
0000
0000
0001
0000
0000
0100
0000
0010
0000
1000
0000
,
0001
0000
0000
0010
0100
0000
0000
1000
0000
0000
0001
0000
0100
0000
0000
0000
,
0010
0000
0000
0010
1000
0000
0000
1000
0000
0000
0001
0000
0010
0000
0100
0000
,
0010
0000
0000
0001
1000
0000
0000
0001
0000
0000
0100
0000
0010
0000
0000
0000
,
1000
0000
0000
1000
0100
0000
0000
0100
0000
0000
0010
0000
0001
0000
1000
0000
,
0001
0000
0000
0100
0010
0000
0000
1000
0000
0010
1000
0000
0001
0000
0000
0000
,
0010
0000
0000
0010
0001
0000
0000
0001
0000
1000
0010
0000
1000
0000
0100
0000
,
0010
0000
0000
0100
1000
0000
0000
0001
0000
0100
0001
0000
1000
0000
0000
0000
,
0010
0100
0100
0001
0001
1000
1000
0100
,
0010
0001
0000
0001
1000
0000
1000
0001
0000
0001
1000
0000
0010
0000
0100
0000
,
0001
0100
0000
0100
0010
0000
0010
1000
0000
1000
0001
0000
0010
0000
0001
0000
,
1000
0100
0000
0100
0010
0000
0010
0100
0000
0100
1000
0000
0001
0000
0100
0000
,
0001
0100
0000
0100
0010
0000
0010
1000
0000
1000
0001
0000
0010
0000
0100
1000
;
#NOTES:
     dance-single:
     :
     Challenge:
     9:
     :
0000
0000
0000
0000
,
0001
1000
0000
1000
0010
0000
0010
0100
0000
0100
0000
0100
0001
0000
1000
0001
,
1000
0001
0000
0001
0010
0000
0010
0100
0000
0100
0000
0100
1000
0000
0010
0100
,
0010
0100
0000
0100
0001
0000
0001
1000
0000
1000
0000
1000
0100
0000
0010
0100
,
0010
0100
0000
0100
1000
0000
1000
0001
0000
0001
0000
0001
0100
0000
0010
1000
,
0002
0000
0000
1003
0100
0000
1000
0001
0000
1000
0000
1000
0010
0100
0010
0000
,
2000
0000
0000
3010
0100
0000
0010
1000
0000
0001
0000
0001
1000
0100
1000
0000
,
0010
0000
0100
0000
0001
0000
1000
0100
0000
1000
0000
1000
0001
0100
0001
0000
,
0100
0010
0000
1000
0001
0000
0010
0100
0000
1000
0001
0000
0100
0000
0010
1000
,
0001
1000
0001
1000
0100
0000
0010
0001
0000
1000
0100
1000
0001
1000
0000
0010
,
0000
0100
0001
1000
0001
0000
0000
0010
0000
0100
1000
0000
0001
0100
0000
0000
,
0000
0010
1000
0001
0100
0000
0001
0010
0100
1000
0100
0010
0001
0000
0000
0000
,
0000
0010
0001
0100
0010
0000
1000
0001
1000
0010
0000
0010
0000
0010
0100
0001
,
1000
0100
0010
0001
1000
0000
0010
1000
0001
0010
0001
1000
0100
0000
0010
0000
,
0000
0001
1000
0001
0100
0010
0000
1000
0000
0001
1000
0100
0010
0100
0000
0000
,
0000
0000
0000
1000
0001
0000
0100
0000
0010
1000
0000
0001
0000
0000
0000
0000
,
0000
0010
0100
1000
0100
0010
0000
0010
0001
1000
0001
0000
0100
0000
0000
0000
,
0000
0010
1000
0000
0001
0000
0010
0100
0010
0001
1000
0000
0010
0000
0000
0000
,
0000
0100
0001
1000
0010
1000
0000
0000
0001
0000
1000
0000
0100
0000
0000
0000
,
0000
0010
0000
0001
1000
0000
0010
1000
0000
1000
0001
0100
0001
0000
0000
0000
,
0000
0010
0001
0010
0100
0000
1000
0000
0001
0100
0000
1000
0100
0000
0000
0000
,
0110
0000
1000
0000
0001
1000
0001
0000
,
0010
0000
0000
0000
0100
0000
0000
1000
0000
0010
0000
1000
0001
0000
0000
0000
,
1001
0000
0100
0000
0010
1000
0001
0000
,
0010
0000
0000
0100
0000
0000
1000
0000
0001
1000
0000
1000
0000
1000
0000
1000
,
0100
0010
0000
0001
0000
0000
0010
0100
0000
0100
1000
0000
0001
0000
0000
0000
,
0100
0010
0000
0100
0010
1000
0000
0001
0000
0010
0000
0100
0000
0000
0000
0000
,
1000
0100
0010
0000
0001
0000
1000
0010
1000
0000
0001
0100
0000
0000
0000
1000
,
0000
0100
0010
0000
1000
0001
0000
0010
0000
0100
0000
0010
0000
0000
0000
0000
,
0000
0100
1000
0100
1000
0000
0001
0100
0000
0100
0010
1000
0001
1000
0100
0010
,
0000
0010
0001
1000
0100
0000
0001
0000
0100
1000
0001
0000
0100
0001
0000
0000
,
1000
0010
1000
0001
0100
0000
0001
1000
0010
1000
0100
0010
0001
0000
0000
1000
,
0000
0100
0010
0100
0000
0010
0001
1000
0000
0010
1000
0000
0001
0000
0000
0000
,
0000
0100
0010
1000
0000
0001
1000
0100
0010
0100
0001
0100
0010
0001
1000
0000
,
0001
1000
0010
0100
0010
0000
1000
0001
0010
0000
0100
0000
1000
0000
0000
0000
,
0000
0100
0010
0100
1000
0000
0001
0100
0010
1000
0000
0001
0000
0000
0000
0000
,
1100
0000
0100
0000
0100
0000
0100
0000
0100
0000
0100
0000
0010
0001
0010
0001
,
1000
0010
0000
0100
0001
0000
1000
0001
0000
0001
0000
1000
0100
0000
0010
0001
,
1000
0100
0000
0010
0001
0000
0010
0100
0000
1000
0000
0100
0010
0000
0100
1000
,
0001
0100
0000
0001
1000
0000
0100
0010
0000
0010
0000
0001
1000
0000
0010
1000
,
0001
0100
0000
1000
0100
0000
0010
0001
0000
0010
1000
0000
0001
1000
0001
1000
;
#NOTES:
     dance-double:
     :
     Beginner:
     1:
     :
00000000
00000000
00000000
00000000
,
10000000
00000000
00000000
00000000
,
01000000
00000000
00000000
00000000
,
00100000
00000000
00000000
00000000
,
00001000
00000000
00000000
00000000
,
00010000
00000000
00000000
00000000
,
00000100
00000000
00000000
00000000
,
00000010
00000000
00000000
00000000
,
00000001
00000000
00001000
00000000
,
00001000
00000000
00000000
00000000
,
00000010
00000000
00000000
00000000
,
00010000
00000000
00000000
00000000
,
00001000
00000000
00000000
00000000
,
00100000
00000000
00010000
00000000
,
00100000
00000000
00000000
00000000
,
01000000
00000000
10000000
00000000
,
01000000
00000000
00000000
00000000
,
00100000
00000000
01000000
00000000
,
00100000
00000000
00000000
00000000
,
00001000
00000000
00010000
00000000
,
00001000
00000000
00000000
00000000
,
00011000
00000000
00000000
00000000
,
00000000
00000000
00000000
00000000
,
00001001
00000000
00000000
00000000
,
00000000
00000000
00000000
00000000
,
00000001
00000000
00001000
00000000
,
00000001
00000000
00000000
00000000
,
00001000
00000000
00000010
00000000
,
00001000
00000000
00000000
00000000
,
00000100
00000000
00000000
00000000
,
00010000
00000000
00000000
00000000
,
00001000
00000000
00000000
00000000
,
01000000
00000000
00000000
00000000
,
00100000
00000000
10000000
00000000
,
00100000
00000000
00000000
00000000
,
01000000
00000000
00010000
00000000
,
00100000
00000000
00100000
00000000
,
00001000
00000000
00001000
00000000
,
00010000
00000000
00010000
00000000
,
00000010
00000000
00000010
00000000
,
00001000
00000000
00000001
00000000
;
#NOTES:
     dance-double:
     :
     Easy:
     3:
     :
00000000
00000000
00000000
00000000
,
10000000
00000000
00010000
00000000
,
00100000
00000000
00001000
00000000
,
00010000
00000000
00000100
00000000
,
00001000
00000000
00000010
00000000
,
00000100
00000000
00000001
00000100
,
00000001
00000000
00001000
00000000
,
00000100
00000000
00010000
00001000
,
00010000
00000000
00010000
00000000
,
00001000
00000000
01000000
00000000
,
00100000
00000000
10000000
00000000
,
01000000
00000000
00100000
00000000
,
00001000
00000000
00010000
00000000
,
00001000
00010000
00001000
00000000
,
00010000
00000010
00010000
00000000
,
00000010
00000100
00000001
00000000
,
00000100
00000010
00000100
00000000
,
00000010
00000000
00010000
00000010
,
00010000
00000000
00001000
00000000
,
01000000
00000000
00010000
10000000
,
00010000
00000000
10000000
00000000
,
02000000
00000000
00000000
00000000
,
00000000
00000000
00000000
03000000
,
00200000
00000000
00000000
00000000
,
00000000
00000000
00000000
00300000
,
00001000
00000000
00010000
00010000
,
00000010
00000000
00001000
00000001
,
00001000
00000000
00000001
00000001
,
00000100
00000000
00000010
00010000
,
00000010
00000000
00010000
00001000
,
00010000
00000000
00001000
01000000
,
00001000
00000000
01000000
00000000
,
00010000
10000000
00010000
10000000
,
01000000
00000000
00100000
00000000
,
00001000
00000000
00001000
00000000
,
00010000
00000000
00000100
00000000
,
00000010
00000000
00000010
00000001
,
00000010
00000000
00000100
00000100
,
00010000
00000000
00001000
00100000
,
00010000
00000000
00100000
00100000
,
01000000
00000000
10000000
00010000
;
#NOTES:
     dance-double:
     :
     Medium:
     5:
     :
00000000
00000000
00000000
00000000
,
00000001
00000000
00000010
00000000
00000100
00001000
00000100
00000000
,
00010000
00000000
00001000
00000000
01000000
00010000
01000000
00000000
,
00100000
00000000
10000000
00000000
00010000
01000000
00010000
00000000
,
10000000
01000000
00100000
00000000
00100000
00001000
00010000
00000000
,
00001000
00000000
00010000
00001000
00010000
00000000
00000010
00000000
,
00001000
00000000
00000001
00001000
00000100
00000000
00000010
00000000
,
00000001
00000000
00000010
00000100
00010000
00000000
00001000
00000000
,
00100000
00000000
00000000
00010000
00000000
00000000
10000000
00000000
00000000
01000000
00000000
00000000
00100000
00000000
00001000
00000000
,
00010000
00000000
00001000
00010000
00000100
00000000
00000010
00000000
,
00000001
00000000
00001000
00000010
00010000
00000000
00001000
00000000
,
01000000
00000000
00100000
10000000
00100000
00000000
01000000
00000000
,
00001000
00000000
00010000
00000100
00001000
00000000
00000001
00000100
,
00001000
00000000
00000100
00000000
00000010
00010000
00001000
00000000
,
00100000
00000000
00010000
00000000
10000000
01000000
00010000
00000000
,
01000000
00000000
00100000
00010000
01000000
00000000
00001000
00000000
,
00001000
00010000
00001000
00000000
00010000
00000100
00010000
00000000
,
00000100
00000000
00000010
00000001
00001000
00000000
00000010
00001000
,
00000001
00000010
00000100
00010000
,
00001000
00000000
01000000
00010000
10000000
00000000
01000000
10000000
,
00010000
01000000
00100000
10000000
,
02000000
00000000
00000000
00000000
,
03200000
00000000
00000000
00000000
,
00302000
00000000
00000000
00000000
,
00023000
00000000
00000000
00000000
,
00030010
00000000
00001000
00000010
00000100
00000000
00000001
00000010
,
00000100
00010000
00001000
01000000
,
00100000
00000000
10000000
01000000
10000000
00000000
01000000
00000000
,
00100000
00001000
00010000
00000000
00001000
00010000
00001000
00000000
,
00010000
00000000
00000100
00000010
00000001
00000000
00000010
00000000
,
00000100
00000000
00010000
00000100
00010000
00000000
00001000
00000000
,
01000000
00100000
10000000
00000000
10000000
00100000
01000000
00000000
,
00010000
01000000
10000000
00000000
10000000
01000000
00010000
00000000
,
00100000
00000000
00001000
00000000
00010000
00000100
00010000
00000000
,
00000100
00000000
00000010
00000000
00000001
00001000
00000010
00000000
,
00010000
00000000
00001000
00100000
01000000
00000000
00100000
00000000
,
00110000
00011000
00010100
00001100
,
00000110
00000000
00000010
00000000
00000001
00001000
00000010
00000000
,
00000100
00000000
00000010
00000000
00010000
00001000
01000000
00000000
,
00100000
00000000
10000000
00000000
01000000
00010000
01000000
00000000
,
00100000
00000000
00001000
00000000
00010000
00000010
00001000
00000001
;
#NOTES:
     dance-double:
     :
     Hard:
     8:
     :
00000000
00000000
00000000
00000000
,
00000001
00000000
00000000
00000001
00001000
00000000
00000000
00000010
00000000
00000000
00010000
00000000
00011000
00000000
00000000
00000000
,
00001000
00000000
00000000
01000000
00010000
00000000
00000000
01000000
00000000
00000000
00100000
00000000
10100000
00000000
00000000
00000000
,
10000000
00000000
00000000
01000000
00100000
00000000
00000000
00100000
00000000
00000000
00010000
00000000
00110000
00000000
00000000
00000000
,
00100000
00000000
00000000
00100000
00001000
00000000
00000000
00010000
00000000
00000000
00000100
00000000
00010100
00000000
00000000
00000000
,
00002000
00000000
00000000
00000000
00000100
00000000
00000000
00000001
00000000
00000000
00000000
00000000
00000010
00000000
00000000
00000000
,
00003200
00000000
00000000
00000000
00010000
00000000
00000000
00001000
00000000
00000000
00000000
00000000
00010000
00000000
00000000
00000000
,
00020300
00000000
00000000
00000000
00001000
00000000
00000000
00000100
00000000
00000000
00000000
00000000
00001000
00000000
00000000
00000000
,
00031000
00000000
00000000
00100000
00000000
00000000
00010000
00000000
00000000
01000000
00000000
00000000
00100000
00000000
10000000
00000000
,
00010000
00000000
00000000
00000000
01010000
00000000
00000000
01000000
00000000
00000000
00001000
00000000
00010000
00000000
00000000
00000000
,
00000100
00000000
00000000
00000000
00001001
00000000
00000000
00001000
00000000
00000000
00000001
00000000
00000010
00000000
00000100
00000000
,
00010000
00000000
00000000
00000000
00011000
00000000
00000000
00001000
00000000
00000000
01000000
00000000
00010000
00000000
00000000
00000000
,
10000000
00000000
00000000
00000000
10100000
00000000
00000000
00100000
00000000
00000000
01000000
00000000
00010000
00000000
00100000
00000000
,
00001000
00000000
00000000
00010000
00000100
00000000
00000000
00000010
00000000
00000000
00000001
00000000
00001000
00000000
00000000
00000000
,
00000010
00000000
00000000
00000010
00010000
00000000
00000000
00001000
00000000
00000000
00010000
00000000
01000000
00000000
00100000
00000000
,
00010000
00000000
00000000
10000000
00100000
00000000
00000000
01000000
00000000
00000000
00001000
00000000
00010000
00000000
00000000
00000000
,
00001000
00000000
00000000
00000100
00000010
00000000
00000000
00001000
00000000
00000000
00000001
00000000
00000010
00000000
00000100
00000000
,
00001000
00000000
00000000
00000010
00010000
00000000
00000000
00001000
01000000
00000000
00100000
00000000
10000000
00000000
00000000
00000000
,
00100000
00000000
00000000
00100000
00010000
00000000
00000000
00010000
00001000
00000000
00000100
00000000
00000010
00000000
00001000
00000000
,
00000001
00000000
00000000
00000010
00000100
00000000
00000000
00010000
00001000
00000000
01000000
00000000
00100000
00000000
00000000
00000000
,
10000000
00000000
00000000
00000000
00010000
00000000
01000000
00000000
10000000
01000000
00000000
01000000
00001000
00000000
00000000
00000000
,
00012000
00010000
00010000
00010000
,
00000100
00000100
00000100
00003100
,
00000210
00000010
00000010
00000010
,
00000001
00000000
00000000
00000001
00000000
00000000
00000001
00000000
00000000
00000001
00000000
00000000
00000301
00000000
00000000
00000000
,
00000010
00000000
00000000
00000010
00001000
00000000
00000000
00001000
00010000
00000000
00001000
00000000
00100000
00000000
00000000
00000000
,
00001000
00000000
00000000
00001000
01000000
00000000
00000000
01000000
10000000
00000000
01000000
00000000
00100000
00000000
10000000
00000000
,
01000000
00000000
00000000
01000000
00010000
00000000
00000000
00010000
00001000
00000000
00010000
00000000
00000100
00000000
00000000
00000000
,
00000010
00000000
00000000
00000010
00000001
00000000
00000000
00000001
00001000
00000000
00000010
00000000
00010000
00000000
00001000
00000000
,
00010000
00000000
00000000
00001000
01000000
00000000
00000000
00100000
10000000
00000000
00010000
00000000
01000000
00000000
00000000
00000000
,
00100000
00000000
00000000
00100000
00010000
00000000
00000000
00010000
00001000
00000000
00000100
00000000
00000010
00000000
00000001
00000000
,
00000010
00000000
00000000
00001000
00000001
00000000
00000000
00000010
00000001
00000000
00000010
00000000
00000100
00000000
00000000
00000000
,
00010000
00000000
00000000
00001000
01000000
00000000
00000000
01000000
00100000
00000000
10000000
00000000
01000000
00000000
00010000
00000000
,
01000000
00000000
00000000
00100000
00001000
00000000
00000000
00010000
00000000
00001000
00010000
00000000
00000010
00000000
00000000
00000000
,
00001000
00000000
00000000
00000001
00000100
00000000
00000000
00001000
00000000
00000100
00001000
00000000
00010000
00000000
00100000
00000000
,
10000000
00000000
00000000
01000000
10000000
00000000
00000000
00100000
00000000
01000000
00010000
00000000
00100000
00000000
00000000
00000000
,
00001000
00010000
00010000
00000010
00000010
00001000
00001000
00000010
,
00000001
00000010
00000000
00000010
00001000
00000000
00000001
00000100
00000000
00000100
00001000
00000000
00010000
00000000
00001000
00000000
,
00010000
00100000
00000000
00100000
10000000
00000000
00010000
01000000
00000000
01000000
10000000
00000000
01000000
00000000
00010000
00000000
,
10000000
01000000
00000000
01000000
00010000
00000000
00010000
01000000
00000000
01000000
00100000
00000000
00001000
00000000
00010000
00000000
,
00000010
00001000
00000000
00001000
00000100
00000000
00000100
00000001
00000000
00000001
00000100
00000000
00010000
00000000
00001000
00010000
;
#NOTES:
     dance-double:
     :
     Challenge:
     9:
     :
00000000
00000000
00000000
00000000
,
00000010
00001000
00000000
00001000
00000100
00000000
00000100
00000010
00000000
00000010
00000000
00000001
00001000
00000000
00000010
00010000
,
00000010
00010000
00000000
00010000
00001000
00000000
00001000
01000000
00000000
01000000
00000000
00100000
10000000
00000000
00100000
01000000
,
00100000
01000000
00000000
01000000
00010000
00000000
00010000
00100000
00000000
00100000
00000000
00100000
00001000
00000000
00010000
00000100
,
00010000
00000100
00000000
00000100
00001000
00000000
00001000
00000100
00000000
00000100
00000000
00000100
00000001
00000000
00000100
00000010
,
00000002
00000000
00000000
00000103
00001000
00000000
00000100
00010000
00000000
00001000
00000000
00100000
00010000
00001000
00100000
00000000
,
00020000
00000000
00000000
00130000
10000000
00000000
00100000
01000000
00000000
00010000
00000000
01000000
10000000
00010000
01000000
00000000
,
00001000
00000000
00010000
00000000
00000010
00000000
00001000
00000001
00000000
00000010
00000000
00000100
00000001
00000100
00001000
00000000
,
00000001
00000100
00000000
00001000
00010000
00000000
00100000
10000000
00000000
00010000
01000000
00000000
00100000
00000000
10000000
00010000
,
00100000
01000000
00100000
01000000
10000000
00000000
01000000
00100000
00000000
00001000
00010000
00001000
00000100
00001000
00000000
00000100
,
00000000
00000010
00001000
00000001
00000010
00000000
00000000
00000100
00000000
00010000
00001000
00000000
00100000
01000000
00000000
00000000
,
00000000
00010000
01000000
10000000
00010000
00000000
00100000
10000000
00100000
00001000
00010000
00001000
00010000
00000000
00000000
00000000
,
00000000
00000010
00010000
00001000
00000100
00000000
00000010
00001000
00000001
00000010
00000000
00000010
00000000
00000010
00001000
00000010
,
00000001
00001000
00000010
00000100
00000001
00000000
00001000
00000100
00010000
00001000
01000000
00010000
10000000
00000000
00100000
00000000
,
00000000
01000000
00010000
01000000
00100000
01000000
00000000
00001000
00000000
00010000
00000100
00001000
00000100
00000010
00000000
00000000
,
00000000
00000000
00000000
00000001
00001000
00000000
00000010
00000000
00001000
00000001
00000000
00000010
00000000
00000000
00000000
00000000
,
00000000
00000001
00000100
00001000
00000100
00000010
00000000
00010000
00001000
00100000
00010000
00000000
01000000
00000000
00000000
00000000
,
00000000
00100000
00010000
00000000
00100000
00000000
10000000
00010000
01000000
00100000
00010000
00000000
00001000
00000000
00000000
00000000
,
00000000
00010000
00000010
00000100
00001000
00000100
00000000
00000000
00000001
00000000
00000010
00000000
00000100
00000000
00000000
00000000
,
00000000
00010000
00000000
00001000
00100000
00000000
00010000
10000000
00000000
01000000
00100000
00010000
00100000
00000000
00000000
00000000
,
00000000
00001000
00010000
00000100
00010000
00000000
00001000
00000000
00010000
00000010
00000000
00000010
00001000
00000000
00000000
00000000
,
00001001
00000000
00000010
00000000
00001000
00000100
00010000
00000000
,
00001000
00000000
00000000
00000000
01000000
00000000
00000000
00100000
00000000
10000000
00000000
00100000
01000000
00000000
00000000
00000000
,
01100000
00000000
00010000
00000000
00100000
00001000
00010000
00000000
,
00011000
00000000
00000000
00010100
00000000
00000000
00010010
00000000
00001000
00000001
00000000
00000001
00000000
00000001
00000000
00000001
,
00000100
00001000
00000000
00000100
00000000
00000010
00010000
00001000
00000000
00100000
01000000
00000000
00010000
00000000
00000000
00000000
,
01000000
10000000
00000000
01000000
00100000
00010000
00000000
00100000
00000000
00001000
00000000
00010000
00000000
00000000
00000000
00000000
,
00000010
00001000
00000001
00000000
00000100
00000000
00001000
00000100
00000001
00000000
00001000
00000100
00000000
00000000
00000000
00000010
,
00000000
00001000
00010000
00000000
00001000
00100000
00000000
00010000
00000000
01000000
00000000
00100000
00000000
00000000
00000000
00000000
,
00000000
10000000
00010000
10000000
00100000
00000000
01000000
00010000
00000000
01000000
00100000
00010000
00001000
00010000
00000100
00001000
,
00000000
00001000
00000100
00000010
00000001
00000000
00000010
00000000
00000100
00001000
00000010
00000000
00010000
00001000
00000000
00000000
,
00100000
00001000
01000000
00010000
00100000
00000000
00010000
00100000
01000000
10000000
01000000
00100000
00010000
00000000
00000000
00100000
,
00000000
00001000
00010000
00001000
00000000
00010000
00000010
00001000
00000000
00000010
00000001
00000000
00000010
00000000
00000000
00000000
,
00000000
00000100
00000010
00001000
00000000
00000001
00000100
00001000
00000100
00001000
00010000
00001000
00010000
00100000
10000000
00000000
,
00100000
01000000
00010000
00100000
00001000
00000000
00010000
00000100
00000010
00000000
00001000
00000000
00000010
00000000
00000000
00000000
,
00000000
00000001
00001000
00000010
00000100
00000000
00000001
00000010
00001000
00010000
00000000
00001000
00000000
00000000
00000000
00000000
,
00011000
00000000
00010000
00000000
00010000
00000000
00010000
00000000
00010000
00000000
00010000
00000000
00001000
00100000
00001000
00100000
,
00010000
01000000
00000000
01000000
10000000
00000000
01000000
00100000
00000000
00100000
00000000
10000000
00010000
00000000
00100000
00001000
,
00010000
00000100
00000000
00001000
00000100
00000000
00000010
00000001
00000000
00000001
00000000
00001000
00000010
00000000
00000001
00000010
,
00000100
00000010
00000000
00000010
00001000
00000000
00000100
00010000
00000000
00010000
00000000
00001000
01000000
00000000
00100000
10000000
,
00010000
10000000
00000000
01000000
00010000
00000000
00001000
00000010
00000000
00000001
00001000
00000000
00000010
00010000
00000100
00001000
;
