#TITLE:ΔMAX (DM Ashura's Steps);
#ARTIST:DM Ashura;
#TITLETRANSLIT:deltaMAX (DM Ashura's Steps);
#BANNER:deltaMAX (DM Ashura's Steps).png;
#BACKGROUND:deltaMAX (DM Ashura's Steps)-bg.png;
#CDTITLE:./CDTitles/DDR UNIVERSE3.png;
#MUSIC:deltaMAX (DM Ashura's Steps).ogg;
#SAMPLESTART:52.23;
#SAMPLELENGTH:15;
#DISPLAYBPM:100:573;
#BPMS:0=100,20=101.124,21=102.273,23=104.651,25=105.882,26=107.143,27=108.434,29=109.756,30=111.111,31=112.5,33=113.924,34=115.385,36=116.883,37=118.421,38=120,41=121.622,42=123.288,43=125,46=126.761,47=128.571,49=130.435,51=132.353,52=134.328,55=136.364,57=138.462,59=140.625,62=142.857,63=145.161,66=147.541,68=150,71=152.542,73=155.172,76=157.895,79=160.714,82=163.636,84=166.667,85=163.636,86=169.811,87=166.667,88=169.811,91=173.077,94=176.471,98=180,101=183.673,105=187.5,106=183.673,107=191.489,108=187.5,109=191.489,110=187.5,111=195.652,112=191.489,113=195.652,114=191.489,115=195.652,116=200,117=195.652,118=200,121=204.545,122=200,123=204.545,125=209.302,126=204.545,127=209.302,131=214.286,136=219.512,137=214.286,138=219.512,140=225,141=219.512,142=225,147=230.769,148=225,149=230.769,152=236.842,153=230.769,154=236.842,159=243.243,161=236.842,162=243.243,163=250,164=243.243,166=250,167=243.243,168=250,171=257.143,172=250,173=257.143,174=250,175=257.143,178=264.706,179=257.143,180=264.706,181=257.143,182=264.706,187=272.727,188=264.706,189=272.727,195=281.25,196=272.727,197=281.25,198=272.727,199=281.25,202=290.323,203=281.25,205=290.323,206=281.25,207=290.323,212=300,213=290.323,215=300,218=290.323,219=300,220=310.345,221=300,224=310.345,225=300,226=310.345,233=321.429,234=310.345,235=321.429,236=310.345,237=321.429,240=310.345,241=333.333,242=321.429,245=333.333,246=321.429,247=333.333,248=321.429,249=333.333,257=346.154,258=333.333,259=346.154,260=333.333,261=346.154,270=360,271=346.154,272=360,273=346.154,274=360,275=346.154,276=360,283=375,284=360,286=375,287=360,288=375,291=360,292=375,297=391.304,298=375,301=391.304,302=375,303=391.304,305=375,306=391.304,316=409.091,317=391.304,318=409.091,319=391.304,320=409.091,321=391.304,322=409.091,324=391.304,325=409.091,332=428.571,333=409.091,336=428.571,337=409.091,338=428.571,339=409.091,340=428.571,342=409.091,343=428.571,353=450,354=428.571,356=450,357=428.571,358=450,359=428.571,360=450,361=428.571,362=450,366=428.571,367=450,372=473.684,373=450,377=473.684,378=450,379=473.684,380=450,381=473.684,382=450,383=473.684,384=450,385=473.684,388=450,389=473.684,397=500,398=473.684,401=500,402=473.684,404=500,405=473.684,406=500,407=473.684,408=500,410=473.684,411=500,414=473.684,415=500,424=529.412,425=500,428=529.412,429=500,431=529.412,432=500,433=529.412,434=500,435=529.412,436=500,437=529.412,439=500,440=529.412,443=500,444=529.412,454=562.5,455=529.412,458=562.5,459=529.412,461=562.5,462=529.412,463=562.5,464=529.412,465=562.5,466=529.412,467=562.5,468=529.412,469=562.5,471=529.412,472=562.5,475=529.412,476=562.5,488=600,489=562.5,492=573.451; //Custom Sync //#BPMS:0=100.05,4=100,20=101,21=102,22=103,23=104,24=105,25=106,26=107,27=108,28=109,29=110,30=111,31=112,32=113,33=114,34=115,35=116,36=117,37=118,38=119,39=120,40=121,41=122,42=123,43=124,44=125,45=126,46=127,47=128,48=129,49=130,50=131,51=132,52=133,54=135,55=136,56=137,57=138,58=139,59=140,60=141,61=142,62=143,63=144,64=145,65=146,66=147,67=148,68=149,69=150,70=151,71=152,72=153,73=154,74=155,75=156,76=157,77=158,78=159,79=160,80=161,81=162,82=163,83=164,84=165,85=166,86=167,87=168,88=169,89=170,90=171,91=172,93=174,94=175,95=176,96=177,97=178,98=179,99=180,100=181,101=182,102=183,103=184,104=185,105=186,106=187,107=188,108=189,109=190,110=191,111=192,112=193,113=194,114=195,115=196,116=197,117=198,118=199,119=200,120=201,121=202,122=203,123=204,124=205,125=206,126=207,127=208,128=209,129=210,130=211,131=212,132=213,133=214,134=215,135=216,136=217,137=218,138=219,139=220,140=221,141=222,142=223,143=224,144=225,145=226,146=227,147=228,148=229,149=230,150=231,151=232,152=233,153=234,154=235,155=236,156=237,157=238,158=239,159=240,160=241,161=242,162=243,163=244,164=245,165=246,166=247,167=248,168=249,169=250,170=251,171=252,172=253,173=254,174=255,175=256,176=257,177=258,178=259,179=260,180=261,181=262,182=263,183=264,184=265,185=266,186=267,187=268,188=269,189=270,190=271,191=272,192=273,193=274,194=275,195=276,196=277,197=278,198=279,199=280,200=281,201=282,202=283,203=284,204=285,205=286,206=287,207=288,208=289,209=290,210=291,211=292,212=293,213=294,214=295,215=296,216=297,217=298,218=299,219=300,220=301,221=302,222=303,223=304,224=305,225=306,226=307,227=308,228=309,229=310,230=311,231=312,232=313,233=314,234=315,235=316,236=317,237=318,238=319,239=320,240=321,241=322,242=323,243=324,244=325,245=326,246=327,247=328,248=329,249=330,250=331,251=332,252=333,253=334,254=335,255=336,256=337,257=338,258=339,259=340,260=341,261=342,262=343,263=344,264=345,265=346,266=347,267=348,268=349,269=350,270=351,271=352,272=353,273=354,274=355,275=356,276=357,277=358,278=359,279=360,280=361,281=362,282=363,283=364,284=365,285=366,286=367,287=368,288=369,289=370,290=371,291=372,292=373,293=374,294=375,295=376,296=377,297=378,298=379,299=380,300=381,301=382,302=383,303=384,304=385,305=386,306=387,307=388,308=389,309=390,310=391,311=392,312=393,313=394,314=395,315=396,316=397,317=398,318=399,319=400,320=401,321=402,322=403,323=404,324=405,325=406,326=407,327=408,328=409,329=410,330=411,331=412,332=413,333=414,334=415,335=416,336=417,337=418,338=419,339=420,340=421,341=422,342=423,343=424,344=425,345=426,346=427,347=428,348=429,349=430,350=431,351=432,352=433,353=434,354=435,355=436,356=437,357=438,358=439,359=440,360=441,361=442,362=443,363=444,364=445,365=446,366=447,367=448,368=449,369=450,370=451,371=452,372=453,373=454,374=455,375=456,376=457,377=458,378=459,379=460,380=461,381=462,382=463,383=464,384=465,385=466,386=467,387=468,388=469,389=470,390=471,391=472,392=473,393=474,394=475,395=476,396=477,397=478,398=479,399=480,400=481,401=482,402=483,403=484,404=485,405=486,406=487,407=488,408=489,409=490,410=491,411=492,412=493,413=494,414=495,415=496,416=497,417=498,418=499,419=500,420=501,421=502,422=503,423=504,424=505,425=506,426=507,427=508,428=509,429=510,430=511,431=512,432=513,433=514,434=515,435=516,436=517,437=518,438=519,439=520,440=521,441=522,442=523,443=524,444=525,445=526,446=527,447=528,448=529,449=530,450=531,451=532,452=533,453=534,454=535,455=536,456=537,457=538,458=539,459=540,460=541,461=542,462=543,463=544,464=545,465=546,466=547,467=548,468=549,469=550,470=551,471=552,472=553,473=554,474=555,475=556,476=557,477=558,478=559,479=560,480=561,481=562,482=563,483=564,484=565,485=566,486=567,487=568,488=569,489=570,490=571,491=572,492=573;

//---------------dance-single - ----------------
#NOTES:
     dance-single:
     :
     Beginner:
     4:
     :
0000
0000
0000
0000
,
0000
0000
0000
0000
,
0000
0000
0000
0000
,
0000
0000
0000
0000
,
0000
0000
0000
0000
,
0010
0010
0000
0000
,
0100
0000
0010
0000
,
0100
0100
0000
0000
,
0001
0000
1000
0000
,
0001
0001
0000
0000
,
1000
0000
0100
0000
,
0001
0000
0100
0000
,
1000
0000
0100
0000
,
1001
1001
0000
0000
,
1000
0000
0001
0000
,
0110
0110
0000
0000
,
0100
0000
0010
0000
,
1001
1001
0000
0000
,
0001
0000
1000
0000
,
0010
0010
0010
0010
,
0010
0010
0010
0010
,
0020
0000
0000
0000
,
0000
0030
0000
0010
,
0000
0002
0000
0000
,
0000
0003
0000
0001
,
0000
0200
0000
0000
,
0000
0300
0000
0100
,
0100
0100
0000
1000
,
0000
0001
0000
0010
,
0020
0000
0000
0000
,
0000
0030
0000
0010
,
0000
2000
0000
0000
,
0000
3000
0000
1000
,
0000
0020
0000
0000
,
0000
0030
0000
0010
,
0010
0010
0000
1000
,
0000
0001
0000
0000
,
0010
0010
0000
0000
,
0100
0000
1000
1000
,
1000
1000
0000
0000
,
0001
0000
1001
0000
,
0001
0001
0000
0000
,
0010
0000
0100
0100
,
0100
0100
0000
0000
,
0001
0000
0110
0000
,
1000
1000
0000
0000
,
0001
0000
0010
0010
,
0010
0010
0000
0000
,
0001
0000
1001
0000
,
0100
0100
0000
0000
,
1000
0000
0001
0001
,
0001
0001
0000
0000
,
1000
1000
1000
0000
,
2000
0000
0000
0000
,
0000
0000
0000
3000
,
0000
0000
0000
0000
,
0010
0000
0010
0000
,
0020
0000
0000
0000
,
0000
0000
0000
0030
,
0000
0000
0000
0000
,
0001
0000
0001
0000
,
0002
0000
0000
0000
,
0000
0000
0000
0003
,
0000
0000
0000
0000
,
0100
0000
0100
0000
,
0200
0000
0000
0000
,
0000
0000
0000
0300
,
0000
0000
0000
0000
,
1000
0000
1000
0000
,
2002
0000
0000
0000
,
0000
0000
0000
3003
,
0000
0000
0000
0000
,
0110
0000
0110
0000
,
0220
0000
0000
0000
,
0000
0000
0000
0330
,
0000
0000
0000
0000
,
1001
0000
1001
0000
,
2002
0000
0000
0000
,
0000
0000
0000
3003
,
0000
0000
0000
0000
,
0110
0000
0110
0000
,
0220
0000
0000
0000
,
0000
0000
0000
0330
,
0000
0000
0000
0000
,
1001
0000
1001
0000
,
2002
0000
3003
0000
,
0000
0000
0100
0000
,
0000
0000
0100
0000
,
0000
0000
0100
0000
,
0000
0000
0001
0000
,
0000
0000
0001
0000
,
0000
0000
0001
0000
,
0000
0000
0001
0000
,
0000
0000
1000
0000
,
0000
0000
1000
0000
,
0000
0000
1000
0000
,
0000
0000
1000
0000
,
0000
0000
0010
0000
,
0000
0000
0010
0000
,
0000
0000
0010
0000
,
0000
0000
0010
0000
,
0000
0000
0100
0000
,
0000
0000
0100
0000
,
0000
0000
0100
0000
,
0000
0000
0100
0000
,
0000
0000
1000
0000
,
0000
0000
1000
0000
,
0000
0000
1000
0000
,
0000
0000
1000
0000
,
0000
0000
0001
0000
,
0000
0000
0001
0000
,
0000
0000
0001
0000
,
0000
0000
0001
0000
,
0000
0000
0010
0000
,
0000
0000
0010
0000
,
0000
0000
0010
0000
,
0000
0000
0010
0000
,
0110
0000
0000
0000
,
0000
0000
0000
0000
,
1001
0000
0000
0000
,
0000
0000
0000
0000
,
0110
0000
0000
0000
,
0000
0000
0000
0000
,
1001
0000
0000
0000
;

//---------------dance-single - ----------------
#NOTES:
     dance-single:
     :
     Easy:
     8:
     :
0000
0000
0000
0000
,
0000
0000
0000
0000
,
0000
0000
0000
0000
,
0000
0000
0000
0000
,
0000
0000
0000
0000
,
1001
0000
2002
0000
3003
0000
1000
0001
,
0100
0000
0001
1000
0010
0000
1001
0000
,
0110
0000
0220
0000
0330
0000
1000
1000
,
0200
0301
0200
1300
,
1001
0000
2200
0000
3300
0000
0100
0010
,
0200
0310
2000
3001
,
0001
1100
0010
0101
,
1002
0000
0000
0013
0000
0000
1000
0001
,
1001
0202
0303
0001
,
2000
0000
3100
1000
0002
0000
0103
0000
,
0101
2002
3003
0100
,
0200
0310
0002
1003
,
0101
0000
2020
0000
3030
0000
1000
0010
,
0200
0301
0002
0013
,
0100
1000
0010
0001
,
1000
0100
0001
1000
,
0000
0010
0000
0000
0100
0000
0000
0001
,
0000
1000
0110
1001
,
0000
0001
1000
0000
0101
0000
0000
0100
,
0000
0010
0100
1001
,
0000
0010
0000
0000
1000
0000
0000
0010
,
0000
1000
0001
0110
,
0200
0000
0000
0301
0000
0000
2000
0000
,
0000
3100
0000
0000
0010
0000
0011
0000
,
0000
1000
0000
0000
0100
0000
0000
1000
,
0000
0002
0010
0013
,
0000
0100
0010
0000
0010
0000
0000
0100
,
0000
0001
1000
1001
,
0000
0001
0000
0000
1000
0000
0000
0100
,
0000
0010
1001
0010
,
1001
0000
0000
1000
0000
0000
0110
0000
,
0000
0001
0000
0000
0100
0000
0001
0000
,
0200
0000
1300
0000
0000
1000
0000
0000
,
0100
0010
1000
0010
,
0001
0000
0010
0000
0000
1000
0000
0000
,
0100
0100
0010
0000
,
2000
0000
3001
0000
0000
0100
0000
0000
,
1000
0010
0001
0010
,
1000
0000
0001
0000
0000
0010
0000
0000
,
1000
1000
0001
0000
,
0200
0000
0310
0000
0000
0100
0000
0000
,
0100
0001
0100
1000
,
0100
0000
0001
0000
0000
0100
0000
0000
,
0001
0001
1000
0000
,
0002
0000
1003
0000
0000
0100
0000
0000
,
0010
0001
1000
1000
,
0100
0000
0010
0000
0000
0001
0000
0000
,
1000
0001
0100
0001
,
0110
1000
0000
0100
,
0000
1000
0000
0100
,
0000
0010
0000
0001
,
0001
0000
0000
0001
0000
0000
0001
0000
,
1000
1000
0000
0001
,
0000
0100
0000
0100
,
0000
0001
0000
1000
,
1000
0000
0000
1000
0000
0000
1000
0000
,
0100
1000
0000
0100
,
0000
0001
0000
0100
,
0000
1000
0000
0100
,
1000
0000
0000
0001
0000
0000
1000
0000
,
1000
0001
0000
0001
,
0000
1000
0000
1000
,
0000
0010
0000
0100
,
0100
0000
0000
0010
0000
0000
0100
0000
,
0010
1000
0010
0000
,
1000
0100
0000
0100
,
0010
0000
0001
0010
,
0001
0000
0000
1000
0000
0000
0100
0000
,
0010
0001
0010
0000
,
0100
1000
0000
1000
,
0001
0000
0001
0100
,
0001
0000
0000
0001
0000
0000
0001
0000
,
1000
0100
1000
0000
,
1000
0010
0000
0010
,
0100
0000
0100
0001
,
0100
0000
0000
0100
0000
0000
0100
0000
,
0010
0100
0010
0000
,
0010
1000
0000
1000
,
0100
0000
0010
0001
,
1000
0001
1000
0100
,
2000
0000
0000
0001
,
0000
0001
0000
0000
,
0010
0000
0000
0100
,
0000
0000
0100
0000
,
3002
0000
0000
1000
,
0000
1000
0000
0000
,
0100
0000
0000
0000
,
1000
0000
0100
0000
,
0203
0000
0000
1000
,
0000
1000
0000
0000
,
0010
0000
0000
0001
,
0000
0000
0001
0000
,
0320
0000
0000
0100
,
0000
0100
0000
0000
,
0001
0000
0000
0000
,
1000
0000
1000
0000
,
2030
0000
0000
0001
,
0000
0100
0000
0000
,
0100
0000
0000
0100
,
0000
0000
0001
0000
,
3002
0000
0000
1000
,
0000
0100
0000
0000
,
0100
0000
0000
0000
,
0100
0000
1000
0000
,
2003
0000
0000
0010
,
0000
0001
0000
0000
,
0010
0000
0000
0001
,
0000
0000
0100
0000
,
3002
0000
0000
0010
,
0000
1000
0000
0000
,
0010
0000
0000
0000
,
1000
0000
0013
0000
,
1001
0000
0000
0000
,
0011
0000
0000
0000
,
1100
0000
0000
0000
,
0101
0000
0000
0000
,
1010
0000
0000
0000
,
0110
0000
0000
0000
,
1001
0000
0000
0000
;

//---------------dance-single - ----------------
#NOTES:
     dance-single:
     :
     Medium:
     9:
     :
0000
0000
0000
0000
,
0000
0000
0000
0000
,
0000
0000
0000
0000
,
0000
0000
0000
0000
,
0000
0000
0000
0000
,
1000
0000
0000
0100
0000
0000
0001
0000
0100
0000
0010
0000
0100
0000
0001
0000
,
0100
0000
0000
1000
0000
0000
0010
0000
0100
0000
0000
0000
0110
0000
0000
0000
,
0001
0000
0000
0010
0000
0000
1000
0000
0010
0000
0001
0000
1000
0000
1000
0000
,
0010
0000
0000
0110
0000
0000
0000
0000
0001
0000
0000
1001
0000
0000
0000
0000
,
0100
0000
0000
2000
0000
0000
3000
0000
0000
0010
0000
0000
1000
0000
0001
0000
,
0100
0000
0000
0011
0000
0000
0000
0000
0001
0000
0000
1100
0000
0000
0000
0000
,
0100
0000
0000
1001
0000
0000
0000
0000
0010
0000
0000
1001
0000
0000
0000
0000
,
0001
0000
0000
0100
0000
0000
0010
0000
0000
1000
0000
0000
0001
0000
1000
0000
,
0100
0000
0000
0110
0000
0000
0100
0000
1000
0000
0010
0000
1000
0000
0010
0000
,
0100
0000
0000
0001
0000
0000
0100
0000
0100
0000
0000
0000
1100
0000
0000
0000
,
0001
0000
0000
1001
0000
0000
1000
0000
0100
0000
1000
0000
0001
0000
0001
0000
,
1000
0000
0000
0110
0000
0000
0000
0000
0001
0000
0000
0110
0000
0000
0000
0000
,
0010
0000
0000
0100
0000
0000
0000
0000
0100
0001
0000
0000
1000
0000
0010
0000
,
0100
0000
0000
0220
0000
0000
0330
0000
0001
0000
0000
2002
0000
0000
3003
0000
,
1000
0000
0000
1000
0010
0000
0000
0010
0100
0000
0000
0100
0001
0000
0000
0001
,
0100
0000
0000
0100
0010
0000
0000
0010
1000
0000
0000
1000
0001
0000
0000
0001
,
1000
0010
0000
0010
0100
0000
0100
0001
,
0000
0001
0010
0000
0021
0000
1030
0000
,
0000
1000
0010
0001
0100
0000
0100
0010
,
0000
0010
1000
0000
1020
0000
0031
0000
,
0000
0200
0000
1000
1000
0000
0010
0010
,
0000
0001
0001
0000
0301
0000
1001
0000
,
0020
0000
0001
0001
0000
0100
0100
0000
,
1000
1000
0000
0100
0130
0000
0011
0000
,
0001
0100
1000
0100
0002
0000
0100
0100
,
0000
1000
1000
0000
1003
0000
0110
0000
,
0000
0001
0010
0100
1000
0000
0002
1000
,
0003
2000
0001
3000
0120
0000
1030
0000
,
0000
1001
0000
0001
0100
0000
0100
1000
,
0000
1000
0100
0000
1001
0000
1100
0000
,
0021
0000
1000
1000
0000
0001
0001
0000
,
0100
0130
0000
0010
0210
0000
1300
0000
,
0010
0000
0011
0000
0000
0001
0000
1000
,
0100
0110
1001
0110
,
2001
0000
3010
0000
0000
0010
0000
1000
,
0100
1000
0100
0000
0001
0000
0000
0000
,
1000
0000
1001
0000
0000
0100
0000
0001
,
0100
0011
1001
0011
,
1002
0000
0103
0000
0000
0100
0000
0001
,
0010
0001
0100
0001
0010
0000
0000
0000
,
1010
0000
1010
0000
0000
0001
0000
1000
,
0100
0110
1100
0011
,
2100
0000
3001
0000
0000
0010
0000
0001
,
0100
0001
0100
0000
0010
0000
0000
0000
,
0101
0000
0101
0000
0000
1000
0000
0001
,
1000
1100
1001
1010
,
0210
0000
0310
0000
0000
0100
0000
0100
,
0001
1000
0001
1000
0010
0100
0010
0100
,
0001
1000
0010
1000
,
0100
0010
0001
0010
,
0100
1000
0010
0100
,
2000
0000
0000
3002
0000
0000
0023
0000
,
1030
0001
0100
0010
,
1000
0010
0100
0001
,
0010
0100
1000
0010
,
1000
0000
0100
0010
0000
0010
0100
0000
,
0100
1000
0001
1000
,
0001
0010
0100
1000
,
0010
0001
0010
1000
,
0002
0000
0000
2003
0000
0000
3200
0000
,
0310
0001
1000
0100
,
0010
0001
0100
0010
,
1000
0100
0010
0001
,
1000
0001
1000
0001
0000
1000
0001
0000
,
1001
0010
0001
0010
,
0001
0010
0001
0100
,
1000
0100
1000
0100
,
0001
0000
0000
0010
0000
0000
0100
0000
,
0001
0100
0001
0100
,
0001
0100
1000
0010
,
1000
0010
1000
0010
,
0100
0100
0100
0000
,
1000
0100
1000
0100
,
1000
0100
0001
0010
,
0001
0010
0001
0010
,
0100
0000
0000
1000
0000
0000
0100
0000
,
0001
0100
0001
0100
,
0001
0100
1000
0010
,
1000
0010
1000
0010
,
0100
0001
0010
0100
,
1000
0001
1000
0001
,
0000
0110
0000
0100
,
0001
0100
0001
0100
,
0000
0001
1000
0000
,
0001
0100
0001
0100
,
0000
1010
0000
0001
,
0100
0001
1000
0001
,
0100
0001
1000
0000
,
1000
0010
1000
0010
,
0000
0101
0000
0001
,
1000
0001
1000
0001
,
0000
0001
0100
0000
,
0010
0100
0010
0100
,
0000
1001
0000
0100
,
1000
0100
0010
0100
,
1000
0100
0010
0000
,
1000
0100
1000
0100
,
0000
0011
0000
0001
,
1000
0001
1000
0001
,
0000
0001
0100
0000
,
0001
0010
0100
1000
,
0000
1100
0000
1000
,
0010
1000
0001
1000
,
0010
1000
0001
0000
,
0001
0100
0001
0100
,
0000
1010
0000
1000
,
0001
1000
0001
1000
,
0000
0010
0100
0000
,
0001
1000
0001
1000
,
0000
0110
0000
0010
,
0001
0010
0100
0010
,
0001
0010
0100
0000
,
1000
0010
1000
0010
,
2000
0000
3000
0000
,
0001
0100
0001
0100
,
0002
0000
0003
0000
,
0010
0100
0010
0100
,
0020
0000
0030
0000
,
1001
0000
0000
0000
;

//---------------dance-single - ----------------
#NOTES:
     dance-single:
     :
     Hard:
     10:
     :
0000
0000
0000
0000
,
0000
0000
0000
0000
,
0000
0000
0000
0000
,
0000
0000
0000
0000
,
0000
0000
0000
0000
,
1001
0000
0000
0110
0000
0000
0010
0000
1000
0000
0001
0000
0100
0000
0110
0000
,
0101
0000
0000
1100
0000
0000
0100
0000
1001
0000
0000
0000
0110
0000
0000
0000
,
0011
0000
0000
0101
0000
0000
0100
0000
0010
0000
1000
0000
0010
0100
0010
0000
,
1010
0000
0000
0220
0000
0000
0330
0000
0101
0000
0000
2002
0000
0000
3003
0000
,
1100
0000
0000
0101
0000
0000
0000
0000
0010
1000
0000
0000
1010
0000
0100
0000
,
1001
0000
0000
0101
0000
0000
0000
0000
1001
0000
0000
1100
0000
0000
0010
0000
,
0011
0000
0000
0202
0000
0000
0303
0000
1010
0000
0000
2200
0000
0000
3300
0000
,
0001
0000
0000
0100
0000
0000
0010
0000
0000
1000
0000
0000
0100
0000
0010
0000
,
0011
0000
0000
1001
0000
0000
0100
0000
1000
0000
0001
0000
1000
0000
0001
0000
,
0011
0000
0000
1001
0000
0000
0100
0000
1100
0000
0000
0000
1001
0000
0000
0000
,
0110
0000
0000
1001
0000
0000
0001
0000
1000
0000
0010
0000
0100
0010
0200
0000
,
1000
0000
0000
0001
0000
0000
0000
0000
0001
0000
0000
1000
0300
0000
0000
0000
,
0110
0000
0000
0201
0000
0000
0300
0000
0001
1000
0000
0000
0001
0000
0010
0000
,
0012
0000
0000
0103
0000
0000
0000
0000
2100
0000
0000
3010
0000
0000
0100
0000
,
0001
0000
0000
1000
0010
0000
0000
0001
0010
0000
0000
0100
1000
0000
0000
0100
,
0001
0000
0000
1000
0100
0000
0000
0010
1000
0000
0000
0010
0001
0000
0000
1000
,
0010
0100
0000
0200
0002
0300
2003
0020
,
3000
2030
0200
3300
0101
0000
1100
0000
,
0000
0000
0010
0001
0010
0000
0100
0000
1100
0000
0000
0000
0200
0000
2000
0000
,
0300
3020
0200
0330
1010
0000
0101
0000
,
0000
0210
0000
1000
1000
0000
0001
0310
,
0000
0000
1000
0001
1000
0000
0000
0000
0011
0000
0000
0000
1100
0000
0000
0000
,
0101
0000
0000
0000
1000
0000
0020
0000
0000
0000
0031
0000
0020
0000
0000
0030
,
0100
0000
0120
0000
0000
0000
1030
0010
1000
0000
0000
0000
0101
0000
0000
0000
,
0000
1100
0000
0100
0101
0000
0002
0200
,
0003
2300
0020
3030
0110
0000
1100
0000
,
0000
0000
0010
1000
0010
0000
0100
0000
0101
0000
0000
0000
0002
0000
1000
0000
,
0003
2000
0001
3000
1001
0000
0011
0000
,
0000
2010
0000
0001
0001
0000
0100
3100
,
0000
0000
0010
1000
0010
0000
0000
0000
1001
0000
0000
0000
0100
0000
0000
0000
,
0120
0000
1000
1000
0000
0001
0001
0000
,
0100
0000
0130
0000
0000
0000
0100
0010
0100
0000
0000
0000
1001
0000
0000
0000
,
0120
0000
0130
0000
0000
0100
0000
0001
,
1001
1100
1001
0101
,
2001
0000
3010
0000
0000
0010
0000
1000
,
0100
0100
0001
0000
1001
0000
0000
0000
,
0120
0000
0130
0000
0000
0100
0000
1000
,
1001
0011
1001
1010
,
1002
0000
0103
0000
0000
0100
0000
0100
,
0001
1000
0010
0100
0101
0000
0000
0000
,
2100
0000
3010
0000
0000
0100
0000
0010
,
1010
0110
1100
0110
,
2001
0000
3100
0000
0000
0010
0000
0001
,
0100
0100
1000
0000
0110
0000
0000
0000
,
0102
0000
0013
0000
0000
1000
0000
0100
,
1100
1001
0101
1001
,
0012
0000
0103
0000
0000
0100
0000
0001
,
0010
0100
1000
0001
0010
0100
1000
0100
,
0010
0000
0100
0000
1000
0001
1000
0000
,
0010
1000
0010
0000
0100
0010
0100
0000
,
0001
0010
0001
0000
1000
0100
1000
0000
,
0101
0000
0000
1001
0000
0000
1100
0000
,
1000
0000
0001
0000
0100
0010
0100
0000
,
0001
0100
0001
0000
1000
0010
1000
0000
,
0100
0010
0100
0000
1000
0001
1000
0000
,
1100
0000
1000
0001
0000
0001
0100
0000
,
0001
0000
1000
0000
0010
1000
0001
0000
,
1000
0010
0100
0000
0001
1000
0100
0000
,
0010
0001
1000
0000
0010
0100
0001
0000
,
1001
0000
0000
0101
0000
0000
0110
0000
,
0010
0000
1000
0000
0100
0010
0001
0000
,
0010
0001
0100
0000
0010
1000
0100
0000
,
0010
0001
0010
0000
0100
1000
0100
0000
,
1000
0010
1000
0010
0000
0100
0001
0000
,
1001
0010
0100
0001
,
0010
0100
1000
0010
,
0001
0010
1000
0001
,
1001
0000
0000
0011
0000
0000
0110
0000
,
0100
1000
0001
0100
,
1000
0100
0001
0010
,
0100
1000
0010
0100
,
0010
0100
0001
0100
0010
0000
1000
0000
,
0001
0100
0010
1000
,
0100
0001
0100
0010
,
0001
0100
1000
0100
,
0101
0000
0000
1001
0000
0000
1100
0000
,
0010
0001
1000
0100
,
0010
1000
0010
0001
,
0100
1000
0100
0010
,
1000
0001
1000
0001
,
1000
0010
0100
0001
,
0000
1010
0000
1000
,
0001
0100
1000
0100
,
0000
0001
0200
0000
,
0301
1000
0100
0010
,
0000
1100
0000
0001
,
0100
0001
0100
1000
,
0100
1000
0200
0000
,
0310
1000
0001
0010
,
0000
1001
0000
0001
,
1000
0010
0001
0010
,
0000
1000
0002
0000
,
0013
0001
0100
1000
,
0000
0101
0000
1000
,
0100
1000
0100
0001
,
0100
0001
0200
0000
,
1300
0001
0100
0010
,
0000
1001
0000
0001
,
0010
0001
0100
0001
,
0000
1000
0200
0000
,
0310
0001
0010
0001
,
0000
1100
0000
0001
,
0010
0001
0010
1000
,
0010
0001
0020
0000
,
0130
1000
0001
1000
,
0000
0101
0000
0010
,
0001
0100
0010
1000
,
0000
0100
2000
0000
,
3001
0010
0100
1000
,
0000
0101
0000
0100
,
1000
0100
0001
0010
,
0100
1000
1001
0000
,
1000
0100
0001
0100
,
2000
0000
3000
0000
,
0001
0100
1000
0100
,
0002
0000
0003
0000
,
1000
0100
0001
0100
,
0020
0000
0030
0000
,
1001
0000
0000
0000
;

//---------------dance-double - ----------------
#NOTES:
     dance-double:
     :
     Easy:
     8:
     :
00000000
00000000
00000000
00000000
,
00000000
00000000
00000000
00000000
,
00000000
00000000
00000000
00000000
,
00000000
00000000
00000000
00000000
,
00000000
00000000
00000000
00000000
,
00011000
00000000
00022000
00000000
00033000
00000000
00001000
00010000
,
00000100
00000000
00010000
00001000
01000000
00000000
01100000
00000000
,
10010000
00000000
20020000
00000000
30030000
00000000
10000000
10000000
,
00020000
01030000
20000000
31000000
,
10010000
00000000
02020000
00000000
03030000
00000000
00010000
00100000
,
00002000
00013000
00000200
00010300
,
00000100
00000011
00000100
00001010
,
00002001
00000000
00000000
00003010
00000000
00000000
00000100
00000001
,
00001001
00002200
00003300
00000100
,
00000020
00000000
00001030
00010000
02000000
00000000
03100000
00000000
,
00110000
20020000
30030000
01000000
,
00200000
00301000
00000020
00010030
,
00001010
00000000
00000202
00000000
00000303
00000000
00000010
00000100
,
00000002
00001003
00000200
00010300
,
01000000
10000000
00100000
00010000
,
00001000
00000100
00000001
00000010
,
00000000
00000001
00000000
00000000
00001000
00000000
00000000
00000010
,
00000000
00010000
00001010
00001100
,
00000000
00001000
00000001
00000000
00000101
00000000
00000000
00000010
,
00000000
00001000
00000001
00001001
,
00000000
00000100
00000000
00000000
00000010
00000000
00000000
00010000
,
00000000
00001000
00100000
10010000
,
02000000
00000000
00000000
13000000
00000000
00000000
00200000
00000000
,
00000000
01300000
00000000
00000000
00010000
00000000
00110000
00000000
,
00000000
10000000
00000000
00000000
00010000
00000000
00000000
00100000
,
00000000
00002000
00010000
00013000
,
00000000
01000000
10000000
00000000
10000000
00000000
00000000
00100000
,
00000000
01000000
00010000
00110000
,
00000000
10000000
00000000
00000000
01000000
00000000
00000000
00010000
,
00000000
00001000
00010100
00001000
,
00010010
00000000
00000000
00000100
00000000
00000000
00001001
00000000
,
00000000
00000010
00000000
00000000
00000100
00000000
00001000
00000000
,
00000002
00000000
00000103
00000000
00000000
00000100
00000000
00000000
,
00000001
00000100
00001000
00010000
,
00000100
00000000
00010000
00000000
00000000
00100000
00000000
00000000
,
10000000
10000000
00010000
00000000
,
20000000
00000000
31000000
00000000
00000000
01000000
00000000
00000000
,
10000000
01000000
00010000
00001000
,
01000000
00000000
00001000
00000000
00000000
00000010
00000000
00000000
,
00000001
00000001
00001000
00000000
,
00000200
00000000
00000310
00000000
00000000
00001000
00000000
00000000
,
00010000
01000000
00010000
00001000
,
00010000
00000000
00100000
00000000
00000000
10000000
00000000
00000000
,
00010000
00010000
01000000
00000000
,
02000000
00000000
03100000
00000000
00000000
00010000
00000000
00000000
,
00001000
00000100
00001000
00010000
,
00001000
00000000
00000010
00000000
00000000
00000001
00000000
00000000
,
00001000
00000001
00000100
00000001
,
00000110
00000001
00000000
00000100
,
00000000
00001000
00000000
00010000
,
00000000
00100000
00000000
10000000
,
10000000
00000000
00000000
10000000
00000000
00000000
10000000
00000000
,
00010000
10000000
00000000
01000000
,
00000000
00010000
00000000
00001000
,
00000000
00000010
00000000
00000001
,
00000001
00000000
00000000
00000001
00000000
00000000
00000001
00000000
,
00000100
00001000
00000000
00010000
,
00000000
01000000
00000000
10000000
,
00000000
00100000
00000000
00010000
,
00100000
00000000
00000000
10000000
00000000
00000000
10000000
00000000
,
01000000
00010000
00000000
00001000
,
00000000
00000100
00000000
00000001
,
00000000
00000010
00000000
00001000
,
00000010
00000000
00000000
00000001
00000000
00000000
00000001
00000000
,
00000100
00001000
00000100
00000000
,
00000001
00000010
00000000
00001000
,
00010000
00000000
00100000
10000000
,
01000000
00000000
00000000
01000000
00000000
00000000
00100000
00000000
,
01000000
00010000
01000000
00000000
,
10000000
00100000
00000000
00010000
,
00001000
00000000
00000010
00000001
,
00000100
00000000
00000000
00000010
00000000
00000000
00000010
00000000
,
00001000
00000100
00000010
00000000
,
00000001
00001000
00000000
00001000
,
00010000
00000000
00010000
10000000
,
01000000
00000000
00000000
01000000
00000000
00000000
00100000
00000000
,
00010000
01000000
00100000
00000000
,
10000000
00010000
00000000
00010000
,
00001000
00000000
00001000
00000001
,
00000100
00000010
00000100
00000001
,
00002000
00000000
00000000
00000001
,
00000000
00000001
00000000
00000000
,
00000010
00000000
00000000
00000100
,
00000000
00000000
00000100
00000000
,
00003002
00000000
00000000
00001000
,
00000000
00001000
00000000
00000000
,
00000100
00000000
00000000
00000000
,
00001000
00000000
00000100
00000000
,
00000203
00000000
00000000
00001000
,
00000000
00001000
00000000
00000000
,
00000001
00000000
00000000
00000010
,
00000000
00000000
00000010
00000000
,
00002300
00000000
00000000
00100000
,
00000000
00100000
00000000
00000000
,
00010000
00000000
00000000
00000000
,
01000000
00000000
01000000
00000000
,
00023000
00000000
00000000
01000000
,
00000000
00001000
00000000
00000000
,
00100000
00000000
00000000
00100000
,
00000000
00000000
00001000
00000000
,
02030000
00000000
00000000
10000000
,
00000000
00100000
00000000
00000000
,
00100000
00000000
00000000
00000000
,
00010000
00000000
10000000
00000000
,
23000000
00000000
00000000
00100000
,
00000000
00010000
00000000
00000000
,
00100000
00000000
00000000
00010000
,
00000000
00000000
01000000
00000000
,
30020000
00000000
00000000
00100000
,
00000000
10000000
00000000
00000000
,
00100000
00000000
00000000
00000000
,
10000000
00000000
00130000
00000000
,
10010000
00000000
00000000
00000000
,
00110000
00000000
00000000
00000000
,
00011000
00000000
00000000
00000000
,
00001010
00000000
00000000
00000000
,
00001001
00000000
00000000
00000000
,
00011000
00000000
00000000
00000000
,
10010000
00000000
00000000
00000000
;

//---------------dance-double - ----------------
#NOTES:
     dance-double:
     :
     Medium:
     10:
     :
00000000
00000000
00000000
00000000
,
00000000
00000000
00000000
00000000
,
00000000
00000000
00000000
00000000
,
00000000
00000000
00000000
00000000
,
00000000
00000000
00000000
00000000
,
00001000
00000000
00000000
00010000
00000000
00000000
01000000
00000000
00010000
00000000
00001000
00000000
00010000
00000000
00000100
00000000
,
00000010
00000000
00000000
00001000
00000000
00000000
00000010
00000000
00000001
00000000
00000000
00000000
00001001
00000000
00000000
00000000
,
00001000
00000000
00000000
00000100
00000000
00000000
00010000
00000000
00001000
00000000
00010000
00000000
00100000
00000000
00100000
00000000
,
10000000
00000000
00000000
01100000
00000000
00000000
00000000
00000000
00010000
00000000
00000000
11000000
00000000
00000000
00000000
00000000
,
01000000
00000000
00000000
20000000
00000000
00000000
30000000
00000000
00000000
00100000
00000000
00000000
00010000
00000000
00001000
00000000
,
00010000
00000000
00000000
00001100
00000000
00000000
00000000
00000000
00000010
00000000
00000000
00001001
00000000
00000000
00000000
00000000
,
00000100
00000000
00000000
00011000
00000000
00000000
00000000
00000000
00001000
00000000
00000000
01010000
00000000
00000000
00000000
00000000
,
00010000
00000000
00000000
01000000
00000000
00000000
00001000
00000000
00000000
00010000
00000000
00000000
01000000
00000000
10000000
00000000
,
00010000
00000000
00000000
01001000
00000000
00000000
00010000
00000000
01000000
00000000
00001000
00000000
01000000
00000000
00001000
00000000
,
00010000
00000000
00000000
00000100
00000000
00000000
00000010
00000000
00000010
00000000
00000000
00000000
00001100
00000000
00000000
00000000
,
00000010
00000000
00000000
00001001
00000000
00000000
00000100
00000000
00000001
00000000
00000100
00000000
00000010
00000000
00000010
00000000
,
00001000
00000000
00000000
00000110
00000000
00000000
00000000
00000000
00000001
00000000
00000000
00000110
00000000
00000000
00000000
00000000
,
00000001
00000000
00000000
00000100
00000000
00000000
00000000
00000000
00000010
00000100
00000000
00000000
00001000
00000000
00010000
00000000
,
01000000
00000000
00000000
02200000
00000000
00000000
03300000
00000000
00010000
00000000
00000000
20020000
00000000
00000000
30030000
00000000
,
00010000
00000000
00000000
00010000
00100000
00000000
00000000
00100000
00001000
00000000
00000000
00001000
00010000
00000000
00000000
00010000
,
00000010
00000000
00000000
00000010
00000100
00000000
00000000
00000100
00001000
00000000
00000000
00001000
00010000
00000000
00000000
00010000
,
01000000
10000000
00000000
10000000
01000000
00000000
01000000
00010000
,
00000000
00010000
00001000
00000000
00201000
00000000
01300000
00000000
,
00000000
10000000
00100000
01000000
00010000
00000000
01000000
00100000
,
00000000
00100000
00010000
00000000
00021000
00000000
01030000
00000000
,
00000000
00020000
00000000
01000000
01000000
00000000
00001000
00001000
,
00000000
00000100
00030100
00000000
00001000
00000000
00000110
00000000
,
00002000
00000000
00000001
00000001
00000000
00000010
00000010
00000000
,
00000100
00000100
00000000
00000010
00003010
00000000
00000101
00000000
,
00000001
00000100
00001000
00000100
00000002
00000000
00000100
00000100
,
00000000
00001000
00001000
00000000
00001003
00000000
00000110
00000000
,
00000000
00000001
00000100
00001000
00010000
00000000
00000020
00001000
,
00000030
00002000
00000100
00003000
00010200
00000000
00001300
00000000
,
00000000
00001010
00000000
00000010
00010000
00000000
00010000
00001000
,
00000000
00001000
00100000
00000000
00110000
00000000
11000000
00000000
,
20010000
00000000
00100000
00100000
00000000
00010000
00010000
00000000
,
01000000
31000000
00000000
00100000
02100000
00000000
03010000
00000000
,
10000000
00000000
01100000
00000000
00000000
00010000
00000000
10000000
,
01000000
01010000
00011000
00001100
,
00001002
00000000
00000013
00000000
00000000
00001000
00000000
00000001
,
00000100
00000001
00000100
00000000
00000010
00000000
00000000
00000000
,
00001000
00000000
00000110
00000000
00000000
00001000
00000000
00000001
,
00000100
00001100
00011000
00110000
,
10020000
00000000
01030000
00000000
00000000
01000000
00000000
00010000
,
00100000
00010000
01000000
00010000
00100000
00000000
00000000
00000000
,
10100000
00000000
01010000
00000000
00000000
10000000
00000000
00010000
,
01000000
00101000
00011000
00010100
,
00001002
00000000
00000103
00000000
00000000
00000010
00000000
00001000
,
00000100
00001000
00000100
00000000
00000010
00000000
00000000
00000000
,
00000011
00000000
00001100
00000000
00000000
00000010
00000000
00000001
,
00001000
00001010
00011000
00101000
,
00210000
00000000
01300000
00000000
00000000
00100000
00000000
00100000
,
00001000
00010000
00001000
00010000
00100000
01000000
00100000
01000000
,
00001000
00010000
00100000
10000000
,
01000000
00100000
00010000
01000000
,
00100000
10000000
00010000
00100000
,
02000000
00000000
00000000
23000000
00000000
00000000
30200000
00000000
,
10300000
00010000
01000000
00100000
,
00010000
00001000
00000100
00000001
,
00000010
00000100
00001000
00000010
,
00001000
00000000
00000100
00000010
00000000
00000010
00000100
00000000
,
00001000
00000001
00000100
00000010
,
00001000
00000001
00000010
00000100
,
00001000
00000001
00000100
00001000
,
00000200
00000000
00000000
00000302
00000000
00000000
00002003
00000000
,
00003010
00000100
00000001
00000100
,
00001000
00010000
00100000
10000000
,
01000000
00100000
00010000
01000000
,
00100000
10000000
00100000
10000000
00000000
10000000
00010000
00000000
,
10010000
01000000
00010000
01000000
,
00010000
01000000
10000000
01000000
,
10000000
01000000
10000000
01000000
,
00010000
00000000
00000000
00100000
00000000
00000000
01000000
00000000
,
00010000
01000000
00010000
01000000
,
00010000
01000000
00010000
00001000
,
00010000
00001000
00010000
00001000
,
00000100
00000100
00000100
00000000
,
00000001
00000010
00000001
00000010
,
00000001
00000010
00001000
00000010
,
00001000
00000010
00001000
00000010
,
00000001
00000000
00000000
00000100
00000000
00000000
00001000
00000000
,
00000100
00001000
00000100
00001000
,
00000100
00001000
00010000
00001000
,
00010000
00001000
00010000
00001000
,
00010000
01000000
10000000
00010000
,
10000000
00100000
10000000
00100000
,
00000000
10010000
00000000
01000000
,
00100000
01000000
00100000
01000000
,
00000000
00001000
00010000
00000000
,
00010000
00000100
00010000
00000100
,
00000000
00000110
00000000
00010000
,
00001000
00010000
00000100
00010000
,
00001000
00010000
00000100
00000000
,
00000010
00000001
00000010
00000001
,
00000000
00001010
00000000
00000001
,
00000100
00000001
00000100
00000001
,
00000000
00000001
00001000
00000000
,
00000100
00010000
00000100
00010000
,
00000000
00011000
00000000
01000000
,
00010000
01000000
00001000
01000000
,
00010000
01000000
00001000
00000000
,
00100000
00010000
00100000
00010000
,
00000000
11000000
00000000
10000000
,
00010000
10000000
00010000
10000000
,
00000000
10000000
00100000
00000000
,
10000000
00100000
00010000
00001000
,
00000000
01010000
00000000
00001000
,
00100000
00001000
00010000
00001000
,
01000000
00001000
00010000
00000000
,
00010000
00000010
00010000
00000010
,
00000000
00000101
00000000
00001000
,
00000001
00001000
00000001
00001000
,
00000000
00000010
00000100
00000000
,
00000001
00001000
00000001
00001000
,
00000000
00001010
00000000
00010000
,
00001000
00010000
00000010
00010000
,
00001000
00010000
00000100
00000000
,
00010000
00000010
00010000
00000010
,
00020000
00000000
00030000
00000000
,
00001000
00100000
00001000
00100000
,
00002000
00000000
00003000
00000000
,
01000000
00100000
01000000
00100000
,
02000000
00000000
03000000
00000000
,
00011000
00000000
00000000
00000000
;

//---------------dance-double - ----------------
#NOTES:
     dance-double:
     :
     Hard:
     10:
     :
00000000
00000000
00000000
00000000
,
00000000
00000000
00000000
00000000
,
00000000
00000000
00000000
00000000
,
00000000
00000000
00000000
00000000
,
00000000
00000000
00000000
00000000
,
00001001
00000000
00000000
00000110
00000000
00000000
00000010
00000000
00001000
00000000
00000001
00000000
00000010
00000000
00000100
00000000
,
00001100
00000000
00000000
00000101
00000000
00000000
00000100
00000000
00001001
00000000
00000000
00000000
00001100
00000000
00000000
00000000
,
00010100
00000000
00000000
00011000
00000000
00000000
00010000
00000000
00000100
00000000
00000010
00000000
00001000
00010000
00001000
00000000
,
00101000
00000000
00000000
00220000
00000000
00000000
00330000
00000000
10010000
00000000
00000000
22000000
00000000
00000000
33000000
00000000
,
01010000
00000000
00000000
10100000
00000000
00000000
00000000
00000000
00100000
01000000
00000000
00000000
01010000
00000000
00100000
00000000
,
10010000
00000000
00000000
11000000
00000000
00000000
00000000
00000000
10010000
00000000
00000000
01010000
00000000
00000000
00100000
00000000
,
00101000
00000000
00000000
00022000
00000000
00000000
00033000
00000000
00010010
00000000
00000000
00022000
00000000
00000000
00033000
00000000
,
00001000
00000000
00000000
00010000
00000000
00000000
00100000
00000000
00000000
01000000
00000000
00000000
00001000
00000000
00010000
00000000
,
00010100
00000000
00000000
00001010
00000000
00000000
00000100
00000000
00000001
00000000
00001000
00000000
00000001
00000000
00001000
00000000
,
00001010
00000000
00000000
00001001
00000000
00000000
00000100
00000000
00000101
00000000
00000000
00000000
00000011
00000000
00000000
00000000
,
00000110
00000000
00000000
00001100
00000000
00000000
00000100
00000000
00001000
00000000
00000010
00000000
00010000
00001000
00020000
00000000
,
00000010
00000000
00000000
00001000
00000000
00000000
00000000
00000000
00001000
00000000
00000000
00000100
00030000
00000000
00000000
00000000
,
01010000
00000000
00000000
02100000
00000000
00000000
03000000
00000000
00100000
10000000
00000000
00000000
00010000
00000000
01000000
00000000
,
01020000
00000000
00000000
00130000
00000000
00000000
00000000
00000000
20100000
00000000
00000000
31000000
00000000
00000000
00100000
00000000
,
00010000
00000000
00000000
10000000
00100000
00000000
00000000
00010000
00100000
00000000
00000000
00010000
00001000
00000000
00000000
00001000
,
00000100
00000000
00000000
00000001
00000100
00000000
00000000
00000001
00000010
00000000
00000000
00001000
00000010
00000000
00000000
00001000
,
00010000
01000000
00000000
02000000
20000000
03000000
30200000
02000000
,
00300000
03020000
00200000
00330000
00110000
00000000
01010000
00000000
,
00000000
00000000
00100000
00001000
00100000
00000000
00010000
00000000
01010000
00000000
00000000
00000000
00020000
00000000
00200000
00000000
,
00030000
00302000
00020000
00033000
01001000
00000000
00010100
00000000
,
00000000
00001200
00000000
00010000
00010000
00000000
00001000
00000310
,
00000000
00000000
00000001
00001000
00000001
00000000
00000000
00000000
00000101
00000000
00000000
00000000
00001100
00000000
00000000
00000000
,
00011000
00000000
00001000
00000200
00000000
00001300
00020000
00000000
,
00031000
00000000
00002010
00000000
00000000
00000000
00003010
00000100
00000010
00000000
00000000
00000000
00001001
00000000
00000000
00000000
,
00000000
00000101
00000000
00000100
00001100
00000000
00000200
00000020
,
00000300
00002030
00000200
00003300
00000110
00000000
00001010
00000000
,
00000000
00000000
00001000
00010000
00001000
00000000
00010000
00000000
00010100
00000000
00000000
00000000
00020000
00000000
01000000
00000000
,
00030000
02000000
00100000
03000000
00110000
00000000
00011000
00000000
,
00000000
01020000
00000000
10000000
10000000
00000000
00100000
00130000
,
00000000
00000000
01000000
10000000
01000000
00000000
00000000
00000000
10010000
00000000
00000000
00000000
01000000
00000000
00000000
00000000
,
02100000
00000000
10000000
10000000
00000000
00100000
00100000
00000000
,
00010000
00000000
03010000
00000000
00000000
00000000
00100000
01000000
00100000
00000000
00000000
00000000
10010000
00000000
00000000
00000000
,
01020000
00000000
01030000
00000000
00000000
00100000
00000000
10000000
,
10010000
01010000
00011000
00001010
,
00001002
00000000
00000013
00000000
00000000
00000010
00000000
00000001
,
00000100
00000100
00001000
00000000
00001001
00000000
00000000
00000000
,
00000102
00000000
00000103
00000000
00000000
00001000
00000000
00000001
,
00001001
00001010
00011000
00101000
,
20010000
00000000
31000000
00000000
00000000
00100000
00000000
00100000
,
00010000
01000000
00100000
01000000
01010000
00000000
00000000
00000000
,
21000000
00000000
30100000
00000000
00000000
00010000
00000000
00100000
,
00110000
00011000
00001100
00000110
,
00000102
00000000
00001003
00000000
00000000
00001000
00000000
00000001
,
00000010
00000010
00001000
00000000
00000110
00000000
00000000
00000000
,
00000102
00000000
00000013
00000000
00000000
00001000
00000000
00000010
,
00001010
00011000
01010000
01100000
,
21000000
00000000
30010000
00000000
00000000
01000000
00000000
00001000
,
00010000
01000000
00100000
00001000
00010000
01000000
00100000
00010000
,
10000000
00000000
01000000
00000000
10000000
00100000
10000000
00000000
,
00010000
01000000
00010000
00000000
00100000
00001000
00100000
00000000
,
00001000
00010000
00001000
00000000
01000000
00010000
01000000
00000000
,
01010000
00000000
00000000
10010000
00000000
00000000
11000000
00000000
,
10000000
00000000
01000000
00000000
00010000
01000000
00010000
00000000
,
00001000
00010000
00001000
00000000
00000100
00001000
00000100
00000000
,
00000010
00000100
00000010
00000000
00001000
00000001
00001000
00000000
,
00001100
00000000
00000100
00001000
00000000
00001000
00000010
00000000
,
00001000
00000000
00000001
00000000
00001000
00000001
00000100
00000000
,
00000010
00001000
00000100
00000000
00010000
00001000
00000100
00000000
,
00000010
00010000
00001000
00000000
00000100
00000001
00001000
00000000
,
00001001
00000000
00000000
00001100
00000000
00000000
00000110
00000000
,
00000100
00000000
00001000
00000000
00000010
00010000
00001000
00000000
,
00000100
00001000
00010000
00000000
00100000
01000000
00001000
00000000
,
00010000
00001000
00010000
00000000
01000000
10000000
01000000
00000000
,
10000000
00100000
10000000
00100000
00000000
01000000
00010000
00000000
,
10010000
01000000
10000000
00010000
,
00100000
01000000
00010000
00001000
,
00000010
00001000
00010000
01000000
,
11000000
00000000
00000000
10010000
00000000
00000000
10100000
00000000
,
01000000
00010000
10000000
00100000
,
00010000
00001000
00100000
01000000
,
00010000
00001000
00000010
00000001
,
00001000
00000010
00000100
00000010
00001000
00000000
00000001
00000000
,
00001000
00000010
00000100
00000001
,
00000010
00001000
00010000
01000000
,
00010000
00001000
00000100
00000001
,
00000101
00000000
00000000
00001001
00000000
00000000
00000011
00000000
,
00000100
00001000
00000001
00000100
,
00001000
00010000
00000010
00001000
,
00000100
00010000
01000000
10000000
,
00010000
10000000
00010000
10000000
,
01000000
10000000
00100000
01000000
,
00000000
10010000
00000000
10000000
,
01000000
00010000
00001000
00000100
,
00000000
00000001
00002000
00000000
,
00003010
00000100
00000001
00001000
,
00000000
00000101
00000000
00000010
,
00001000
00000100
00010000
00000100
,
00001000
00000010
00000200
00000000
,
00000310
00001000
00000001
00000010
,
00000000
00001100
00000000
00000001
,
00000010
00001000
00010000
00100000
,
00000000
10000000
00020000
00000000
,
00130000
00010000
01000000
10000000
,
00000000
01010000
00000000
10000000
,
00010000
00100000
00001000
00010000
,
01000000
10000000
00200000
00000000
,
10300000
00010000
00100000
01000000
,
00000000
10010000
00000000
10000000
,
01000000
00010000
00001000
00000010
,
00000000
00000001
00000200
00000000
,
00000310
00001000
00000010
00001000
,
00000000
00000011
00000000
00000010
,
00001000
00010000
00100000
00010000
,
00001000
00000100
00000020
00000000
,
00000130
00000001
00000010
00000001
,
00000000
00001100
00000000
00000001
,
00000100
00001000
00010000
00100000
,
00000000
10000000
02000000
00000000
,
13000000
00100000
01000000
00010000
,
00000000
10000000
00000000
00100000
,
00010000
00001000
00000100
00001000
,
00010000
01000000
01100000
00000000
,
10000000
01000000
00010000
00001000
,
00020000
00000000
00030000
00000000
,
00001000
00000100
00000001
00000010
,
00000002
00000000
00000003
00000000
,
00000100
00001000
00010000
00100000
,
02000000
00000000
03000000
00000000
,
00011000
00000000
00000000
00000000
;
