#TITLE:You're Such A Shredder;
#ARTIST:In Geer;
#BANNER:You're Such A Shredder.png;
#BACKGROUND:You're Such A Shredder-bg.png;
#CDTITLE:./CDTITLES/DanceDanceRevolution UNIVERSE3.png;
#MUSIC:You're Such A Shredder.ogg;
#SAMPLESTART:35.239;
#SAMPLELENGTH:15;
#DISPLAYBPM:126;
#BPMS:0=126.04,36=125.95,148=125,150=125.93,184=125.44,188=126.91;

//---------------dance-single - ----------------
#NOTES:
     dance-single:
     :
     Beginner:
     1:
     :
0000
0000
0000
0000
,
0000
0000
0000
0000
,
0000
0000
0000
0000
,
1000
0000
1000
0000
,
0001
0000
0001
0000
,
1001
0000
0000
0000
,
0110
0000
0000
0000
,
1001
0000
0000
0000
,
0001
0000
1000
0000
,
0010
0000
0100
0000
,
0001
0000
1000
0000
,
0100
0000
0010
0000
,
0001
0000
1000
0000
,
0010
0010
0010
0000
,
1000
0000
0001
0000
,
0100
0100
0100
0000
,
0001
0000
1000
0000
,
0010
0000
0100
0000
,
0001
0001
1000
0000
,
1000
0000
0010
0000
,
0100
0000
0001
0000
,
0001
0000
0100
0000
,
0010
0000
1000
0000
,
0001
0000
0010
0010
,
0010
0000
0001
0000
,
1000
0000
0100
0100
,
0100
0000
0010
0000
,
0100
0000
1000
1000
,
0002
0000
0003
0000
,
0010
0000
0100
0000
,
2000
0000
3000
0000
,
0010
0000
0100
0000
,
0001
0000
1000
0000
,
0100
0000
1000
0000
,
0001
0001
0001
0000
,
1000
0000
0001
0000
,
0010
0010
0010
0000
,
0100
0100
0010
0000
,
0001
0000
1000
1000
,
1000
0000
0100
0000
,
1000
0000
0001
0001
,
0001
0000
0100
0000
,
0010
0000
1000
1000
,
1000
0000
0001
0000
,
0010
0000
0100
0100
,
0100
0000
1000
0000
,
0001
0000
0100
0100
,
0020
0000
0030
0000
,
0000
1001
0000
0000
;

//---------------dance-single - ----------------
#NOTES:
     dance-single:
     :
     Easy:
     4:
     :
0000
0000
0000
0000
,
0000
0000
0000
0000
,
0000
0000
0000
0000
,
2000
3100
0002
0103
,
2000
3010
0002
0013
,
2002
0000
0000
3003
,
0220
0000
0000
0330
,
0220
0000
0000
0330
,
0110
0100
0001
1000
,
0010
0000
1000
0000
,
0001
0001
1000
1000
,
0001
0000
1000
0000
,
0100
0100
0010
0010
,
0001
0100
0001
1000
,
1001
0000
0100
0010
,
0100
0000
0001
0001
,
0010
0100
1000
0100
,
2002
0000
0000
3003
,
1001
0110
0001
1000
,
1000
0001
0200
0310
,
0020
0130
0001
0000
,
1000
0010
0002
1003
,
2000
3001
0100
0001
,
1000
0100
0010
0001
,
1000
0010
0100
0000
,
0001
1000
0010
1000
,
1000
0001
0010
0100
,
1000
0001
0110
1001
,
0020
0000
0000
0030
,
0010
1000
0001
0010
,
0200
0000
0000
0300
,
0100
1000
0010
0001
,
0010
0100
0001
1000
,
0100
1000
0000
0000
,
0001
0100
0010
1000
,
0100
1000
0010
0001
,
0010
1000
0100
0001
,
0110
1001
0200
0000
,
0000
0300
1001
0001
,
0010
0110
2000
0000
,
0000
3000
0110
0100
,
1000
1001
0001
0010
,
0100
1001
0020
0031
,
2000
3001
0200
0301
,
2000
3001
0010
0100
,
1001
0110
0001
0010
,
1000
0010
0100
0010
,
2002
0000
0000
3003
,
1001
0110
0000
0000
;

//---------------dance-single - ----------------
#NOTES:
     dance-single:
     :
     Medium:
     7:
     :
0000
0000
0000
0000
,
0000
0000
0000
0000
,
0000
0000
0000
0000
,
1000
0100
1000
0000
0001
0100
0001
0000
,
1000
0010
1000
0000
0001
0010
0001
0000
,
2100
0001
0010
3100
,
0102
1000
0010
0103
,
0210
0001
1000
0310
,
1001
0000
0110
0000
0001
1000
0010
0000
,
1001
0100
0010
1000
0001
0010
0100
0000
,
1000
0010
0001
0010
0100
0001
1000
0000
,
0100
0010
0001
1000
0010
0100
0001
0000
,
1010
0100
0001
0000
0011
0100
1000
0000
,
0010
0001
0010
1000
0100
0010
1000
0000
,
0020
1000
0100
0031
,
1000
0010
0001
0010
0100
0001
1000
0000
,
0010
1000
0100
0010
0001
0100
0010
0000
,
0100
1001
0000
0110
0000
1001
0000
0110
,
0001
1000
0000
0001
0110
1000
0001
0010
,
0100
1000
0010
0000
0001
0010
0100
0001
,
0010
0100
0001
0000
0100
1000
0001
1000
,
0010
0100
0010
0000
1100
0001
0100
0000
,
0011
1000
0010
0000
0100
0001
1000
0100
,
0010
0001
1000
0000
0010
0001
0010
1000
,
0100
0001
0100
0000
1000
0010
0100
0001
,
1000
0100
0010
0000
1001
0100
0001
0000
,
1001
0010
1000
0000
0001
1100
0000
0110
,
0000
0011
0000
1001
0100
0010
0000
0100
,
2001
0010
0001
3100
,
1000
0000
0010
1000
0100
0001
0100
1000
,
0020
0001
0100
1030
,
0101
0010
1000
0000
1100
0010
0001
0000
,
1000
0010
0001
0010
1000
0100
0001
0100
,
1001
0210
1000
0301
,
1000
0100
0010
0001
1000
0001
0100
0010
,
1000
0000
0000
0100
0000
0000
0010
0000
0001
0000
0000
0100
0000
0000
0010
0000
,
1000
0000
0000
0001
0000
0000
0100
0000
0010
0000
0000
1000
0000
0000
0001
0000
,
0110
0000
1001
0000
0010
0100
0001
1000
,
0100
0010
0001
0000
1000
0001
0010
1000
,
0001
0100
0010
0000
0001
1000
0100
1000
,
0001
0010
0001
0000
0001
1000
0100
0100
,
0010
0001
1000
1000
0001
1000
0100
0010
,
0100
1000
0001
0000
0100
0001
0010
1000
,
0010
0001
0100
0000
1000
0100
0010
1000
,
0100
0010
0001
0000
1000
0001
0100
0010
,
1000
0001
1000
0000
0100
0011
0000
1010
,
0000
0101
0000
1100
0001
0000
1000
0000
,
0220
0000
0000
0330
,
1010
0101
0000
0000
;

//---------------dance-single - ----------------
#NOTES:
     dance-single:
     :
     Hard:
     9:
     :
0000
0000
0000
0000
,
0000
0000
0000
0000
,
0000
0000
0000
0000
,
1000
0000
0100
1000
0000
0000
0100
0000
1000
0000
0001
1000
0000
0000
0001
0000
,
0010
0000
0001
0010
0000
0000
0001
0000
0010
0000
0100
0010
0000
0000
0100
0000
,
1001
0000
0000
0100
0000
0000
0010
0000
0001
0000
0000
1000
0000
0000
0010
0000
,
0101
0000
0000
1000
0000
0000
0010
0000
0100
0000
0000
0001
0000
0000
1000
0000
,
0110
0001
1000
0100
0010
0001
1000
0010
,
0101
0000
1010
0000
0100
0010
0001
1000
,
0110
0000
0001
0000
0100
0000
1000
0000
0100
0010
0100
0010
0000
0000
1000
0000
,
0100
0000
0010
0000
0001
0000
1000
0000
0001
1000
0001
1000
0001
1000
0001
1000
,
0001
0000
0010
0000
1000
0000
0010
0000
0100
0010
0100
0010
0000
0000
0001
0000
,
1000
0100
0000
0010
0000
0001
0000
0100
0001
0100
0000
0010
0000
1000
0000
0100
,
0010
0001
0010
0000
0100
1000
0100
0000
1000
0001
1000
0001
0000
0000
0000
0000
,
1000
0000
0001
0100
0000
0000
0010
0000
1000
0000
0100
0010
0000
0000
0001
0000
,
1000
0001
1000
0000
0010
1000
0010
0000
0100
0001
0100
0001
0000
0000
0000
0000
,
1000
0010
1000
0010
0100
0001
0100
0001
0100
0010
0000
0100
0010
0100
0000
0010
,
0100
0110
0000
1001
0000
1100
0000
0101
,
1000
0100
1000
0000
0001
0010
0001
0000
1000
0000
0100
1000
0000
0000
0001
0000
,
0100
0000
0001
0100
0000
0000
0010
0000
1000
0000
0001
1000
0000
0000
0100
0000
,
0010
0001
0010
0001
1000
0100
1000
0100
0010
0000
0001
1000
0000
0000
0100
0000
,
1000
0000
0001
0100
0000
0000
0010
0000
1000
0100
0000
0010
0000
0001
0000
0100
,
0010
0100
0000
0001
0000
1000
0000
0100
0010
0000
0001
0100
0000
0000
1000
0000
,
0100
0000
0001
1000
0000
0000
0010
0000
0100
0000
0001
1000
0001
0000
0010
0000
,
0100
0000
1000
0001
1000
0000
0010
0000
0001
0000
0010
0100
0000
0000
0010
0000
,
1000
0000
0100
0010
0000
0000
0100
0000
0001
0000
0100
1000
0000
0000
0010
0000
,
0001
0010
0000
1000
0001
1000
0000
0100
0010
0000
1001
0000
0000
0000
1100
0000
,
0000
0000
0011
0000
0000
0000
0110
0000
1000
0001
1000
0000
0010
0100
0010
0000
,
2000
0000
0000
0100
0000
0000
3010
0000
0002
0000
0000
0010
0000
0000
0103
0000
,
1010
0000
0000
0000
0001
0010
0001
0010
0001
1000
0001
1000
0001
0100
0001
0100
,
0002
0100
1000
0013
,
0100
1000
0000
0010
0000
0001
0000
0010
1000
0010
0000
0100
0000
0001
0000
1000
,
0100
0000
0000
0000
0010
0000
0001
1000
0000
0010
0000
0100
0001
0000
1000
0000
,
0110
2001
0010
3100
,
0010
1000
0010
1000
0010
0100
0010
0100
0010
0001
0010
0001
0010
0100
0010
0000
,
1000
0000
0000
0100
0000
0000
0001
0000
1000
0000
0000
0010
0000
0000
0001
0000
,
0100
0000
0000
0001
0000
0000
0010
0000
0100
0000
0000
1000
0000
0000
0010
0000
,
0100
0001
0100
0000
0010
1000
0010
0000
0100
0000
0001
0010
0000
0000
0100
0000
,
1000
0000
0100
0010
0000
0000
1000
0000
0010
0000
0001
0100
0000
0000
0010
0000
,
0001
0000
0010
1000
0000
0000
0001
0000
0010
0000
0100
1000
0000
0000
0010
0000
,
0100
0000
0001
1000
0000
0000
0100
0000
0010
0001
0000
1100
0000
0011
0000
1000
,
0001
1000
0000
1010
0000
0101
0000
1000
0100
0000
0010
0001
0000
0000
1000
0000
,
0010
0000
0100
0001
0000
0000
1000
0000
0001
0000
0010
1000
0000
0000
0010
0000
,
0001
0000
0100
1000
0000
0000
0100
0000
0010
0000
1000
0100
0000
0000
0001
0000
,
0100
0000
0010
0001
0000
0000
0100
0000
1000
0000
0100
0001
0000
0000
1000
0000
,
0001
0100
0000
0010
0100
0010
0000
1000
0010
0000
0101
0000
0000
0000
1100
0000
,
0000
0000
0011
0000
0000
0000
1010
0000
0010
1000
0001
0000
1000
0001
0100
0000
,
2002
0000
0000
0000
0000
0000
0000
0000
0000
0000
0000
0000
0000
0000
0000
0000
0000
0000
0000
0000
0000
0000
0000
0000
0000
0000
0000
0000
0000
0000
0000
0000
3003
0000
0000
0000
0000
0000
0000
0000
0000
0000
0000
0000
0000
0000
0000
0000
0010
0000
0000
0000
0000
0000
1000
0000
0000
0000
0000
0001
0000
0000
0000
0000
,
0100
1001
0000
0000
;

//---------------dance-double - ----------------
#NOTES:
     dance-double:
     :
     Beginner:
     1:
     :
00000000
00000000
00000000
00000000
,
00000000
00000000
00000000
00000000
,
00000000
00000000
00000000
00000000
,
00001000
00000000
00001000
00000000
,
00000001
00000000
00000001
00000000
,
00001001
00000000
00000000
00000000
,
00000110
00000000
00000000
00000000
,
00001001
00000000
00000000
00000000
,
00000001
00000000
00001000
00000000
,
00000010
00000000
00010000
00000000
,
00001000
00000000
00010000
00000000
,
00001000
00000000
01000000
00000000
,
00010000
00000000
10000000
00000000
,
00100000
00100000
00100000
00000000
,
10000000
00000000
00010000
00000000
,
01000000
01000000
01000000
00000000
,
00001000
00000000
00010000
00000000
,
00000010
00000000
00000100
00000000
,
00000001
00000001
00001000
00000000
,
00001000
00000000
00000010
00000000
,
00000100
00000000
00000001
00000000
,
00000001
00000000
00000100
00000000
,
00000010
00000000
00010000
00000000
,
00001000
00000000
00100000
00100000
,
00100000
00000000
00010000
00000000
,
10000000
00000000
01000000
01000000
,
01000000
00000000
00100000
00000000
,
00001000
00000000
00010000
00010000
,
00002000
00000000
00000000
00003000
,
00000000
00000000
00000100
00000000
,
00020000
00000000
00000000
00030000
,
00000000
00000000
01000000
00000000
,
00010000
00000000
10000000
00000000
,
01000000
00000000
10000000
00000000
,
00010000
00010000
00010000
00000000
,
01000000
00000000
00001000
00000000
,
00010000
00010000
00010000
00000000
,
00000100
00000100
00001000
00000000
,
00000001
00000000
00000010
00000010
,
00000010
00000000
00000100
00000000
,
00001000
00000000
00000001
00000001
,
00000001
00000000
00000010
00000000
,
00001000
00000000
00010000
00010000
,
00010000
00000000
00001000
00000000
,
01000000
00000000
00100000
00100000
,
00100000
00000000
10000000
00000000
,
00010000
00000000
01000000
01000000
,
01100000
00000000
00000000
00000000
,
00000000
10010000
00000000
00000000
;

//---------------dance-double - ----------------
#NOTES:
     dance-double:
     :
     Easy:
     4:
     :
00000000
00000000
00000000
00000000
,
00000000
00000000
00000000
00000000
,
00000000
00000000
00000000
00000000
,
00001000
00100000
00010000
01000000
,
00001000
00010000
00000100
00001000
,
00000220
00000000
00000000
00000330
,
00002002
00000000
00000000
00003003
,
00002002
00000000
00000000
00003003
,
00001001
00001000
00000100
00010000
,
00001000
01000000
00100000
10000000
,
00100000
00100000
10000000
10000000
,
00010000
00000000
00000010
00000000
,
00000100
00000100
00000010
00000010
,
00000001
00001000
00000010
00000100
,
00001001
00000100
00000010
00001000
,
00000100
00000100
00010000
00010000
,
00001000
00100000
00010000
01000000
,
20000000
00000000
00000000
30000000
,
10010000
01100000
10000000
00010000
,
00010000
10000000
00200000
01300000
,
02000000
03100000
00010000
00001000
,
00000010
00000001
00002000
00003001
,
00000002
00001003
00000100
00001000
,
00000001
00000100
00000010
00001000
,
00000001
00000010
00001000
00010000
,
00010000
00100000
01000000
00001000
,
00001000
00010000
01000000
00100000
,
00010000
10000000
01100000
10010000
,
00200000
00000000
00000000
00300000
,
00000000
00010000
00000010
00001000
,
00000200
00000000
00000000
00000300
,
00000000
00001000
00000010
00000001
,
00000010
00000100
00000001
00001000
,
00000000
00010000
00001000
00100000
,
00010000
01000000
00100000
10000000
,
01000000
10000000
00100000
00010000
,
00001000
00000010
00000001
00000100
,
00001001
00000110
00002000
00000000
,
00000000
00003000
00011000
00010000
,
00001000
00011000
00020000
00000000
,
00000000
00030000
10010000
01000000
,
10000000
10010000
00010000
00100000
,
01000000
10010000
00200000
00310000
,
00002000
00013000
00020000
00030100
,
00000020
00000130
00000001
00001000
,
00000110
00001001
00000100
00001000
,
00010000
00100000
01000000
00100000
,
20020000
00000000
00000000
30030000
,
10010000
01100000
00000000
00000000
;

//---------------dance-double - ----------------
#NOTES:
     dance-double:
     :
     Medium:
     7:
     :
00000000
00000000
00000000
00000000
,
00000000
00000000
00000000
00000000
,
00000000
00000000
00000000
00000000
,
00100000
01000000
00100000
00000000
00010000
00100000
00010000
00000000
,
00001000
00010000
00001000
00000000
00000100
00001000
00000100
00000000
,
00000012
00001000
00000100
00000013
,
00002100
00000001
00000010
00003100
,
00020010
00001000
00000100
00031000
,
01100000
00000000
10010000
00000000
00100000
01000000
00100000
00000000
,
10010000
01000000
00100000
00010000
10000000
00100000
01000000
00000000
,
10000000
00100000
00010000
00001000
00010000
00001000
00000010
00000000
,
00000001
00001000
00000010
00000100
00000001
00000010
00000100
00000000
,
00010010
00001000
00000100
00000000
00000011
00001000
00000100
00000000
,
00000010
00001000
00010000
00001000
00010000
01000000
10000000
00000000
,
00200000
10000000
01000000
00310000
,
10000000
00100000
00010000
00001000
00010000
01000000
10000000
00000000
,
00100000
10000000
01000000
00010000
00001000
00000100
00000010
00000000
,
00000100
00001001
00000000
00000110
00000000
00001100
00000000
00011000
,
00001000
00000000
00010000
00000000
00011000
00001000
00000100
00000010
,
00001000
00000100
00001000
00000000
00000001
00000010
00000100
00001000
,
00000010
00010000
00001000
00000000
00100000
00010000
10000000
00010000
,
01000000
00100000
01000000
00000000
10100000
00010000
00100000
00000000
,
01001000
00010000
01000000
00000000
00100000
01000000
00100000
00010000
,
00001000
00010000
00001000
00000000
00000010
00000001
00000010
00001000
,
00010000
00001000
00000100
00000000
00000001
00000010
00000100
00000001
,
00000100
00001000
00000010
00000000
00000101
00000010
00001000
00000000
,
00001100
00000010
00000001
00000000
00000001
00001100
00000000
00011000
,
00000000
00110000
00000000
10010000
01000000
00100000
00000000
01000000
,
20010000
00100000
00010000
31000000
,
10000000
00000000
00100000
00010000
00001000
00000100
00001000
00010000
,
00200000
00010000
01000000
10300000
,
01010000
10000000
00100000
00000000
11000000
00010000
00100000
00000000
,
01000000
00010000
00001000
00010000
00001000
00000100
00000010
00000100
,
00001001
00000210
00000001
00001300
,
00000001
00000100
00000010
00001000
00000100
00010000
00001000
00100000
,
00010000
00000000
00000000
01000000
00000000
00000000
00100000
00000000
10000000
00000000
00000000
01000000
00000000
00000000
00010000
00000000
,
00001000
00000000
00000000
00000100
00000000
00000000
00000001
00000000
00000010
00000000
00000000
00000100
00000000
00000000
00001000
00000000
,
00000011
00000000
00001100
00000000
00000010
00000100
00000001
00001000
,
00000100
00000010
00000001
00000000
00001000
00000001
00000010
00001000
,
00010000
01000000
00100000
00000000
00010000
10000000
01000000
10000000
,
00010000
00100000
00010000
00000000
10000000
01000000
01000000
00100000
,
00001000
00010000
00010000
00001000
00001000
00010000
01000000
00100000
,
01000000
00010000
00001000
00000000
00000100
00000001
00000010
00001000
,
00000010
00000001
00000100
00000000
00001000
00000100
00000010
00001000
,
00000100
00000010
00001000
00000000
00010000
00100000
01000000
00010000
,
00100000
01000000
00010000
00000000
01000000
00110000
00000000
00101000
,
00000000
00011000
00000000
00010100
00001000
00000000
00000001
00000000
,
00000220
00000000
00000000
00000330
,
00000011
00001100
00000000
00000000
;

//---------------dance-double - ----------------
#NOTES:
     dance-double:
     :
     Hard:
     9:
     :
00000000
00000000
00000000
00000000
,
00000000
00000000
00000000
00000000
,
00000000
00000000
00000000
00000000
,
00000010
00000000
00001000
00000010
00000000
00000000
00001000
00000000
00000010
00000000
00010000
00000010
00000000
00000000
00010000
00000000
,
00001000
00000000
01000000
00001000
00000000
00000000
01000000
00000000
00010000
00000000
01000000
00010000
00000000
00000000
01000000
00000000
,
10010000
00000000
00000000
01000000
00000000
00000000
00100000
00000000
00001000
00000000
00000000
00010000
00000000
00000000
00000100
00000000
,
00000010
00000000
00000000
00000001
00000000
00000000
00000100
00000000
00000010
00000000
00000000
00001000
00000000
00000000
00000001
00000000
,
00000110
00001000
00000001
00000100
00001000
00010000
00100000
10000000
,
01010000
00000000
10100000
00000000
01000000
00100000
00010000
10000000
,
01100000
00000000
00010000
00000000
01000000
00000000
10000000
00000000
01000000
00100000
01000000
00100000
00000000
00000000
00010000
00000000
,
00001000
00000000
00000010
00000000
00001000
00000000
00010000
00000000
00001000
00010000
00001000
00010000
00001000
00010000
00001000
00010000
,
00001000
00000000
00000010
00000000
00000001
00000000
00000010
00000000
00000100
00000010
00000100
00000010
00000000
00000000
00000001
00000000
,
00001000
00000100
00000000
00000010
00000000
00000001
00000000
00000100
00000001
00000100
00000000
00000010
00000000
00001000
00000000
00000100
,
00000010
00000001
00000010
00000000
00000100
00001000
00000100
00000000
00010000
00001000
00010000
00001000
00000000
00000000
00000000
00000000
,
00100000
00000000
00001000
00010000
00000000
00000000
01000000
00000000
10000000
00000000
00100000
01000000
00000000
00000000
00010000
00000000
,
00100000
00010000
00100000
00000000
00001000
00010000
00001000
00000000
00010000
00000100
00010000
00000100
00000000
00000000
00000000
00000000
,
00000010
00000001
00000010
00000001
00001000
00000100
00001000
00000100
00000010
00000100
00000000
00000010
00000100
00000010
00000000
00000100
,
00000010
00000110
00000000
00001001
00000000
00001100
00000000
00011000
,
00010000
00001000
00010000
00000000
00001000
00010000
00001000
00000000
00100000
00000000
00010000
00100000
00000000
00000000
01000000
00000000
,
10000000
00000000
00010000
10000000
00000000
00000000
00100000
00000000
01000000
00000000
00010000
01000000
00000000
00000000
00100000
00000000
,
10000000
01000000
10000000
01000000
00100000
00010000
00100000
00010000
00100000
00000000
00001000
00010000
00000000
00000000
00000100
00000000
,
00000010
00000000
00000001
00001000
00000000
00000000
00000100
00000000
00001000
00000010
00000000
00000100
00000000
00000001
00000000
00000010
,
00000100
00000010
00000000
00000001
00000000
00001000
00000000
00000010
00000100
00000000
00000001
00000100
00000000
00000000
00001000
00000000
,
00010000
00000000
01000000
10000000
00000000
00000000
00100000
00000000
01000000
00000000
00010000
10000000
00010000
00000000
00100000
00000000
,
01000000
00000000
10000000
00010000
10000000
00000000
00100000
00000000
00010000
00000000
00100000
01000000
00000000
00000000
00010000
00000000
,
00100000
00000000
00001000
00010000
00000000
00000000
00000100
00000000
00001000
00000000
00000010
00000100
00000000
00000000
00001000
00000000
,
00000100
00000001
00000000
00001000
00000001
00001000
00000000
00000010
00000100
00000000
00001001
00000000
00000000
00000000
00000101
00000000
,
00000000
00000000
00001010
00000000
00000000
00000000
00000110
00000000
00000001
00001000
00000001
00000000
00000010
00000100
00000010
00000000
,
00000002
00000000
00000000
00000100
00000000
00000000
00000013
00000000
00002000
00000000
00000000
00000010
00000000
00000000
00003100
00000000
,
00011000
00000000
00000000
00000000
00001000
00100000
00001000
00100000
00001000
00010000
00001000
00010000
00001000
01000000
00001000
01000000
,
00020000
01000000
10000000
00130000
,
01000000
10000000
00000000
00100000
00000000
00010000
00000000
00001000
00010000
00001000
00000000
00000100
00000000
00000001
00000000
00000010
,
00001000
00000000
00000000
00000000
00010000
00000000
00000010
00001000
00000000
00000100
00000000
00010000
00001000
00000000
00100000
00000000
,
00011000
00020010
00001000
00030100
,
00010000
00000010
00010000
00000010
00010000
00001000
00010000
00001000
00010000
00000100
00010000
00000100
00010000
00001000
00010000
00000000
,
00000010
00000000
00000000
00000100
00000000
00000000
00001000
00000000
00010000
00000000
00000000
00100000
00000000
00000000
01000000
00000000
,
00010000
00000000
00000000
10000000
00000000
00000000
01000000
00000000
00100000
00000000
00000000
00010000
00000000
00000000
10000000
00000000
,
01000000
10000000
01000000
00000000
00100000
00010000
00100000
00000000
01000000
00000000
10000000
00100000
00000000
00000000
01000000
00000000
,
00010000
00000000
01000000
00100000
00000000
00000000
00010000
00000000
00100000
00000000
00010000
00001000
00000000
00000000
00000010
00000000
,
00001000
00000000
00000010
00000001
00000000
00000000
00001000
00000000
00000010
00000000
00000100
00000001
00000000
00000000
00000010
00000000
,
00000100
00000000
00001000
00000001
00000000
00000000
00000100
00000000
00000010
00001000
00000000
00000001
00000000
00000100
00000000
00001000
,
00010000
00001000
00000000
00100000
00000000
00010000
00000000
10000000
01000000
00000000
00100000
00010000
00000000
00000000
10000000
00000000
,
00100000
00000000
01000000
00010000
00000000
00000000
10000000
00000000
00100000
00000000
00010000
00001000
00000000
00000000
01000000
00000000
,
00010000
00000000
00100000
00001000
00000000
00000000
00010000
00000000
00000100
00000000
00001000
00000010
00000000
00000000
00000100
00000000
,
00000010
00000000
00010000
00001000
00000000
00000000
00000100
00000000
00000001
00000000
00001000
00000100
00000000
00000000
00000010
00000000
,
00000001
00000100
00000000
00000010
00000100
00000010
00000000
00001000
00000100
00000000
00001100
00000000
00000000
00000000
00010100
00000000
,
00000000
00000000
00101000
00000000
00000000
00000000
00110000
00000000
00100000
00010000
10000000
00000000
00010000
10000000
01000000
00000000
,
20020000
00000000
00000000
00000000
00000000
00000000
00000000
00000000
00000000
00000000
00000000
00000000
00000000
00000000
00000000
00000000
00000000
00000000
00000000
00000000
00000000
00000000
00000000
00000000
00000000
00000000
00000000
00000000
00000000
00000000
00000000
00000000
30030000
00000000
00000000
00000000
00000000
00000000
00000000
00000000
00000000
00000000
00000000
00000000
00000000
00000000
00000000
00000000
00100000
00000000
00000000
00000000
00000000
00000000
00010000
00000000
00000000
00000000
00000000
10000000
00000000
00000000
00000000
00000000
,
01000000
10010000
00000000
00000000
;
