#TITLE:What Is Love?;
#ARTIST:Somatone;
#BANNER:What Is Love.png;
#BACKGROUND:What Is Love-bg.png;
#LYRICSPATH:What Is Love.lrc;
#CDTITLE:./CDTITLES/DanceDanceRevolution UNIVERSE3.png;
#MUSIC:What Is Love.ogg;
#SAMPLESTART:51.572;
#SAMPLELENGTH:15;
#DISPLAYBPM:124;
#BPMS:0=123.92,44=123.89,114=123.78,200=124.14;

//---------------dance-single - ----------------
#NOTES:
     dance-single:
     :
     Beginner:
     1:
     :
0000
0000
0000
0000
,
0000
0000
0000
0000
,
0000
0000
0000
0000
,
0000
0000
0000
0000
,
0000
0000
0000
0000
,
0000
0000
0000
0000
,
0000
0000
0000
0000
,
0100
0000
0000
0000
,
0001
0000
0000
0000
,
1000
0000
0000
0000
,
0010
0000
0000
0000
,
1000
1000
0000
0000
,
1000
1000
0000
0000
,
0001
0001
0000
0000
,
0001
0001
0000
0000
,
0010
0010
0000
0000
,
0010
0010
0000
0000
,
0100
0100
0000
0000
,
0100
0100
0000
0000
,
0110
0000
0000
0000
,
0010
0000
0000
0000
,
0001
0000
0000
0000
,
1000
0000
0000
0000
,
1001
0000
0000
0000
,
0001
0000
0000
0000
,
0100
0000
0000
0000
,
0010
0000
0000
0000
,
0010
0000
0000
0000
,
1000
0000
0001
0000
,
1000
0000
0001
0000
,
1000
0000
0000
0000
,
0100
0000
0000
0000
,
0010
0000
0001
0000
,
0010
0000
0001
0000
,
0010
0000
0000
0000
,
0001
0001
0002
0000
,
0000
0003
0000
0000
,
1000
0000
0000
0000
,
0100
0000
0000
0000
,
0010
0010
0020
0000
,
0000
0030
0000
0000
,
0001
0000
0000
0000
,
0100
0000
0000
0000
,
0110
0000
0000
0000
,
0010
0000
0000
0000
,
0100
0000
0000
0000
,
0010
0000
0000
0000
,
1001
0000
0000
0000
,
0001
0001
0000
0000
,
1000
1000
0000
0000
,
0001
0001
0000
0000
,
0100
0000
0000
0000
,
0010
0000
0000
0000
,
0001
0000
0000
0000
,
1000
0000
0000
0000
;

//---------------dance-single - ----------------
#NOTES:
     dance-single:
     :
     Easy:
     4:
     :
0000
0000
0000
0000
,
0000
0000
0000
0000
,
0000
0000
0000
0000
,
0000
0000
0000
0000
,
0000
0000
0000
0000
,
0000
0000
0000
0000
,
0000
0000
0000
0000
,
1000
0001
1000
0010
,
1000
0100
1000
0000
,
0001
0010
0001
1000
,
0001
0100
0001
0000
,
1000
1000
1000
0000
,
0001
0001
0001
0000
,
0100
0100
0100
0000
,
0010
0010
0010
0000
,
1000
0100
1000
0000
,
0001
0100
0001
0000
,
1000
0010
1000
0000
,
0001
0010
0001
0000
,
1000
0000
1000
0001
,
0100
0000
0100
0010
,
1000
0000
1000
0001
,
0100
0010
0100
0001
,
1001
0000
1000
0100
,
0010
0000
0010
0001
,
1000
0000
0001
0100
,
0010
0000
0000
0010
,
0001
0000
1000
0001
,
1000
0000
0001
0100
,
0010
1000
0000
0100
,
0010
0000
0000
0010
,
0001
0000
0001
0100
,
1000
0000
0100
0001
,
0010
0100
0000
1000
,
0001
0000
0000
0000
,
1001
1001
1000
0000
,
0001
0000
0100
0000
,
0110
0000
0010
0000
,
1001
0000
0000
0000
,
0110
0110
0010
0000
,
0100
0000
1000
0000
,
1001
0000
0100
0000
,
0110
0000
0000
0000
,
1000
1000
0000
0001
,
0000
0100
0000
0010
,
0000
1000
0000
0001
,
0000
1000
0000
0100
,
0010
0100
0010
0000
,
0001
1000
0100
0000
,
1000
0001
0100
0000
,
0010
1000
0001
0000
,
1000
0100
0000
0100
,
0000
0010
0000
0001
,
0000
1000
0000
0010
,
0100
0000
0000
0000
;

//---------------dance-single - ----------------
#NOTES:
     dance-single:
     :
     Medium:
     5:
     :
0000
0000
0000
0000
,
0000
0000
0000
0000
,
0000
0000
0000
0000
,
0000
0000
0000
0000
,
0000
0000
0000
0000
,
0000
0000
0000
0000
,
0000
0000
0000
0000
,
1000
0001
1000
0010
1000
0000
1001
0000
,
0001
0100
0001
0010
0001
0000
0101
0000
,
0100
0001
0100
0010
0100
0000
0110
0000
,
0010
1000
0010
0100
0010
0000
1010
0000
,
0001
0000
0000
0000
0001
0000
0000
0000
0001
0000
0000
1000
0000
0000
0001
0000
,
0100
0000
0000
0000
0100
0000
0000
0000
0100
0000
0000
0010
0000
0000
0100
0000
,
1000
0000
0000
0000
1000
0000
0000
0000
1000
0000
0000
0001
0000
0000
1000
0000
,
0010
0000
0000
0000
0010
0000
0000
0000
0010
0000
0000
0100
0000
0000
0010
0000
,
0001
0000
0000
0000
1000
0000
0000
0000
0001
0000
0000
1000
0000
0000
0100
0000
,
0010
0000
0000
0000
0001
0000
0000
0000
0010
0000
0000
0001
0000
0000
1000
0000
,
0010
0000
0000
0000
1000
0000
0000
0000
0010
0000
0000
1000
0000
0000
0100
0000
,
0010
0000
0000
0000
0100
0000
0000
0000
0010
0000
0000
0100
0000
0000
0010
0000
,
0002
0000
0003
0000
0001
1000
0000
0002
,
0000
0003
0000
0100
0010
0100
0000
0001
,
0000
0001
0000
0000
1000
0100
0010
0001
,
0000
0000
1000
0001
0000
0000
0010
0200
,
0000
0300
0000
0010
0001
0010
0000
2000
,
0000
3000
0000
0001
0100
0010
0000
2000
,
0000
3000
0000
0001
1000
0000
0100
0000
,
0020
0000
0000
0000
0030
0001
0001
0001
,
0000
0000
1000
0000
0100
0000
1000
0001
,
0100
0000
0001
0000
0010
0000
0001
1000
,
0010
0000
0100
0000
0001
0000
1000
0001
,
1000
0000
0100
0000
0010
0000
0100
0010
,
0100
0000
1000
0000
0001
0100
0010
0100
,
0001
0000
1000
0000
0100
0000
0010
0001
,
1000
0000
0001
0000
1000
0000
0001
0100
,
0010
0000
1000
0000
0001
0000
0010
0001
,
1100
1100
2200
0000
,
0000
0000
0000
3300
,
0220
0000
0000
0330
,
0022
0000
0000
0033
,
0110
1001
0220
0000
,
0000
0000
0000
0330
,
0202
0000
0000
0303
,
2020
0000
0000
3030
,
2000
0001
3001
0000
,
0002
0100
0103
0000
,
0200
0010
0310
0000
,
0020
1000
1030
0000
,
0001
0000
0000
0000
0001
0000
0000
0000
0001
0000
0000
1000
0000
0000
0100
0000
,
0010
0000
0000
0000
0001
0000
0000
0000
0010
0000
0000
0001
0000
0000
0100
0000
,
0010
0000
0000
0000
0010
0000
0000
0000
0010
0000
0000
1000
0000
0000
0001
0000
,
0100
0000
0000
0000
0001
0000
0000
0000
0100
0000
0000
0001
0000
0000
1000
0000
,
0100
0000
0000
0000
0010
0001
0010
0001
,
0000
1001
0000
0000
0000
0000
1000
0010
,
0000
1001
0000
0000
0000
0000
0010
0100
;

//---------------dance-single - ----------------
#NOTES:
     dance-single:
     :
     Hard:
     7:
     :
0000
0000
0000
0000
,
0000
0000
0000
0000
,
0000
0000
0000
0000
,
0000
0000
0000
0000
,
0000
0000
0000
0000
,
0000
0000
0000
0000
,
0000
0000
0000
0000
,
1000
0100
1000
0001
1000
0100
1000
0001
,
0001
1000
0001
0100
0001
1000
0001
0100
,
0100
0001
0100
0010
0100
0001
0100
0010
,
0010
1000
0010
0100
0010
1000
0010
0100
,
0001
0000
0000
0000
1000
0000
0000
0000
1000
0000
0000
0100
0000
0000
0010
0000
,
1000
0000
0000
0000
0001
0000
0000
0000
0001
0000
0000
0100
0000
0000
0010
0000
,
0100
0000
0000
0000
0010
0000
0000
0000
0010
0000
0000
1000
0000
0000
0001
0000
,
0010
0000
0000
0000
0100
0000
0000
0000
0100
0000
0000
0001
0000
0000
1000
0000
,
0001
0000
0000
0000
0101
0000
0000
0000
0101
0000
0000
0100
0000
0000
0010
0000
,
1000
0000
0000
0000
1010
0000
0000
0000
1010
0000
0000
1000
0000
0000
0001
0000
,
1000
0000
0000
0000
1001
0000
0000
0000
1001
0000
0000
0100
0000
0000
0010
0000
,
0100
0000
0000
0000
0110
0000
0000
0000
0110
0000
0000
0010
0000
0000
1000
0000
,
0001
0000
1000
0000
0001
1000
0000
0100
,
0010
0000
0001
1000
0010
1000
0000
0001
,
1000
0000
0010
0000
0001
0100
0010
1000
,
0100
0000
1000
0001
0000
0000
1000
0100
,
0010
0000
0001
0010
0100
0010
0000
0001
,
1000
0000
0001
1000
0001
1000
0000
0100
,
0010
0000
1000
1000
0100
0000
0010
0000
,
0002
0000
0000
0000
0003
0100
0001
0020
,
0000
0000
0030
0000
0001
0100
0010
1000
,
0000
2002
0000
0000
3003
0000
0010
0001
,
0000
0220
0000
0000
0330
0000
1000
0200
,
0000
0000
0300
0000
0000
1000
0100
0010
,
0001
0100
0001
1000
0001
0100
0001
1000
,
0100
1000
0100
0010
0100
1000
0100
0010
,
1000
0010
1000
0001
1000
0010
1000
0001
,
0010
0001
0010
0100
0010
0001
0010
0100
,
0010
0010
0002
0100
,
0000
1000
0000
0013
,
2000
0100
0000
3010
,
0200
0001
0000
1300
,
1001
1001
0020
1000
,
0000
0001
0000
0130
,
0002
1000
0000
0013
,
0200
0000
0010
0000
0300
0001
1000
0200
,
0000
0000
0300
0000
0000
2000
0000
0010
,
0000
0001
0000
3000
0000
0002
0000
0010
,
0000
1000
0000
0003
0000
0020
0000
0001
,
0000
1000
0000
0030
0000
0001
0100
0010
,
2000
0000
0000
0000
3001
0000
0000
0000
0101
0000
0000
0100
0000
0000
0010
0000
,
2000
0000
0000
0000
3100
0000
0000
0000
0110
0000
0000
0010
0000
0000
0001
0000
,
0200
0000
0000
0000
0301
0000
0000
0000
1001
0000
0000
1000
0000
0000
0100
0000
,
0020
0000
0000
0000
0031
0000
0000
0000
0101
0000
0000
0100
0000
0000
0010
0000
,
2000
0000
3000
0000
0001
0100
0010
1000
,
0000
2200
0000
0000
3300
0000
1000
0001
,
0000
0022
0000
0000
0033
0000
0100
2002
,
0000
3003
0000
0000
;

//---------------dance-double - ----------------
#NOTES:
     dance-double:
     :
     Beginner:
     1:
     :
00000000
00000000
00000000
00000000
,
00000000
00000000
00000000
00000000
,
00000000
00000000
00000000
00000000
,
00000000
00000000
00000000
00000000
,
00000000
00000000
00000000
00000000
,
00000000
00000000
00000000
00000000
,
00000000
00000000
00000000
00000000
,
10000000
00000000
00000000
00000000
,
01000000
00000000
00000000
00000000
,
00100000
00000000
00000000
00000000
,
00001000
00000000
00000000
00000000
,
00010000
00010000
00000000
00000000
,
00001000
00001000
00000000
00000000
,
00010000
00010000
00000000
00000000
,
00000100
00000100
00000000
00000000
,
00000010
00000010
00000000
00000000
,
00000001
00000001
00000000
00000000
,
00000100
00000100
00000000
00000000
,
00001000
00001000
00000000
00000000
,
00011000
00000000
00000000
00000000
,
00010000
00000000
00000000
00000000
,
00001000
00000000
00000000
00000000
,
01000000
00000000
00000000
00000000
,
01100000
00000000
00000000
00000000
,
00100000
00000000
00000000
00000000
,
10000000
00000000
00000000
00000000
,
01000000
00000000
00000000
00000000
,
00100000
00000000
00000000
00000000
,
00001000
00000000
00010000
00000000
,
00001000
00000000
00010000
00000000
,
00001000
00000000
00000000
00000000
,
00010000
00000000
00000000
00000000
,
00000100
00000000
00000010
00000000
,
00000100
00000000
00000010
00000000
,
00000100
00000000
00000000
00000000
,
00001000
00001000
00002000
00000000
,
00000000
00003000
00000000
00000000
,
00000001
00000000
00000000
00000000
,
00000100
00000000
00000000
00000000
,
00000010
00000010
00000020
00000000
,
00000000
00000030
00000000
00000000
,
00010000
00000000
00000000
00000000
,
00001000
00000000
00000000
00000000
,
00011000
00000000
00000000
00000000
,
00100000
00000000
00000000
00000000
,
00010000
00000000
00000000
00000000
,
10000000
00000000
00000000
00000000
,
10010000
00000000
00000000
00000000
,
00010000
00010000
00000000
00000000
,
01000000
01000000
00000000
00000000
,
00001000
00001000
00000000
00000000
,
00010000
00000000
00000000
00000000
,
00000100
00000000
00000000
00000000
,
00000010
00000000
00000000
00000000
,
00000001
00000000
00000000
00000000
;

//---------------dance-double - ----------------
#NOTES:
     dance-double:
     :
     Easy:
     3:
     :
00000000
00000000
00000000
00000000
,
00000000
00000000
00000000
00000000
,
00000000
00000000
00000000
00000000
,
00000000
00000000
00000000
00000000
,
00000000
00000000
00000000
00000000
,
00000000
00000000
00000000
00000000
,
00000000
00000000
00000000
00000000
,
10000000
01000000
00100000
01000000
,
00010000
01000000
00100000
00000000
,
00001000
00010000
00001000
00100000
,
00001000
00010000
00001000
00000000
,
00010000
00010000
00010000
00000000
,
00000100
00000100
00000100
00000000
,
00000010
00000010
00000010
00000000
,
00000001
00000001
00000001
00000000
,
00001000
00000010
00001000
00000000
,
00000100
00010000
00000100
00000000
,
00100000
00001000
00100000
00000000
,
00010000
01000000
00010000
00000000
,
10000000
00000000
10000000
01000000
,
00100000
00000000
00100000
00010000
,
00001000
00000000
00001000
00000010
,
00000100
00000001
00001000
00000001
,
00001001
00000000
00000001
00000100
,
00001000
00000000
00001000
00010000
,
00100000
00000000
00100000
10000000
,
00010000
00000000
00000000
00010000
,
10000000
00000000
01000000
00100000
,
01000000
00000000
00010000
00001000
,
00000100
00000010
00000000
00001000
,
00000001
00000000
00000000
00000001
,
00001000
00000000
00000100
00010000
,
01000000
00000000
01000000
00100000
,
00010000
10000000
00000000
01000000
,
00100000
00000000
00000000
00000000
,
00011000
00011000
00010000
00000000
,
00000100
00000000
00000010
00000000
,
00000110
00000000
00000001
00000000
,
00001001
00000000
00000000
00000000
,
00000110
00000110
00000100
00000000
,
00010000
00000000
00001000
00000000
,
00011000
00000000
01000000
00000000
,
01100000
00000000
00000000
00000000
,
10000000
10000000
00000000
00010000
,
00000000
01000000
00000000
00001000
,
00000000
00010000
00000000
00000100
,
00000000
00001000
00000000
00000010
,
00001000
00000001
00001000
00000000
,
00000100
00010000
00000100
00000000
,
00010000
00001000
00010000
00000000
,
00001000
01000000
00001000
00000000
,
00100000
00010000
00000000
10000000
,
00000000
01000000
00000000
00010000
,
00000000
00001000
00000000
00000100
,
00000010
00000000
00000000
00000000
;

//---------------dance-double - ----------------
#NOTES:
     dance-double:
     :
     Medium:
     5:
     :
00000000
00000000
00000000
00000000
,
00000000
00000000
00000000
00000000
,
00000000
00000000
00000000
00000000
,
00000000
00000000
00000000
00000000
,
00000000
00000000
00000000
00000000
,
00000000
00000000
00000000
00000000
,
00000000
00000000
00000000
00000000
,
10000000
00100000
10000000
00100000
10000000
00000000
01010000
00000000
,
00001000
00100000
00001000
00100000
00001000
00000000
00011000
00000000
,
00010000
00000010
00010000
00000010
00010000
00000000
00001010
00000000
,
00000001
00001000
00000001
00001000
00000001
00000000
00000110
00000000
,
00000001
00000000
00000000
00000000
00000001
00000000
00000000
00000000
00000001
00000000
00000000
00000100
00000000
00000000
00001000
00000000
,
00000100
00000000
00000000
00000000
00000100
00000000
00000000
00000000
00000100
00000000
00000000
00001000
00000000
00000000
00010000
00000000
,
00001000
00000000
00000000
00000000
00001000
00000000
00000000
00000000
00001000
00000000
00000000
00010000
00000000
00000000
01000000
00000000
,
00010000
00000000
00000000
00000000
00010000
00000000
00000000
00000000
00010000
00000000
00000000
01000000
00000000
00000000
10000000
00000000
,
00010000
00000000
00000000
00000000
10000000
00000000
00000000
00000000
00010000
00000000
00000000
10000000
00000000
00000000
00100000
00000000
,
00010000
00000000
00000000
00000000
00001000
00000000
00000000
00000000
00010000
00000000
00000000
00001000
00000000
00000000
00000010
00000000
,
00000001
00000000
00000000
00000000
00001000
00000000
00000000
00000000
00000001
00000000
00000000
00000100
00000000
00000000
00001000
00000000
,
00010000
00000000
00000000
00000000
00001000
00000000
00000000
00000000
00010000
00000000
00000000
00001000
00000000
00000000
00100000
00000000
,
00020000
00000000
00030000
00000000
00010000
10000000
00000000
20000000
,
00000000
30000000
00000000
01000000
00010000
01000000
00000000
00020000
,
00000000
00030000
00000000
00000000
00001000
00010000
00001000
00000100
,
00000000
00000000
00000010
00001000
00000000
00000000
00000001
00002000
,
00000000
00003000
00000000
00000001
00000100
00001000
00000000
00000200
,
00000000
00000300
00000000
00001000
00010000
01000000
00000000
00020000
,
00000000
00030000
00000000
01000000
10000000
00000000
00100000
00000000
,
02000000
00000000
00000000
00000000
03000000
00010000
00010000
00010000
,
00000000
00000000
10000000
00000000
01000000
00000000
00100000
00010000
,
01000000
00000000
00001000
00000000
00010000
00000000
00000100
00001000
,
00000010
00000000
00001000
00000000
00000001
00000000
00000100
00000010
,
00000100
00000000
00001000
00000000
00010000
00000000
01000000
00100000
,
01000000
00000000
10000000
00000000
00100000
01000000
00010000
00100000
,
00001000
00000000
00010000
00000000
00000100
00000000
00001000
00000010
,
00000100
00000000
00000001
00000000
00000100
00000000
00001000
00010000
,
00001000
00000000
00100000
00000000
00010000
00000000
10000000
00010000
,
10010000
10010000
02020000
00000000
,
00000000
00000000
00000000
03030000
,
02002000
00000000
00000000
03003000
,
00022000
00000000
00000000
00033000
,
00010010
00001010
00002002
00000000
,
00000000
00000000
00000000
00003003
,
00000202
00000000
00000000
00000303
,
00000220
00000000
00000000
00000330
,
00000002
00000100
00000103
00000000
,
00002000
00010000
00013000
00000000
,
02000000
10000000
13000000
00000000
,
00200000
00010000
00310000
00000000
,
00001000
00000000
00000000
00000000
00001000
00000000
00000000
00000000
00001000
00000000
00000000
00010000
00000000
00000000
00001000
00000000
,
00100000
00000000
00000000
00000000
00100000
00000000
00000000
00000000
00100000
00000000
00000000
00001000
00000000
00000000
00010000
00000000
,
00000100
00000000
00000000
00000000
00000100
00000000
00000000
00000000
00000100
00000000
00000000
00010000
00000000
00000000
00001000
00000000
,
00010000
00000000
00000000
00000000
00010000
00000000
00000000
00000000
00010000
00000000
00000000
00000100
00000000
00000000
00001000
00000000
,
00000001
00000000
00000000
00000000
00000001
00000100
00001000
00010000
,
00000000
00011000
00000000
00000000
00000000
00000000
00010000
01000000
,
00000000
01100000
00000000
00000000
00000000
00000000
00100000
10000000
;

//---------------dance-double - ----------------
#NOTES:
     dance-double:
     :
     Hard:
     7:
     :
00000000
00000000
00000000
00000000
,
00000000
00000000
00000000
00000000
,
00000000
00000000
00000000
00000000
,
00000000
00000000
00000000
00000000
,
00000000
00000000
00000000
00000000
,
00000000
00000000
00000000
00000000
,
00000000
00000000
00000000
00000000
,
01000000
10000000
01000000
00100000
01000000
00010000
01000000
10000000
,
00010000
00100000
00010000
10000000
00010000
01000000
00010000
00100000
,
00001000
00010000
00001000
00000010
00001000
00010000
00001000
00000100
,
00000010
00001000
00000010
00000100
00000010
00000001
00000010
00000100
,
00000002
00000000
00000000
00000000
00000100
00000000
00000000
00000000
00000103
00000000
00000000
00000010
00000000
00000000
00001000
00000000
,
00000200
00000000
00000000
00000000
00010000
00000000
00000000
00000000
00010300
00000000
00000000
00001000
00000000
00000000
00100000
00000000
,
00020000
00000000
00000000
00000000
10000000
00000000
00000000
00000000
10030000
00000000
00000000
01000000
00000000
00000000
00100000
00000000
,
00020000
00000000
00000000
00000000
01000000
00000000
00000000
00000000
01030000
00000000
00000000
00100000
00000000
00000000
10000000
00000000
,
01000000
00000000
00000000
00000000
10010000
00000000
00000000
00000000
10010000
00000000
00000000
00100000
00000000
00000000
00010000
00000000
,
01000000
00000000
00000000
00000000
00011000
00000000
00000000
00000000
00011000
00000000
00000000
00001000
00000000
00000000
00010000
00000000
,
00000100
00000000
00000000
00000000
00001001
00000000
00000000
00000000
00001001
00000000
00000000
00000100
00000000
00000000
00000010
00000000
,
00001000
00000000
00000000
00000000
00000110
00000000
00000000
00000000
00000110
00000000
00000000
00000010
00000000
00000000
00001000
00000000
,
00000001
00000000
00001000
00000000
00000001
00000100
00000000
00000010
,
00001000
00000000
00000001
00001000
00000100
00001000
00000000
00000100
,
00010000
00000000
00001000
00000000
00100000
00010000
00100000
01000000
,
00100000
00000000
00010000
10000000
00000000
00000000
00100000
10000000
,
01000000
00000000
10000000
00010000
00100000
00010000
00000000
01000000
,
00001000
00000000
00010000
00001000
00010000
00001000
00000000
00010000
,
00000100
00000000
00000010
00000001
00000010
00000000
00000001
00000000
,
00002000
00000000
00000000
00000000
00003000
00000010
00000100
00000002
,
00000000
00000000
00000003
00000000
00000001
00000100
00000010
00001000
,
00000000
00002000
00000000
00000000
00003000
00000000
00000100
00010000
,
00000000
00020000
00000000
00000000
00030000
00000000
00001000
02000000
,
00000000
00000000
03000000
00000000
00000000
00100000
10000000
01000000
,
00100000
01000000
10000000
01000000
00100000
01000000
10000000
01000000
,
00010000
00001000
00010000
01000000
00010000
00001000
00010000
01000000
,
00010000
00001000
00000100
00001000
00010000
00001000
00000100
00001000
,
00010000
00001000
00000100
00000001
00000100
00001000
00000100
00000001
,
00000010
00000001
00000200
00000010
,
00000000
00000001
00000000
00001300
,
00020000
00001000
00000000
01030000
,
00200000
00010000
00000000
10300000
,
01100000
01100000
02000000
10000000
,
00000000
00100000
00000000
03010000
,
00002000
00010000
00000000
00003100
,
00000020
00000000
00001000
00000000
00000030
00001000
00000001
00000020
,
00000000
00000000
00000030
00000000
00000000
00000002
00000000
00000100
,
00000000
00000100
00000000
00000003
00000000
00000020
00000000
00010000
,
00000000
00010000
00000000
00000030
00000000
00002000
00000000
00100000
,
00000000
00100000
00000000
00003000
00000000
00010000
10000000
01000000
,
00200000
00000000
00000000
00000000
00310000
00000000
00000000
00000000
01010000
00000000
00000000
01000000
00000000
00000000
00001000
00000000
,
00020000
00000000
00000000
00000000
00031000
00000000
00000000
00000000
00011000
00000000
00000000
00010000
00000000
00000000
00000010
00000000
,
00000200
00000000
00000000
00000000
00000310
00000000
00000000
00000000
00000110
00000000
00000000
00001000
00000000
00000000
00000001
00000000
,
00000020
00000000
00000000
00000000
00000130
00000000
00000000
00000000
00001100
00000000
00000000
00000001
00000000
00000000
00000100
00000000
,
00002000
00000000
00003000
00000000
00010000
01000000
10000000
00100000
,
00000000
02200000
00000000
00000000
03300000
00000000
01000000
00010000
,
00000000
00022000
00000000
00000000
00033000
00000000
00000010
00002200
,
00000000
00003300
00000000
00000000
;
