
//----- song ID: watc -----//
#TITLE:Watch Us Work It;
#ARTIST:Devo;
#BANNER:Watch Us Work It.png;
#BACKGROUND:Watch Us Work It-bg.png;
#CDTITLE:./CDTitles/DDR UNIVERSE3.png;
#MUSIC:Watch Us Work It.ogg;
#OFFSET:-0.001;
#SAMPLESTART:25.519;
#SAMPLELENGTH:15;
#BPMS:0=147;
#NOTES:
     dance-single:
     :
     Beginner:
     1:
     :
0000
0000
0000
0000
,
0000
0000
0000
0000
,
0000
0000
0000
0000
,
0000
0000
0000
0000
,
0010
0000
0010
0000
,
0100
0000
0100
0000
,
1000
0000
1000
0000
,
0001
0000
0001
0000
,
1001
0000
0000
0000
,
1000
0000
1000
0000
,
0001
0000
0001
0000
,
0100
0000
0100
0000
,
0110
0000
0000
0000
,
0010
0000
0010
0000
,
0100
0000
0100
0000
,
0001
0000
0001
0000
,
1000
0000
1000
0000
,
0100
0000
0100
0000
,
0010
0000
0010
0000
,
0001
0000
0001
0000
,
0100
0000
0100
0000
,
0010
0000
0010
0000
,
1000
0000
1000
0000
,
0001
0000
0001
0000
,
2002
0000
0000
3003
,
0000
0000
0000
0000
,
1000
0000
1000
0000
,
0001
0000
0001
0000
,
0100
0000
0100
0000
,
0010
0000
0010
0000
,
1000
0000
0001
0000
,
0010
0010
0010
0000
,
0001
0000
1000
0000
,
0100
0100
0100
0000
,
2002
0000
0000
3003
,
0000
0000
0000
0000
,
0110
0000
0000
0000
,
0100
0000
0100
0000
,
0010
0000
0010
0000
,
1000
0000
1000
0000
,
1001
0000
0000
0000
,
0001
0000
0001
0000
,
0010
0000
0010
0000
,
0100
0000
0100
0000
,
1000
0000
1000
0000
,
0001
0000
0001
0000
,
0010
0000
0010
0000
,
0100
0000
0100
0000
,
1000
0000
1000
0000
,
0010
0000
0010
0000
,
0100
0000
0100
0000
,
0001
0000
0001
0000
,
0010
0000
0010
0000
,
0001
0000
0001
0000
,
0100
0000
0100
0000
,
1000
0000
1000
0000
,
0100
0000
0100
0000
,
0001
0000
0001
0000
,
1000
0000
1000
0000
,
0100
0000
0100
0000
,
0010
0000
0100
0000
,
0010
0010
0010
0000
,
0100
0000
0010
0000
,
0100
0100
0100
0000
,
0110
0000
0000
0000
,
0000
0000
0000
0000
;
#NOTES:
     dance-single:
     :
     Easy:
     2:
     :
0000
0000
0000
0000
,
0000
0000
0000
0000
,
0000
0000
0000
0000
,
0000
0000
0000
0000
,
0001
0000
1000
0000
,
0001
0000
0100
0000
,
0010
0000
0100
0000
,
0010
0000
1000
0000
,
1001
0000
0001
0000
,
0100
0000
0010
0000
,
1000
0000
0100
0000
,
0010
0001
0100
0000
,
0110
0000
0010
0000
,
1000
0000
0001
0000
,
0100
0000
1000
0000
,
0100
0001
0010
0000
,
1001
0000
0100
0000
,
0010
0000
0001
0000
,
0110
0000
1000
0000
,
0001
0000
0100
0000
,
2000
0000
3001
0000
,
0100
0001
0010
0000
,
0002
0000
1003
0000
,
0010
1000
0100
0000
,
2002
0000
0000
0000
,
0000
0000
3003
0000
,
0001
0000
1000
0000
,
0001
0000
0010
0000
,
0100
0000
0010
0000
,
0100
0000
1000
0000
,
0001
0000
0100
0000
,
0010
0010
0010
0000
,
1000
0000
0001
0000
,
0100
0100
0100
0000
,
2002
0000
0000
0000
,
3003
0000
0000
1001
,
1001
0000
0010
0000
,
0100
0000
0001
0000
,
1000
0000
0010
0000
,
0100
0001
0010
0000
,
1001
0000
0001
0000
,
1000
0000
0100
0000
,
0010
0000
0001
0000
,
1000
0100
0001
0000
,
0100
0000
1000
0000
,
0010
0001
0010
0000
,
0001
0000
0010
0000
,
1000
0100
1000
0000
,
0001
0000
0100
0000
,
1000
0100
1000
0000
,
0100
0000
0001
0000
,
0010
1000
0010
0000
,
0002
0000
1003
0000
,
0010
0100
0001
0000
,
2000
0000
3001
0000
,
0010
0100
1000
0000
,
0020
0000
0130
0000
,
0010
1000
0001
0000
,
0020
0000
0130
0000
,
0010
0001
1000
0000
,
0001
0000
0100
0000
,
1000
0100
0001
0000
,
1000
0000
0001
0000
,
1000
0010
0001
0000
,
2002
0000
0000
0000
,
0000
0000
0000
0000
,
3003
0000
0000
0000
,
0000
0000
0000
0000
;
#NOTES:
     dance-single:
     :
     Medium:
     4:
     :
0000
0000
0000
0000
,
0000
0000
0000
0000
,
0000
0000
0000
0000
,
0000
0000
0000
0000
,
0001
0000
1000
0000
,
0010
1000
0001
0000
,
0100
0000
0010
0000
,
1000
0001
0100
0000
,
1010
0000
0001
0000
,
1000
0100
0001
0000
,
0100
0000
0010
0000
,
0001
1000
0100
0000
,
0011
0000
1000
0000
,
0001
0100
0010
0000
,
1000
0000
0001
0000
,
0100
0001
0010
0000
,
1000
0010
1000
0000
0010
0000
0010
0000
,
0001
0001
0100
0100
,
0010
0100
0010
0000
1000
0000
1000
0000
,
0001
0001
0100
0100
,
0001
0010
0001
0000
1000
0000
1000
0000
,
0100
0100
0010
0010
,
0100
1000
0100
0000
0010
0000
0010
0000
,
0001
0001
1000
1000
,
0210
0010
0001
0001
,
1000
1000
0010
0310
,
1001
0010
0100
0000
,
0001
1000
0100
0000
,
0010
0001
1000
0000
,
0010
0100
0001
0000
,
1000
0010
0100
0001
,
0010
0100
1000
0000
,
0001
0010
0001
0100
,
0010
1000
0100
0000
,
2002
0000
0000
3003
,
0100
0010
0010
0100
,
1001
0000
0010
0000
,
1000
0001
0100
0000
,
0001
0010
1000
0010
,
0100
1000
0001
0000
,
0110
0000
0001
0000
,
1000
0100
0010
0000
,
0001
0100
0010
1000
,
0001
0010
0100
0000
,
1000
0001
1000
0000
0010
0000
0010
0000
,
0100
0100
0001
0001
,
0010
0100
0010
0000
0001
0000
0001
0000
,
1000
1000
0100
0100
,
0010
0001
0010
0000
0100
0000
0100
0000
,
1000
1000
0001
0001
,
1000
0010
1000
0000
0001
0000
0001
0000
,
0100
0100
0010
0010
,
1000
0100
1000
0000
0001
0000
0001
0000
,
0010
0010
0100
0100
,
0001
0100
0001
0000
0100
0000
0100
0000
,
1000
1000
0010
0010
,
0001
0010
0001
0000
0010
0000
0010
0000
,
1000
1000
0100
0100
,
0010
0001
0010
0000
0100
0000
0100
0000
,
1000
1000
0001
0001
,
0100
0010
0100
0000
,
0001
1000
0001
0000
,
0010
0100
0010
0000
,
0001
0100
1000
0000
,
2002
0000
0000
0000
,
0000
0000
0000
0000
,
3003
0000
0000
0000
,
0000
0000
0000
0000
;
#NOTES:
     dance-single:
     :
     Hard:
     7:
     :
0000
0000
0000
0000
,
0000
0000
0000
0000
,
0000
0000
0000
0000
,
0000
0000
0000
0000
,
1000
0000
0001
0010
0100
1000
0000
0010
,
0100
0000
0001
1000
0001
0000
0000
0000
,
0010
0000
0100
1000
0001
0010
0000
0001
,
1000
0000
0010
0100
0010
0000
1000
0001
,
0110
0000
0010
0100
0100
0000
0010
0000
,
1000
0010
0100
0001
0010
0000
0100
0000
,
1000
0000
0001
1000
1000
0000
0001
0000
,
0010
0001
0100
0010
1000
0000
0100
0100
,
0010
0000
0001
1000
1000
0000
0100
0000
,
0010
0001
1000
0010
0100
0000
0001
0000
,
1000
0000
0001
0100
0100
0000
0010
0000
,
0001
0010
1000
0100
0001
0100
1000
0000
,
0001
0100
0010
0010
0100
0000
0001
0000
,
1000
0001
0010
0010
0001
0000
1000
0000
,
0001
0100
1000
1000
0100
0000
0001
0000
,
0010
0001
0100
0100
0001
0000
0010
0000
,
0100
0100
1000
1000
0001
0000
0100
0000
,
0001
0001
0010
0010
0100
0000
0001
0000
,
0100
0100
0010
0010
0001
0000
1000
0000
,
0010
0010
0100
0100
0001
0000
1000
0000
,
0110
1010
1001
0011
,
0110
1100
1001
0101
,
1000
0000
0001
0010
1000
0010
0000
0001
,
1000
0000
0010
0100
0010
0000
0000
0000
,
0001
0000
1000
0100
0010
0100
0000
0001
,
0100
0000
1000
0001
0100
0000
0010
0010
,
0100
0001
0100
0001
1000
0010
1000
0010
,
0100
0001
1000
0010
0100
0001
0000
0000
,
0010
0001
0010
0001
0100
1000
0100
1000
,
0100
0001
0010
0001
0100
1000
0000
0000
,
2002
0000
0000
3003
,
0010
0000
0100
0001
0000
1000
0100
0100
,
0010
0000
0001
1000
1000
0000
0010
0000
,
0100
0100
0001
1000
0100
0000
0010
0000
,
0001
0000
0010
1000
1000
0000
0010
0000
,
0001
0001
0100
0010
1000
0000
0001
0001
,
1000
0000
0100
0010
0010
0000
1000
0000
,
0010
0010
0001
0100
0010
0000
1000
0000
,
0100
0000
0001
0001
0100
0000
1000
0000
,
0001
0100
0001
1000
0010
1000
0001
0000
,
0010
0001
1000
1000
0001
0000
0100
0000
,
1000
0100
0010
0010
1000
0000
0100
0000
,
0001
0100
1000
1000
0001
0000
0010
0000
,
0100
0010
1000
1000
0010
0000
0001
0000
,
1000
1000
0001
0001
0100
0000
1000
0000
,
0100
0100
0010
0010
1000
0000
0001
0000
,
0010
0010
0001
0001
1000
0000
0100
0000
,
0001
0001
0100
0100
0010
0000
0001
0000
,
1000
0100
0010
0010
0001
0000
0100
0000
,
0010
1000
0100
0100
0010
0000
0001
0000
,
1000
0100
0001
0001
0100
0000
1000
0000
,
0010
1000
0100
0100
0001
0000
0100
0000
,
0010
0001
1000
1000
0100
0000
0010
0000
,
0001
1000
0100
0100
0010
0000
0001
0000
,
0100
0010
1000
1000
0001
0000
0100
0000
,
0001
0001
1000
0100
0010
0000
0001
0000
,
1000
0000
0010
0100
0010
0001
0000
0010
,
1000
0000
0001
0100
1000
0000
0000
0000
,
0100
0000
0001
1000
0001
0010
0000
1000
,
0010
0000
0001
0100
1000
0000
0000
0000
,
2002
0000
0000
0000
,
0000
0000
0000
0000
,
3003
0000
0000
0000
,
0000
0000
0000
0000
;
#NOTES:
     dance-double:
     :
     Beginner:
     1:
     :
00000000
00000000
00000000
00000000
,
00000000
00000000
00000000
00000000
,
00000000
00000000
00000000
00000000
,
00000000
00000000
00000000
00000000
,
00100000
00000000
00100000
00000000
,
00001000
00000000
00001000
00000000
,
00010000
00000000
00010000
00000000
,
00000100
00000000
00000100
00000000
,
00001001
00000000
00000000
00000000
,
00000001
00000000
00000001
00000000
,
00000100
00000000
00000100
00000000
,
00001000
00000000
00001000
00000000
,
00011000
00000000
00000000
00000000
,
00010000
00000000
00010000
00000000
,
00100000
00000000
00100000
00000000
,
10000000
00000000
10000000
00000000
,
00010000
00000000
00010000
00000000
,
01000000
00000000
01000000
00000000
,
00001000
00000000
00001000
00000000
,
00010000
00000000
00010000
00000000
,
00000010
00000000
00000010
00000000
,
00001000
00000000
00001000
00000000
,
00000100
00000000
00000100
00000000
,
00010000
00000000
00010000
00000000
,
00022000
00000000
00000000
00033000
,
00000000
00000000
00000000
00000000
,
00010000
00000000
00010000
00000000
,
00001000
00000000
00001000
00000000
,
01000000
00000000
01000000
00000000
,
00100000
00000000
00100000
00000000
,
00010000
00000000
00001000
00000000
,
00000010
00000010
00000010
00000000
,
00001000
00000000
00010000
00000000
,
01000000
01000000
01000000
00000000
,
20020000
00000000
00000000
30030000
,
00000000
00000000
00000000
00000000
,
01100000
00000000
00000000
00000000
,
01000000
00000000
01000000
00000000
,
00100000
00000000
00100000
00000000
,
00010000
00000000
00010000
00000000
,
00011000
00000000
00000000
00000000
,
00001000
00000000
00001000
00000000
,
00000100
00000000
00000100
00000000
,
00000010
00000000
00000010
00000000
,
00010000
00000000
00010000
00000000
,
00001000
00000000
00001000
00000000
,
00100000
00000000
00100000
00000000
,
00010000
00000000
00010000
00000000
,
01000000
00000000
01000000
00000000
,
00001000
00000000
00001000
00000000
,
00010000
00000000
00010000
00000000
,
00000100
00000000
00000100
00000000
,
00000010
00000000
00000010
00000000
,
00001000
00000000
00001000
00000000
,
00010000
00000000
00010000
00000000
,
01000000
00000000
01000000
00000000
,
00100000
00000000
00100000
00000000
,
00001000
00000000
00001000
00000000
,
00010000
00000000
00010000
00000000
,
00000100
00000000
00000100
00000000
,
00010000
00000000
00001000
00000000
,
00100000
00100000
00100000
00000000
,
00001000
00000000
00010000
00000000
,
00000100
00000100
00000100
00000000
,
00002002
00000000
00000000
00000000
,
00003003
00000000
00000000
00000000
,
00000000
00000000
00000000
00000000
;
#NOTES:
     dance-double:
     :
     Easy:
     2:
     :
00000000
00000000
00000000
00000000
,
00000000
00000000
00000000
00000000
,
00000000
00000000
00000000
00000000
,
00000000
00000000
00000000
00000000
,
00000001
00000000
00001000
00000000
,
00000010
00000000
00000100
00000000
,
00001000
00000000
00010000
00000000
,
00100000
00000000
01000000
00000000
,
10010000
00000000
00000000
00000000
,
01000000
00000000
00100000
00000000
,
10000000
00000000
01000000
00000000
,
00010000
00001000
00000100
00000000
,
00001001
00000000
00000000
00000000
,
00000001
00000000
00001000
00000000
,
00000100
00000000
00000010
00000000
,
00001000
00010000
00100000
00000000
,
00011000
00000000
01000000
00000000
,
00100000
00000000
00010000
00000000
,
00011000
00000000
00000010
00000000
,
00000100
00000000
00001000
00000000
,
00020000
00000000
00030100
00000000
,
00000010
00001000
00010000
00000000
,
00002000
00000000
00103000
00000000
,
01000000
00010000
00001000
00000000
,
00022000
00000000
00000000
00000000
,
00000000
00000000
00033000
00000000
,
00000010
00000000
00000100
00000000
,
00000001
00000000
00001000
00000000
,
00000100
00000000
00010000
00000000
,
00001000
00000000
00100000
00000000
,
00010000
00000000
01000000
00000000
,
00001000
00001000
00001000
00000000
,
00010000
00000000
00000010
00000000
,
00000100
00000100
00000100
00000000
,
00002002
00000000
00000000
00000000
,
00003003
00000000
00000000
00001001
,
00001001
00000000
00000000
00000000
,
00000010
00000000
00001000
00000000
,
00000001
00000000
00000100
00000000
,
00001000
00010000
00000010
00000000
,
00011000
00000000
00000000
00000000
,
01000000
00000000
00010000
00000000
,
10000000
00000000
00100000
00000000
,
10000000
01000000
00010000
00000000
,
00001000
00000000
00000100
00000000
,
00000001
00000010
00000001
00000000
,
00000010
00000000
00001000
00000000
,
00010000
00100000
00010000
00000000
,
00100000
00000000
10000000
00000000
,
01000000
00010000
01000000
00000000
,
00010000
00000000
00001000
00000000
,
00000100
00000001
00000100
00000000
,
00000020
00000000
00010030
00000000
,
00001000
01000000
00010000
00000000
,
00200000
00000000
00301000
00000000
,
00010000
00000100
00001000
00000000
,
00000002
00000000
00001003
00000000
,
00000100
00010000
00001000
00000000
,
02000000
00000000
03100000
00000000
,
00010000
00001000
00000010
00000000
,
00000100
00000000
00010000
00000000
,
00000010
00001000
00000100
00000000
,
00010000
00000000
00001000
00000000
,
00100000
00010000
01000000
00000000
,
20020000
00000000
00000000
00000000
,
00000000
00000000
00000000
00000000
,
30030000
00000000
00000000
00000000
,
00000000
00000000
00000000
00000000
;
#NOTES:
     dance-double:
     :
     Medium:
     4:
     :
00000000
00000000
00000000
00000000
,
00000000
00000000
00000000
00000000
,
00000000
00000000
00000000
00000000
,
00000000
00000000
00000000
00000000
,
00001000
00000000
00010000
00000000
,
00100000
10000000
00010000
00000000
,
01000000
00000000
00001000
00000000
,
00010000
00000010
00001000
00000000
,
00000101
00000000
00001000
00000000
,
00000001
00000100
00001000
00000000
,
00010000
00000000
00100000
00000000
,
10000000
00010000
01000000
00000000
,
10100000
00000000
00010000
00000000
,
00100000
00001000
00010000
00000000
,
00000100
00000000
00000010
00000000
,
00000001
00000100
00001000
00000000
,
00010000
00001000
00010000
00000000
00100000
00000000
00100000
00000000
,
10000000
10000000
00010000
00010000
,
00100000
01000000
00100000
00000000
00001000
00000000
00001000
00000000
,
00010000
00010000
00000100
00000100
,
00001000
00000001
00001000
00000000
00000010
00000000
00000010
00000000
,
00000100
00000100
00000001
00000001
,
00000010
00000100
00000010
00000000
00001000
00000000
00001000
00000000
,
00010000
00010000
00100000
00100000
,
00021000
00001000
00000100
00000100
,
00000010
00000010
00001000
00031000
,
00011000
00100000
00010000
00000000
,
10000000
00010000
01000000
00000000
,
00001000
00010000
00000100
00000000
,
00001000
00000001
00000010
00000000
,
00000100
00010000
00001000
00100000
,
00010000
01000000
10000000
00000000
,
01000000
00100000
00010000
00001000
,
00000010
00000100
00000001
00000000
,
00002002
00000000
00000000
00003003
,
00000100
00000010
00000010
00000100
,
00001001
00000000
00000010
00000000
,
00000001
00001000
00000100
00000000
,
00000010
00001000
00010000
00100000
,
01000000
00010000
10000000
00000000
,
01100000
00000000
00010000
00000000
,
10000000
01000000
00100000
00000000
,
00010000
01000000
00001000
00010000
,
00000010
00000100
00000001
00000000
,
00001000
00000001
00001000
00000000
00000010
00000000
00000010
00000000
,
00000100
00000100
00000001
00000001
,
00000010
00000100
00000010
00000000
00001000
00000000
00001000
00000000
,
00010000
00010000
01000000
01000000
,
10000000
00100000
10000000
00000000
00010000
00000000
00010000
00000000
,
00100000
00100000
00001000
00001000
,
00010000
00001000
00010000
00000000
00000100
00000000
00000100
00000000
,
00000010
00000010
00000001
00000001
,
00000100
00001000
00000100
00000000
00001000
00000000
00001000
00000000
,
00010000
00010000
01000000
01000000
,
00010000
00001000
00010000
00000000
00000100
00000000
00000100
00000000
,
00000010
00000010
00000001
00000001
,
00000100
00001000
00000100
00000000
00001000
00000000
00001000
00000000
,
00010000
00010000
01000000
01000000
,
10000000
00100000
10000000
00000000
00010000
00000000
00010000
00000000
,
01000000
01000000
00100000
00100000
,
01000000
00001000
01000000
00000000
,
00001000
00010000
00001000
00000000
,
00010000
00000010
00010000
00000000
,
00001000
00000100
00000001
00000000
,
00002002
00000000
00000000
00000000
,
00000000
00000000
00000000
00000000
,
00003003
00000000
00000000
00000000
,
00000000
00000000
00000000
00000000
;
#NOTES:
     dance-double:
     :
     Hard:
     7:
     :
00000000
00000000
00000000
00000000
,
00000000
00000000
00000000
00000000
,
00000000
00000000
00000000
00000000
,
00000000
00000000
00000000
00000000
,
10000000
00000000
00100000
01000000
00010000
10000000
00000000
00100000
,
01000000
00000000
00001000
00010000
00001000
00000000
00000000
00000000
,
00010000
00000000
00000100
00010000
00001000
00100000
00000000
00001000
,
00010000
00000000
00000010
00000100
00000010
00000000
00001000
00000001
,
00000110
00000000
00000010
00000100
00000100
00000000
00000001
00000000
,
00000010
00000001
00000100
00000010
00001000
00000000
00000100
00000000
,
00010000
00000000
00001000
01000000
01000000
00000000
00010000
00000000
,
00100000
00010000
01000000
00100000
10000000
00000000
01000000
01000000
,
00100000
00000000
00010000
10000000
10000000
00000000
01000000
00000000
,
00100000
00010000
10000000
01000000
00100000
00000000
00010000
00000000
,
10000000
00000000
00010000
01000000
01000000
00000000
00100000
00000000
,
00010000
00001000
00000010
00001000
00010000
00100000
00010000
00000000
,
00001000
00010000
00000100
00000100
00010000
00000000
00001000
00000000
,
00000010
00000001
00001000
00001000
00000001
00000000
00000100
00000000
,
00000010
00010000
00001000
00001000
00010000
00000000
00000100
00000000
,
00010000
00001000
00100000
00100000
00010000
00000000
01000000
00000000
,
00010000
00010000
10000000
10000000
01000000
00000000
00010000
00000000
,
00001000
00001000
00100000
00100000
00010000
00000000
01000000
00000000
,
00100000
00100000
00010000
00010000
00001000
00000000
00010000
00000000
,
00000010
00000010
00000100
00000100
00001000
00000000
00010000
00000000
,
00010010
00011000
01001000
00011000
,
00010100
00011000
00101000
00011000
,
00000010
00000000
00010000
00001000
00100000
00010000
00000000
10000000
,
01000000
00000000
00100000
00010000
01000000
00000000
00000000
00000000
,
00001000
00000000
00100000
00010000
10000000
00010000
00000000
01000000
,
00100000
00000000
10000000
00010000
01000000
00000000
00100000
00100000
,
01000000
00001000
01000000
00001000
00010000
00001000
00010000
00001000
,
01000000
00001000
00010000
00001000
01000000
00001000
00000000
00000000
,
00010000
00001000
00010000
00001000
00000010
00000100
00000010
00000100
,
00010000
00001000
00000010
00000100
00010000
00001000
00000000
00000000
,
00022000
00000000
00000000
00033000
,
00000010
00000000
00010000
00000100
00000000
00001000
00000001
00000001
,
00000010
00000000
00000001
00001000
00001000
00000000
00000010
00000000
,
00000100
00000100
00000001
00001000
00000100
00000000
00000010
00000000
,
00001000
00000000
00010000
00100000
00100000
00000000
01000000
00000000
,
00010000
00010000
00100000
01000000
10000000
00000000
00010000
00010000
,
10000000
00000000
01000000
00100000
00100000
00000000
10000000
00000000
,
00100000
00100000
00010000
01000000
00100000
00000000
00010000
00000000
,
00001000
00000000
00010000
00010000
00000100
00000000
00001000
00000000
,
00000001
00000010
00000001
00001000
00000100
00001000
00000001
00000000
,
00000010
00000001
00001000
00001000
00000001
00000000
00000100
00000000
,
00001000
00000100
00000010
00000010
00010000
00000000
00001000
00000000
,
00010000
01000000
10000000
10000000
00010000
00000000
00100000
00000000
,
00001000
00100000
00010000
00010000
01000000
00000000
00100000
00000000
,
10000000
10000000
00010000
00010000
01000000
00000000
10000000
00000000
,
01000000
01000000
00100000
00100000
00010000
00000000
00001000
00000000
,
00010000
00010000
00000100
00000100
00001000
00000000
00000001
00000000
,
00000010
00000010
00001000
00001000
00010000
00000000
00000100
00000000
,
00001000
00000100
00000010
00000010
00000001
00000000
00000100
00000000
,
00000010
00001000
00000100
00000100
00010000
00000000
00001000
00000000
,
00100000
00001000
00010000
00010000
01000000
00000000
10000000
00000000
,
00010000
01000000
00100000
00100000
10000000
00000000
00010000
00000000
,
00100000
00001000
00010000
00010000
01000000
00000000
00100000
00000000
,
00001000
00010000
00000100
00000100
00001000
00000000
00000010
00000000
,
00010000
00001000
00000010
00000010
00000100
00000000
00001000
00000000
,
00000001
00000001
00001000
00000100
00000010
00000000
00001001
00000000
,
00000010
00000000
00000001
00000100
00000001
00000010
00000000
00001000
,
00010000
00000000
00100000
00010000
00001000
00000000
00000000
00000000
,
01000000
00000000
00001000
00010000
00100000
01000000
00000000
00010000
,
10000000
00000000
01000000
00100000
00001000
00000000
00000000
00000000
,
00022000
00000000
00000000
00000000
,
00000000
00000000
00000000
00000000
,
00033000
00000000
00000000
00000000
,
00000000
00000000
00000000
00000000
;
