
//----- song ID: timo -----
#TITLE:Time To Move;
#ARTIST:Fcdeejay;
#BANNER:Time To Move.png;
#BACKGROUND:Time To Move-bg.png;
#CDTITLE:./CDTitles/DDR UNIVERSE3.png;
#MUSIC:Time To Move.ogg;
#OFFSET:-0.001;
#SAMPLESTART:43.945;
#SAMPLELENGTH:15;
#DISPLAYBPM:142;
#BPMS:0=142.5,2=142;
#NOTES:
     dance-single:
     :
     Beginner:
     1:
     :
0000
0000
0000
0000
,
0000
0000
0000
0000
,
0000
0000
0000
0000
,
0000
0000
0000
0000
,
0001
0000
0000
0000
,
0001
0000
0000
0000
,
1000
0000
0000
0000
,
1000
0000
0000
0000
,
1001
0000
0000
0000
,
1000
0000
0000
0000
,
1000
0000
0000
0000
,
0010
0000
0000
0000
,
0100
0000
0000
0000
,
0001
0000
0000
0000
,
0001
0000
0000
0000
,
0010
0000
0000
0000
,
0100
0000
0000
0000
,
1000
0000
0000
0000
,
1000
0000
0000
0000
,
0001
0000
0000
0000
,
0100
0000
0000
0000
,
0010
0000
0000
0000
,
0010
0000
0000
0000
,
1000
0000
0000
0000
,
0001
0000
1000
0000
,
0001
0000
0000
0000
,
0010
0000
0000
0000
,
0100
0000
0000
0000
,
0010
0000
0000
0000
,
0100
0000
0000
0000
,
0001
0000
0000
0000
,
1000
0000
0000
0000
,
0001
0000
0000
0000
,
1000
0000
0000
0000
,
0010
0000
0000
0000
,
0100
0000
0000
0000
,
0100
0000
0000
0000
,
0001
0000
0000
0000
,
0010
0000
0000
0000
,
0100
0000
0000
0000
,
1000
0000
0000
0000
,
0001
0000
0000
0000
,
0100
0000
0000
0000
,
0010
0000
0000
0000
,
1000
0000
0000
0000
,
0001
0000
0000
0000
,
0010
0000
0000
0000
,
0100
0000
0000
0000
,
1000
0000
0000
0000
,
0001
0000
0000
0000
,
0100
0000
0000
0000
,
0010
0000
0010
0000
,
0010
0000
0000
0000
,
1000
0000
1000
0000
,
1000
0000
0000
0000
,
0001
0000
0001
0000
,
0001
0000
0000
0000
,
0010
0000
0010
0000
,
0010
0000
0000
0000
,
0100
0000
0100
0000
,
1000
0000
0000
0000
,
0010
0000
0010
0000
,
0100
0000
0000
0000
,
0001
0000
0001
0000
,
0100
0000
0000
0000
,
0010
0000
0010
0000
,
1000
0000
0000
0000
,
1001
0000
0000
0000
;
#NOTES:
     dance-single:
     :
     Easy:
     2:
     :
0000
0000
0000
0000
,
0000
0000
0000
0000
,
0000
0000
0000
0000
,
0000
0000
0000
0000
,
1000
0000
1000
0000
,
0100
0000
0100
0000
,
0010
0000
0010
0000
,
0001
0000
0001
0000
,
1001
0000
0000
0000
,
1000
0000
0010
0000
,
0100
0000
0000
0000
,
0001
0000
0010
0000
,
0100
0000
0100
0000
,
1000
0000
0001
0000
,
0100
0000
0000
0000
,
0010
0000
1000
0000
,
0001
0000
0001
0000
,
0010
0000
0100
0000
,
1000
0000
1000
0000
,
0001
0000
0100
0000
,
0010
0000
0010
0000
,
1000
0000
0001
0000
,
0010
0000
0100
0000
,
1000
0000
0001
0000
,
0100
0000
0010
0000
,
0010
0000
0010
0000
,
1000
0000
0001
0000
,
1000
0000
0001
0000
,
0010
0000
0100
0000
,
0010
0000
0100
0000
,
1000
0000
0100
0000
,
1000
0000
0100
0000
,
0010
0000
0001
0000
,
0010
0000
0100
0000
,
1000
0000
0000
0000
,
0001
0000
0100
0000
,
0010
0000
0000
0000
,
1000
0000
0001
0000
,
0010
0000
0000
0000
,
0100
0000
0010
0000
,
0001
0000
0000
0000
,
0100
0000
0010
0000
,
1000
0000
1000
0000
,
0100
0000
0010
0000
,
0001
0000
0010
0000
,
0100
0000
1000
0000
,
0001
0000
0100
0000
,
0010
0000
0010
0000
,
1000
0000
0001
0000
,
0010
0000
0100
0000
,
0010
0000
0001
0000
,
0100
0000
0100
0000
,
0010
0000
0010
0000
,
1000
0000
1000
0000
,
0001
0000
0001
0000
,
0010
0000
0100
0000
,
0010
0000
0001
0000
,
1000
0000
0100
0000
,
0001
0000
0100
0000
,
1000
0000
0010
0000
,
1000
0000
0010
0000
,
0100
0000
0001
0000
,
0100
0000
0001
0000
,
0010
0000
0001
0000
,
0010
0000
0001
0000
,
0010
0000
0100
0000
,
1000
0000
0001
0000
,
1001
0000
0000
0000
;
#NOTES:
     dance-single:
     :
     Medium:
     5:
     :
0000
0000
0000
0000
,
0000
0000
0000
0000
,
0000
0000
0000
0000
,
0000
0000
0000
0000
,
1000
0010
0100
0000
,
0001
0010
0100
0000
,
1000
1000
0001
0001
,
0100
0010
1000
0100
,
0010
0000
0000
0000
,
0001
0000
0010
0000
,
0100
1000
0001
0000
,
0100
0000
0010
0000
,
2000
3002
2003
3002
,
0013
0000
0100
0000
,
1000
0001
1000
0010
,
0100
0000
0001
0000
,
0010
0100
1000
0000
,
0100
0000
0010
0000
,
0001
0100
0010
0000
,
1000
0000
0001
0000
,
0020
0032
0023
0032
,
1003
0000
0001
0000
,
0100
0010
1000
0001
,
0010
0000
0100
0000
,
1000
0100
0010
0001
,
0100
0100
0100
0100
,
0010
0000
1000
0000
0001
0000
0010
0100
,
0000
1000
0000
0001
1000
0000
0010
0000
,
0100
0000
0001
0000
0010
0000
0001
0100
,
0000
0010
0000
1000
0001
0000
0010
0000
,
0100
0000
1000
0000
0100
0000
0010
0001
,
0000
0010
0000
0100
1000
0000
0001
0000
,
0100
0000
0100
0000
0010
0000
0010
1000
,
0000
1000
0000
0001
0010
0000
0100
0000
,
0010
0000
0000
0000
,
0001
0000
0100
0000
,
0010
1000
0001
0010
,
0100
0000
1000
0000
,
0200
0320
0230
0320
,
0031
0000
1000
0000
,
0010
0100
0001
0010
,
0100
0000
1000
0000
,
0001
0100
0010
0100
,
0001
0000
1000
0000
,
0010
1000
0100
0000
,
0010
0000
0001
0000
,
2000
3020
2030
3020
,
0130
0000
0010
0000
,
1000
0001
0100
0010
,
1000
0000
0100
0000
,
0010
0001
0010
0000
,
0100
1000
0001
0000
,
0100
0010
1000
0000
,
0001
0010
0100
0000
,
0010
0001
0100
0000
,
0010
1000
0100
0010
,
0001
0010
0100
0000
,
1000
0001
0100
0010
,
1000
1000
1000
1000
,
0100
0000
0010
0000
0001
0000
0010
0100
,
0000
1000
0000
0100
0010
0000
0001
0000
,
0100
0000
0010
0000
1000
0000
0001
0100
,
0000
0010
0000
1000
0100
0000
0010
0000
,
0001
0000
0010
0000
0100
0000
1000
0001
,
0000
0100
0000
0010
1000
0000
0100
0000
,
0010
0000
0010
0000
0001
0000
0001
1000
,
0000
1000
0000
0010
0100
0000
0001
0000
,
0010
0000
0000
0000
;
#NOTES:
     dance-single:
     :
     Hard:
     8:
     :
0000
0000
0000
0000
,
0000
0000
0000
0000
,
0000
0000
0000
0000
,
0000
0000
0000
0000
,
0011
0000
0100
0000
1000
0000
0010
1000
,
0000
0001
0000
1000
0010
0000
0100
0000
,
0001
0000
0001
0000
1000
0000
1000
0001
,
0000
0001
0000
0010
0100
0000
0010
0000
,
1001
0000
0000
0000
0000
0000
0000
0010
,
1000
0000
0000
0001
0010
0100
0010
0000
,
0100
1000
0001
0100
0010
1000
0001
0000
,
1001
0000
0000
1000
0100
0000
0000
0010
,
0002
0203
2300
3200
,
0310
0000
0000
0010
1000
0000
0000
0001
,
0010
0100
0010
0001
1000
0001
0100
0000
,
0010
0100
0010
1000
0100
0010
0100
0000
,
0010
0000
0001
0000
1000
0001
0100
0001
,
0100
0000
0010
1000
0001
0010
0000
0100
,
1000
0001
1000
0001
0100
0010
1000
0000
,
0001
0000
0000
0001
0010
0000
0000
0010
,
0200
0000
0302
0000
0203
0000
2300
0001
,
3001
0000
0000
0000
0000
0000
0100
0000
0010
0000
0000
1000
0000
0000
0001
0000
,
0010
0000
0100
0000
1000
0000
0100
0000
0010
0000
0000
0001
0000
0000
0000
0000
,
1000
0000
0000
1000
0010
0000
0000
0100
,
0001
0010
0100
1000
,
0002
0100
0100
0100
,
0103
0000
0000
0100
0010
0000
0000
0010
1000
0000
0000
1000
0001
0000
0000
0001
,
0010
0000
0000
0010
0100
0000
0000
0100
1000
0000
0000
1000
0010
0000
0000
0010
,
0001
0000
0000
0001
0010
0000
0000
0010
1000
0000
0000
1000
0100
0000
0000
0100
,
0010
0000
0000
0010
0001
0000
0000
0001
1000
0000
0000
1000
0100
0000
0000
0100
,
0010
0000
0000
0010
1000
0000
0000
1000
0010
0000
0000
0010
0001
0000
0000
0001
,
1000
0000
0000
1000
0010
0000
0000
0010
0100
0000
0000
0100
0001
0000
0000
0001
,
0010
0000
0000
0010
0100
0000
0000
0100
1000
0000
0000
1000
0001
0000
0000
0001
,
0100
0000
0000
0100
0010
0000
0000
0010
1000
0000
0000
0000
0001
0000
0000
0000
,
0010
0000
0001
1000
1000
0000
0010
0100
,
0001
0000
1000
0000
0000
0000
0100
0000
0010
0000
0000
0001
0000
0000
0100
0000
,
0010
0000
1000
0000
0001
0000
1000
0000
0100
0000
0000
0010
0000
0000
0000
0000
,
0001
0000
0000
0100
0010
0000
0000
1000
,
0002
0023
0230
0302
,
0103
0000
0000
1000
0001
0000
0000
0100
,
0010
0000
1000
0000
0001
0000
0010
0000
0100
0000
0000
1000
0000
0000
0000
0000
,
0001
0000
0100
0000
0001
0000
1000
0000
0001
0000
0000
0010
0000
0000
0000
0000
,
0100
0000
1000
0000
0010
0000
1000
0000
0001
0000
0000
1000
0000
0000
0001
0000
,
0010
0000
0000
0000
0000
0000
0010
0000
0100
0000
0000
1000
0000
0000
0001
0000
,
0100
0000
0010
0000
1000
0000
0001
0000
0010
0000
0000
0001
0000
0000
0000
0000
,
1000
0000
0000
0100
0010
0000
0000
0010
,
0002
2003
3020
0032
,
0013
0000
0000
1000
0001
0000
0000
0001
,
0010
0000
0100
0000
1000
0000
0100
0000
0010
0000
0000
0001
0000
0000
0100
0000
,
0010
0000
1000
0000
0100
0000
0010
0000
0100
0000
0000
1000
0000
0000
0001
0000
,
0100
0010
1001
0000
,
0101
0000
0001
0010
0010
0000
0100
0000
,
1000
0000
0010
0100
0000
0100
0001
0000
,
1000
0000
0100
0010
0010
0000
0001
0000
,
1000
0000
0010
1000
0000
1000
0001
0000
,
0010
0000
0100
0000
1000
0000
0001
0100
,
0000
0010
0000
0000
1000
0000
1000
0000
,
0001
0000
0010
0000
0100
0000
0010
0001
,
2000
0010
0010
0010
,
3010
0000
0000
0010
0100
0000
0000
0100
0001
0000
0000
0001
1000
0000
0000
1000
,
0100
0000
0000
0100
0010
0000
0000
0010
0001
0000
0000
0001
0100
0000
0000
0100
,
1000
0000
0000
1000
0100
0000
0000
0100
0010
0000
0000
0010
1000
0000
0000
1000
,
0001
0000
0000
0001
0010
0000
0000
0010
0100
0000
0000
0100
0010
0000
0000
0010
,
1000
0000
0000
1000
0010
0000
0000
0010
0001
0000
0000
0001
1000
0000
0000
1000
,
0010
0000
0000
0010
0100
0000
0000
0100
0001
0000
0000
0001
0010
0000
0000
0010
,
0100
0000
0100
0000
1000
0000
1000
0010
,
0000
0010
0000
0100
0001
0000
0010
0000
,
0200
0000
0000
0000
0000
0000
0000
0000
0000
0000
0000
0300
0000
0000
0000
0000
;
#NOTES:
     dance-double:
     :
     Beginner:
     1:
     :
00000000
00000000
00000000
00000000
,
00000000
00000000
00000000
00000000
,
00000000
00000000
00000000
00000000
,
00000000
00000000
00000000
00000000
,
10000000
00000000
00000000
00000000
,
10000000
00000000
00000000
00000000
,
01000000
00000000
00000000
00000000
,
01000000
00000000
00000000
00000000
,
01100000
00000000
00000000
00000000
,
00100000
00000000
00000000
00000000
,
00001000
00000000
00000000
00000000
,
00100000
00000000
00000000
00000000
,
00001000
00000000
00000000
00000000
,
00010000
00000000
00000000
00000000
,
00010000
00000000
00000000
00000000
,
00000010
00000000
00000000
00000000
,
00001000
00000000
00000000
00000000
,
00000001
00000000
00000000
00000000
,
00000001
00000000
00000000
00000000
,
00000010
00000000
00000000
00000000
,
00000100
00000000
00000000
00000000
,
00010000
00000000
00000000
00000000
,
00001000
00000000
00000000
00000000
,
01000000
00000000
00000000
00000000
,
00010000
00000000
10000000
00000000
,
00010000
00000000
00000000
00000000
,
00100000
00000000
00000000
00000000
,
01000000
00000000
00000000
00000000
,
00010000
00000000
00000000
00000000
,
00001000
00000000
00000000
00000000
,
00010000
00000000
00000000
00000000
,
00000010
00000000
00000000
00000000
,
00010000
00000000
00000000
00000000
,
00000010
00000000
00000000
00000000
,
00001000
00000000
00000000
00000000
,
00000100
00000000
00000000
00000000
,
00000100
00000000
00000000
00000000
,
00000010
00000000
00000000
00000000
,
00000001
00000000
00000000
00000000
,
00001000
00000000
00000000
00000000
,
00000100
00000000
00000000
00000000
,
00010000
00000000
00000000
00000000
,
00001000
00000000
00000000
00000000
,
01000000
00000000
00000000
00000000
,
00100000
00000000
00000000
00000000
,
10000000
00000000
00000000
00000000
,
00010000
00000000
00000000
00000000
,
00100000
00000000
00000000
00000000
,
00001000
00000000
00000000
00000000
,
00010000
00000000
00000000
00000000
,
00000010
00000000
00000000
00000000
,
00001000
00000000
00000001
00000000
,
00000001
00000000
00000000
00000000
,
00000010
00000000
00000100
00000000
,
00000100
00000000
00000000
00000000
,
00010000
00000000
00010000
00000000
,
00010000
00000000
00000000
00000000
,
00001000
00000000
00001000
00000000
,
00001000
00000000
00000000
00000000
,
01000000
00000000
01000000
00000000
,
00100000
00000000
00000000
00000000
,
10000000
00000000
10000000
00000000
,
01000000
00000000
00000000
00000000
,
00010000
00000000
00010000
00000000
,
00001000
00000000
00000000
00000000
,
00001000
00000000
00001000
00000000
,
00000100
00000000
00000000
00000000
,
00001001
00000000
00000000
00000000
;
#NOTES:
     dance-double:
     :
     Easy:
     2:
     :
00000000
00000000
00000000
00000000
,
00000000
00000000
00000000
00000000
,
00000000
00000000
00000000
00000000
,
00000000
00000000
00000000
00000000
,
00000001
00000000
00000001
00000000
,
00000100
00000000
00000100
00000000
,
00000010
00000000
00000010
00000000
,
00010000
00000000
00010000
00000000
,
00011000
00000000
00000000
00000000
,
00001000
00000000
00100000
00000000
,
00010000
00000000
00000000
00000000
,
01000000
00000000
00100000
00000000
,
10000000
00000000
01000000
00000000
,
00100000
00000000
00010000
00000000
,
00100000
00000000
00000000
00000000
,
00001000
00000000
00010000
00000000
,
00000100
00000000
00000100
00000000
,
00001000
00000000
00000010
00000000
,
00000100
00000000
00000100
00000000
,
00000001
00000000
00000010
00000000
,
00000100
00000000
00000100
00000000
,
00010000
00000000
00001000
00000000
,
01000000
00000000
00100000
00000000
,
10000000
00000000
00010000
00000000
,
00100000
00000000
00001000
00000000
,
00001000
00000000
00010000
00000000
,
00000010
00000000
00001000
00000000
,
00000001
00000000
00000010
00000000
,
00000100
00000000
00010000
00000000
,
00001000
00000000
01000000
00000000
,
00100000
00000000
10000000
00000000
,
01000000
00000000
00010000
00000000
,
00001000
00000000
00010000
00000000
,
00001000
00000000
00000100
00000000
,
00000001
00000000
00000000
00000000
,
00000010
00000000
00000100
00000000
,
00010000
00000000
00000000
00000000
,
00001000
00000000
00100000
00000000
,
00010000
00000000
00000000
00000000
,
01000000
00000000
00100000
00000000
,
00010000
00000000
00000000
00000000
,
00100000
00000000
10000000
00000000
,
00010000
00000000
00100000
00000000
,
00001000
00000000
00010000
00000000
,
00000010
00000000
00001000
00000000
,
00000001
00000000
00000010
00000000
,
00000100
00000000
00010000
00000000
,
00001000
00000000
01000000
00000000
,
00100000
00000000
10000000
00000000
,
01000000
00000000
00010000
00000000
,
00001000
00000000
00010000
00000000
,
00000010
00000000
00000010
00000000
,
00001000
00000000
00001000
00000000
,
00000001
00000000
00000001
00000000
,
00000010
00000000
00000010
00000000
,
00000100
00000000
00010000
00000000
,
00001000
00000000
01000000
00000000
,
00100000
00000000
10000000
00000000
,
00010000
00000000
00100000
00000000
,
01000000
00000000
00010000
00000000
,
00001000
00000000
00000010
00000000
,
00000001
00000000
00000100
00000000
,
00000010
00000000
00010000
00000000
,
00001000
00000000
00100000
00000000
,
01000000
00000000
10000000
00000000
,
00010000
00000000
00100000
00000000
,
01000000
00000000
10000000
00000000
,
10010000
00000000
00000000
00000000
;
#NOTES:
     dance-double:
     :
     Medium:
     5:
     :
00000000
00000000
00000000
00000000
,
00000000
00000000
00000000
00000000
,
00000000
00000000
00000000
00000000
,
00000000
00000000
00000000
00000000
,
10000000
01000000
00100000
00000000
,
00001000
00010000
00001000
00000000
,
00010000
00010000
00000010
00000010
,
00000100
00000001
00000010
00000100
,
00010000
00000000
00000000
00000000
,
00001000
00000000
01000000
00000000
,
00010000
10000000
00010000
00000000
,
00100000
00000000
01000000
00000000
,
20000000
32000000
23000000
32000000
,
03100000
00000000
01000000
00000000
,
00010000
00001000
00010000
00001000
,
00010000
00000000
00000010
00000000
,
00001000
00000001
00000010
00000000
,
00000100
00000000
00010000
00000000
,
00001000
01000000
00100000
00000000
,
10000000
00000000
01000000
00000000
,
00020000
00032000
00023000
00032000
,
00013000
00000000
00000010
00000000
,
00001000
00000001
00000100
00000010
,
00001000
00000000
00000100
00000000
,
00010000
00001000
01000000
00100000
,
10000000
10000000
10000000
10000000
,
01000000
00000000
00010000
00000000
00001000
00000000
00010000
00000010
,
00000000
00001000
00000000
00000001
00000010
00000000
00000100
00000000
,
00010000
00000000
00001000
00000000
00100000
00000000
00010000
01000000
,
00000000
00010000
00000000
10000000
01000000
00000000
00010000
00000000
,
00001000
00000000
00010000
00000000
00000100
00000000
00000010
00001000
,
00000000
00000010
00000000
00000001
00001000
00000000
00000010
00000000
,
00000100
00000000
00000100
00000000
00001000
00000000
00001000
00010000
,
00000000
00010000
00000000
00100000
10000000
00000000
00010000
00000000
,
00100000
00000000
00000000
00000000
,
00001000
00000000
00010000
00000000
,
00000010
00001000
00000100
00000001
,
00000100
00000000
00010000
00000000
,
00002000
00203000
00302000
00203000
,
00310000
00000000
01000000
00000000
,
10000000
01000000
00010000
00100000
,
01000000
00000000
00010000
00000000
,
00001000
00010000
00001000
00010000
,
00000010
00000000
00001000
00000000
,
00000100
00000010
00000100
00000000
,
00001000
00000000
00000001
00000000
,
00002000
00003020
00002030
00003020
,
00010030
00000000
00001000
00000000
,
00100000
01000000
00010000
01000000
,
10000000
00000000
00100000
00000000
,
01000000
00001000
01000000
00000000
,
00001000
00010000
00001000
00000000
,
00010000
00000100
00010000
00000000
,
00000100
00000010
00000001
00000000
,
00000100
00001000
00010000
00000000
,
00100000
10000000
00010000
00100000
,
01000000
10000000
00010000
00000000
,
00100000
00001000
00010000
00000100
,
00001000
00001000
00001000
00001000
,
00000100
00000000
00000010
00000000
00001000
00000000
00000010
00000001
,
00000000
00000100
00000000
00001000
00010000
00000000
00100000
00000000
,
10000000
00000000
00010000
00000000
00100000
00000000
01000000
00010000
,
00000000
01000000
00000000
00100000
00001000
00000000
00010000
00000000
,
00000010
00000000
00001000
00000000
00000001
00000000
00000010
00000100
,
00000000
00010000
00000000
00001000
01000000
00000000
00010000
00000000
,
00100000
00000000
00100000
00000000
01000000
00000000
01000000
10000000
,
00000000
10000000
00000000
00100000
01000000
00000000
00001000
00000000
,
00010000
00000000
00000000
00000000
;
#NOTES:
     dance-double:
     :
     Hard:
     8:
     :
00000000
00000000
00000000
00000000
,
00000000
00000000
00000000
00000000
,
00000000
00000000
00000000
00000000
,
00000000
00000000
00000000
00000000
,
00001001
00000000
00000100
00000000
00000010
00000000
00010000
00001000
,
00000000
00100000
00000000
00010000
01000000
00000000
00100000
00000000
,
10000000
00000000
10000000
00000000
01000000
00000000
01000000
00010000
,
00000000
00010000
00000000
00001000
00010000
00000000
00000010
00000000
,
00001001
00000000
00000000
00000000
00000000
00000000
00000000
00000001
,
00000100
00000000
00000000
00000010
00000100
00001000
00010000
00000000
,
00100000
10000000
00010000
00100000
01000000
00010000
00001000
00000000
,
00011000
00000000
00000000
00010000
00000100
00000000
00000000
00000010
,
00000002
00000203
00002300
00023000
,
00130000
00000000
00000000
10000000
01000000
00000000
00000000
00100000
,
00001000
00010000
00000100
00001000
00000100
00000001
00000100
00000000
,
00000010
00000001
00000100
00000010
00010000
00001000
00100000
00000000
,
01000000
00000000
01000000
00000000
00010000
01000000
10000000
01000000
,
00100000
00000000
00001000
00010000
00001000
00010000
00000000
00000010
,
00000100
00001000
00000100
00000010
00001000
00000001
00000010
00000000
,
00000100
00000000
00000000
00000100
00010000
00000000
00000000
00001000
,
00200000
00000000
02300000
00000000
23000000
00000000
30200000
01000000
,
01300000
00000000
00000000
00000000
00000000
00000000
00001000
00000000
00010000
00000000
00000000
00000100
00000000
00000000
00001000
00000000
,
00000100
00000000
00000010
00000000
00001000
00000000
00000010
00000000
00000001
00000000
00000000
00001000
00000000
00000000
00000000
00000000
,
00000010
00000000
00000000
00000100
00001000
00000000
00000000
00001000
,
00010000
00100000
10000000
01000000
,
00200000
00001000
00001000
00001000
,
00301000
00000000
00000000
00001000
00010000
00000000
00000000
00010000
00000100
00000000
00000000
00000100
00000010
00000000
00000000
00000010
,
00000001
00000000
00000000
00000001
00000100
00000000
00000000
00000100
00001000
00000000
00000000
00001000
00010000
00000000
00000000
00010000
,
00100000
00000000
00000000
00100000
10000000
00000000
00000000
10000000
01000000
00000000
00000000
01000000
00100000
00000000
00000000
00100000
,
10000000
00000000
00000000
10000000
00100000
00000000
00000000
00100000
00001000
00000000
00000000
00001000
00010000
00000000
00000000
00010000
,
00000010
00000000
00000000
00000010
00000100
00000000
00000000
00000100
00001000
00000000
00000000
00001000
00000100
00000000
00000000
00000100
,
00000001
00000000
00000000
00000001
00000010
00000000
00000000
00000010
00000100
00000000
00000000
00000100
00000010
00000000
00000000
00000010
,
00001000
00000000
00000000
00001000
00010000
00000000
00000000
00010000
01000000
00000000
00000000
01000000
10000000
00000000
00000000
10000000
,
00100000
00000000
00000000
00100000
01000000
00000000
00000000
01000000
00100000
00000000
00000000
00000000
00010000
00000000
00000000
00000000
,
00001000
00000000
00010000
00000100
00000100
00000000
00000010
00000001
,
00001000
00000000
00000010
00000000
00000000
00000000
00000100
00000000
00000001
00000000
00000000
00001000
00000000
00000000
00000100
00000000
,
00010000
00000000
00001000
00000000
00100000
00000000
00010000
00000000
10000000
00000000
00000000
01000000
00000000
00000000
00000000
00000000
,
00100000
00000000
00000000
00100000
01000000
00000000
00000000
01000000
,
00020000
00032000
00003200
00000302
,
00001003
00000000
00000000
00000100
00010000
00000000
00000000
00001000
,
00100000
00000000
00010000
00000000
01000000
00000000
10000000
00000000
01000000
00000000
00000000
00100000
00000000
00000000
00000000
00000000
,
10000000
00000000
01000000
00000000
00100000
00000000
01000000
00000000
00010000
00000000
00000000
00001000
00000000
00000000
00000000
00000000
,
00010000
00000000
00001000
00000000
00000010
00000000
00001000
00000000
00010000
00000000
00000000
00000100
00000000
00000000
00001000
00000000
,
00000010
00000000
00000000
00000000
00000000
00000000
00000100
00000000
00000001
00000000
00000000
00000100
00000000
00000000
00001000
00000000
,
00010000
00000000
00100000
00000000
10000000
00000000
00010000
00000000
00100000
00000000
00000000
01000000
00000000
00000000
00000000
00000000
,
10000000
00000000
00000000
10000000
00100000
00000000
00000000
00100000
,
02000000
03200000
00320000
00032000
,
00003010
00000000
00000000
00000010
00000001
00000000
00000000
00000001
,
00000100
00000000
00001000
00000000
00010000
00000000
00001000
00000000
00000100
00000000
00000000
00000010
00000000
00000000
00010000
00000000
,
00001000
00000000
00100000
00000000
01000000
00000000
10000000
00000000
00010000
00000000
00000000
01000000
00000000
00000000
00100000
00000000
,
00010000
00001000
00011000
00000000
,
00010100
00000000
00001000
00000010
00000010
00000000
00000100
00000000
,
00000001
00000000
00000010
00000100
00000000
00000100
00010000
00000000
,
00001000
00000000
01000000
00010000
00010000
00000000
00100000
00000000
,
01000000
00000000
10000000
00100000
00000000
00100000
01000000
00000000
,
00100000
00000000
00010000
00000000
00001000
00000000
00010000
00000100
,
00000000
00000010
00000000
00000000
00000001
00000000
00000001
00000000
,
00001000
00000000
00000010
00000000
00000100
00000000
00001000
00010000
,
00002000
00100000
00100000
00100000
,
00103000
00000000
00000000
00100000
00010000
00000000
00000000
00010000
01000000
00000000
00000000
01000000
10000000
00000000
00000000
10000000
,
01000000
00000000
00000000
01000000
00100000
00000000
00000000
00100000
00010000
00000000
00000000
00010000
00001000
00000000
00000000
00001000
,
00000100
00000000
00000000
00000100
00000001
00000000
00000000
00000001
00001000
00000000
00000000
00001000
00000100
00000000
00000000
00000100
,
00010000
00000000
00000000
00010000
00001000
00000000
00000000
00001000
01000000
00000000
00000000
01000000
00100000
00000000
00000000
00100000
,
00010000
00000000
00000000
00010000
00100000
00000000
00000000
00100000
10000000
00000000
00000000
10000000
01000000
00000000
00000000
01000000
,
00010000
00000000
00000000
00010000
00001000
00000000
00000000
00001000
00000010
00000000
00000000
00000010
00000001
00000000
00000000
00000001
,
00000100
00000000
00000100
00000000
00000010
00000000
00000010
00000100
,
00000000
00000100
00000000
00001000
00010000
00000000
00100000
00000000
,
20000000
00000000
00000000
00000000
00000000
00000000
00000000
00000000
00000000
00000000
00000000
30000000
00000000
00000000
00000000
00000000
;
