
//----- song ID: bomb -----
#TITLE:The Bomb (These Sounds Fall Into My Mind);
#ARTIST:The Bucketheads;
#BANNER:The Bomb (These Sounds Fall Into My Mind).png;
#BACKGROUND:The Bomb (These Sounds Fall Into My Mind)-bg.png;
#CDTITLE:./CDTitles/DDR UNIVERSE3.png;
#MUSIC:The Bomb (These Sounds Fall Into My Mind).ogg;
#OFFSET:-0.001;
#SAMPLESTART:22.886;
#SAMPLELENGTH:15;
#BPMS:0=125.875;
#NOTES:
     dance-single:
     :
     Beginner:
     1:
     :
0000
0000
0000
0000
,
0000
0000
0000
0000
,
0001
0000
0000
0000
,
1000
0000
1000
0000
,
0001
0000
0000
0000
,
0001
0000
0000
0000
,
0100
0000
0000
0000
,
0100
0000
0000
0000
,
0020
0000
0000
0030
,
0010
0000
0000
0000
,
2000
0000
0000
3000
,
1000
0000
0000
0000
,
0100
0000
0100
0000
,
0100
0000
0000
0000
,
0100
0000
0000
0000
,
0010
0000
0000
0000
,
0001
0000
0001
0000
,
0001
0000
0000
0000
,
0001
0000
0000
0000
,
1000
0000
0000
0000
,
0010
0000
0100
0000
,
0010
0000
0000
0000
,
0010
0000
0100
0000
,
0010
0000
0000
0000
,
1000
0000
0001
0000
,
1000
0000
0000
0000
,
1000
0000
0001
0000
,
1000
0000
0000
0000
,
0001
0000
0000
0000
,
1001
0000
0000
0000
,
0100
0000
0000
0000
,
0110
0000
0000
0000
,
1000
0000
0000
0000
,
1001
0000
0000
0000
,
0100
0000
0000
0000
,
0110
0000
0000
0000
,
1000
1000
0000
0000
,
0001
0001
0000
0000
,
0100
0000
0000
0000
,
0110
0000
0000
0000
,
0100
0100
0000
0000
,
0010
0010
0000
0000
,
0001
0000
0000
0000
,
0110
0000
0000
0000
,
1000
1000
1000
0000
,
0002
0000
0000
0003
,
0001
0001
0001
0000
,
2000
0000
0000
3000
;
#NOTES:
     dance-single:
     :
     Easy:
     2:
     :
0000
0000
0000
0000
,
0000
0000
0000
0000
,
1001
0000
0100
0000
,
0010
0100
0010
0000
,
2000
3000
0000
0001
,
0002
0003
0000
0000
,
0200
0300
0000
0010
,
0020
0030
0000
0000
,
2000
3000
0002
0003
,
2000
3000
0200
0300
,
0020
0030
0002
0003
,
0200
0000
0000
0300
,
0001
0001
1000
1000
,
0010
0010
0100
0010
,
0200
0000
0000
0300
,
1000
0100
0001
0000
,
1000
1000
0001
0001
,
0100
0100
0010
0100
,
0020
0000
0000
0030
,
0001
0010
1000
0000
,
0001
0000
1000
0000
,
0010
0010
0010
0000
,
1000
0000
0001
0000
,
0100
0100
0100
0000
,
0001
0001
1000
1000
,
0010
0100
0010
0000
,
1000
1000
0001
0001
,
0100
0010
0100
0000
,
0010
1000
0000
0000
,
0100
0100
0100
0000
,
0001
0010
0000
0000
,
1000
1000
1000
0000
,
0010
0001
0100
0000
,
0210
0000
0300
0000
,
0010
1000
0100
0000
,
0120
0000
0030
0000
,
0001
1000
0001
0001
,
0100
0010
0100
0100
,
0010
1000
0000
0001
,
2000
0000
3000
0000
,
0010
0100
0010
0010
,
1000
0001
1000
1000
,
0001
0100
0000
0010
,
0200
0000
0300
0000
,
1001
0000
0110
0000
,
0010
1000
0001
0000
,
0110
0000
1001
0000
,
0010
0001
1000
0001
;
#NOTES:
     dance-single:
     :
     Medium:
     4:
     :
0000
0000
0000
0000
,
0000
0000
0000
0000
,
0001
0000
1000
0100
0100
0000
0110
0000
,
0020
0032
2003
3000
,
0010
0000
0100
0010
0010
0000
1000
0000
,
1001
0000
0010
1001
,
0110
0000
0000
1100
,
0101
0000
0000
0000
0000
0010
0010
0000
,
0020
1030
2000
3100
,
0200
0310
0020
0031
,
0002
0103
0200
0310
,
2000
0000
3001
1000
0100
0000
0100
0000
,
1000
1100
0001
0101
,
1000
1100
0010
0100
,
0020
0130
0001
1001
,
1000
0100
0010
0110
,
0001
0011
1000
1010
,
0001
0011
0100
0010
,
0200
0310
1000
1001
,
0001
0010
0100
0110
,
1100
0101
1100
0000
,
0001
0000
0001
0100
0001
0000
1000
0000
,
0011
1010
0011
0000
,
1000
0000
1000
0010
1000
0000
0001
0000
,
0010
0000
0110
0000
0010
0100
0010
0000
,
1000
0001
2000
0000
0000
0000
3001
0000
,
0010
0000
0110
0000
0100
0010
0100
0000
,
0001
1000
0002
0000
0000
0000
1003
0000
,
0020
0000
1000
0000
0000
1000
1030
0000
,
1000
0100
0010
0001
,
0020
0000
0001
0000
0000
0001
0031
0000
,
0001
0100
0010
1000
,
0010
0000
0110
0000
0000
0001
1000
0000
,
0020
1000
0130
0000
,
1000
0000
1001
0000
0000
0010
0100
0000
,
2000
0001
3100
0000
,
0001
0011
1000
1010
,
0001
0011
0100
0010
,
0200
0310
1000
1001
,
0001
0100
0001
0100
0001
0000
0000
0000
,
1000
1100
0001
0101
,
1000
1100
0010
0100
,
0020
0130
0001
1001
,
1000
0100
1000
0100
1000
0000
0000
0000
,
0010
0000
1001
0000
0010
0100
0010
0000
,
0001
1000
0001
1000
0001
0000
0000
0000
,
0100
0000
1001
0001
0100
0000
0010
0000
,
1000
0001
1000
0001
0100
0000
0010
0000
;
#NOTES:
     dance-single:
     :
     Hard:
     7:
     :
0000
0000
0000
0000
,
0000
0000
0000
0000
,
1001
0000
0010
1000
1000
0000
0001
0010
,
0100
0000
1000
0000
0001
0000
1000
0000
0001
0010
0000
0000
0001
0010
0000
0000
,
1001
0000
0000
0000
0100
0000
0010
0000
0010
0000
0000
0100
1000
0000
0000
0000
,
0010
0000
0000
0000
0100
0000
0000
0000
0101
0000
0000
0001
0010
0000
0000
0000
,
0021
0000
0000
0000
0130
0000
1000
0000
0100
0000
0000
1000
0010
0000
0100
0000
,
0010
0000
1000
0000
1001
0010
0010
0000
,
1001
0000
0000
0100
1000
0000
0000
0000
1001
0000
0000
0100
0001
0000
0000
0000
,
1100
0000
0000
1000
0010
0000
0000
0000
0101
0000
0000
0001
0010
0000
0000
0000
,
0110
0000
0000
1000
0001
0000
0000
0000
1001
0000
0000
0010
0100
0000
0000
0000
,
0110
0000
0000
0010
1000
0000
0010
0000
0100
0000
0000
0000
1001
0000
0000
0000
,
0010
0000
0000
1000
0100
0000
1000
0000
0100
0000
0000
0000
1100
0000
0000
0000
,
0001
0000
0000
0010
0001
0000
0010
0000
0001
0000
0100
0000
0010
0000
1000
0001
,
0000
0100
0101
0000
0100
0010
1010
0000
,
0001
0100
0010
1000
0100
0000
0011
0000
,
1100
0000
0000
0000
0101
0000
0000
0100
0010
0000
1000
0000
1010
0000
0000
0000
,
0110
0000
0000
0000
1001
0000
0000
0000
1000
0000
0010
0000
0100
0000
0001
0020
,
0000
0000
0000
0000
0001
0000
0000
0000
0130
0000
1000
0100
1000
0000
0000
0000
,
0010
0100
0001
1000
0001
0010
0100
0000
,
1100
0000
0101
0000
0010
0100
0010
0001
,
0100
0010
1000
0001
0200
0000
0301
0000
,
1010
0000
0011
0000
0100
0010
0100
1000
,
0010
0100
0001
1000
0200
0000
1300
0000
,
0001
0010
0100
0000
1000
0100
0010
0000
,
0001
0100
0001
0100
0010
1000
0010
0000
,
1000
0010
0100
0000
0001
0100
0010
0000
,
1000
0100
1000
0100
0010
0001
0010
0000
,
0002
0000
0100
0000
0000
0100
1003
0000
,
0010
1000
0100
1000
0020
0000
0130
0000
,
2000
0000
0010
0000
0000
0010
3001
0000
,
0100
0001
0010
0001
0200
0000
0310
0000
,
0020
0000
1000
0000
0000
1000
0130
0000
,
0001
0100
1000
0100
0002
0000
1003
0000
,
0200
0000
0001
0000
0000
0001
0310
0000
,
1000
0010
0001
0010
2000
0000
3001
0000
,
0001
0100
0010
0100
0002
1000
1003
0000
,
0110
0000
0000
0000
1001
0000
0000
0000
0001
0000
0100
0000
0010
0000
1000
0200
,
0000
0000
0000
0000
1000
0000
0000
0000
0310
0000
0001
0010
0002
0000
0000
0000
,
1003
0010
0100
0010
2000
0000
3001
0000
,
1100
0000
0101
0000
1010
0100
0100
0000
,
0001
0000
0100
0000
1000
0000
0100
0000
0001
0000
0010
0000
0100
0000
1000
0100
,
0000
0000
0010
0000
0120
0000
0000
0000
0031
0000
0100
0001
0200
0000
0000
0000
,
0310
1000
0001
0100
0010
0000
1001
0000
,
2000
0000
3002
0000
0103
0010
0100
0001
,
1000
0100
1000
0010
2000
0000
3001
0000
,
0020
0000
0230
0010
0310
0100
0001
1000
,
0100
0000
0010
0000
0100
0000
1000
0000
0001
0100
0000
0000
1000
0100
0000
0000
;
#NOTES:
     dance-double:
     :
     Beginner:
     1:
     :
00000000
00000000
00000000
00000000
,
00000000
00000000
00000000
00000000
,
00010000
00000000
00000000
00000000
,
10000000
00000000
10000000
00000000
,
00010000
00000000
00000000
00000000
,
10000000
00000000
00000000
00000000
,
01000000
00000000
00000000
00000000
,
00010000
00000000
00000000
00000000
,
00002000
00000000
00000000
00003000
,
00001000
00000000
00000000
00000000
,
00020000
00000000
00000000
00030000
,
00010000
00000000
00000000
00000000
,
00001000
00000000
00001000
00000000
,
00001000
00000000
00000000
00000000
,
00001000
00000000
00000000
00000000
,
00000100
00000000
00000000
00000000
,
00000010
00000000
00000010
00000000
,
00000010
00000000
00000000
00000000
,
00001000
00000000
00000000
00000000
,
00000001
00000000
00000000
00000000
,
00000100
00000000
00000010
00000000
,
00000100
00000000
00000000
00000000
,
00000100
00000000
00000010
00000000
,
00000100
00000000
00000000
00000000
,
00001000
00000000
00010000
00000000
,
00001000
00000000
00000000
00000000
,
00001000
00000000
00010000
00000000
,
00001000
00000000
00000000
00000000
,
00010000
00000000
00000000
00000000
,
00011000
00000000
00000000
00000000
,
00100000
00000000
00000000
00000000
,
01100000
00000000
00000000
00000000
,
00100000
00000000
00000000
00000000
,
10010000
00000000
00000000
00000000
,
01000000
00000000
00000000
00000000
,
01100000
00000000
00000000
00000000
,
10000000
10000000
00000000
00000000
,
01000000
01000000
00000000
00000000
,
00010000
00000000
00000000
00000000
,
00011000
00000000
00000000
00000000
,
00001000
00001000
00000000
00000000
,
00000010
00000010
00000000
00000000
,
00000001
00000000
00000000
00000000
,
00001001
00000000
00000000
00000000
,
00000100
00000100
00000100
00000000
,
00000020
00000000
00000000
00000030
,
00000010
00000100
00000100
00000000
,
00000002
00000000
00000000
00000003
;
#NOTES:
     dance-double:
     :
     Easy:
     2:
     :
00000000
00000000
00000000
00000000
,
00000000
00000000
00000000
00000000
,
10000000
00000000
01000000
00000000
,
00020000
00000000
00030000
00000000
,
00001000
00001000
00001000
00001000
,
00000100
00000000
00000000
00000000
,
00000010
00000010
00000010
00000010
,
00000001
00000000
00000000
00000000
,
00000100
00000000
00000100
00000000
,
00001000
00000000
00001000
00000000
,
00010000
00000000
00010000
00000000
,
00100000
00000000
00100000
00000000
,
00100000
10000000
01000000
00010000
,
00001000
00001000
00000100
00000001
,
00000020
00000000
00000030
00000000
,
00001001
00000000
00000000
00000000
,
00000100
00000001
00000010
00001000
,
00010000
00010000
00100000
10000000
,
02000000
00000000
03000000
00000000
,
10010000
00000000
00000000
00000000
,
00100000
00000000
01000000
00000000
,
00010000
00010000
00010000
00000000
,
00001000
00001000
00000100
00000100
,
00000020
00000000
00000030
00000000
,
00001000
00000001
00001000
00000000
,
00000110
00000000
00000000
00000000
,
00011000
00000000
00001000
00000000
,
00100000
00100000
00100000
00000000
,
01000000
10010000
00000000
00000000
,
10000000
01000000
00010000
00000000
,
00001000
00011000
00000000
00000000
,
00001000
00000100
00000001
00000000
,
00000010
00000100
00000110
00000000
,
00002000
00000000
00003000
00000000
,
00010000
00001000
00011000
00000000
,
00020000
00000000
00030000
00000000
,
00100000
00100000
01000000
01000000
,
00010000
00010000
10000000
00000000
,
10010000
00000000
00000000
00000000
,
10000000
01000000
00010000
00000000
,
00001000
00001000
00010000
00010000
,
00000100
00000100
00000010
00000000
,
00000110
00000000
00000000
00000000
,
00000001
00000010
00001000
00000000
,
00020000
00030000
00002000
00003000
,
00010000
00001000
00011000
00000000
,
00100000
00100000
01000000
01000000
,
10000000
00010000
00200000
00300000
;
#NOTES:
     dance-double:
     :
     Medium:
     5:
     :
00000000
00000000
00000000
00000000
,
00000000
00000000
00000000
00000000
,
00000010
00000000
00000001
00000100
00000100
00000000
00001001
00000000
,
00000200
00002300
00023000
00030000
,
00001000
00000000
00010000
00001000
00001000
00000000
00010000
00000000
,
00011000
00000000
00100000
01100000
,
10010000
00000000
00000000
00100000
,
01000000
00000000
00000000
00000000
00000000
00100000
00100000
00000000
,
00200000
10300000
20000000
31000000
,
02000000
03010000
00020000
00031000
,
00002000
00003100
00000200
00000310
,
00000020
00000000
00001030
00000010
00000100
00000000
00000101
00000000
,
00000010
00000000
00000001
00000100
00001000
00000000
00010000
00000000
,
00001000
00000000
00010000
01000000
10000000
00000000
00010000
00000000
,
01000000
00100000
10010000
00000000
,
00100000
00010000
01000000
10010000
,
01000000
00000000
10000000
00100000
00010000
00000000
00001000
00000000
,
00010000
00000000
00001000
00000010
00000001
00000000
00000100
00000000
,
00000010
00001000
00001001
00000000
,
00000100
00001000
00000010
00000000
,
00002000
00000100
00000100
00003100
,
00010000
00000000
00001000
00010000
00001000
00000000
00000000
00000000
,
02000000
00010000
00010000
03010000
,
00100000
00000000
01000000
00100000
01000000
00000000
00000000
00000000
,
10000000
00000000
10010000
00000000
00100000
01000000
00100000
00000000
,
10000000
01000000
20000000
00000000
00000000
00000000
31000000
00000000
,
00010000
00000000
00011000
00000000
00001000
00010000
00001000
00000000
,
00000100
00001000
00000200
00000000
00000000
00000000
00000310
00000000
,
00000001
00000000
00000011
00000000
00000000
00001000
00001000
00000000
,
00000001
00000100
00001000
00010000
,
00001000
00000000
00011000
00000000
00000000
00100000
00100000
00000000
,
00010000
01000000
00100000
10000000
,
01000000
00000000
01100000
00000000
00000000
00010000
00010000
00000000
,
00002000
00010000
00013000
00000000
,
00000100
00000000
00000110
00000000
00000000
00001000
00001000
00000000
,
00000002
00000100
00000103
00000000
,
00000100
00000000
00000001
00000010
00001000
00000000
00010000
00000000
,
00001000
00000000
00010000
00100000
10000000
00000000
00010000
00000000
,
01000000
00100000
10010000
00000000
,
00010000
01000000
10000000
01000000
00010000
00000000
00000000
00000000
,
00100000
00000000
10000000
01000000
00010000
00000000
00001000
00000000
,
00010000
00000000
00001000
00000100
00000001
00000000
00001000
00000000
,
00000100
00000010
00001001
00000000
,
00000001
00000100
00001000
00000100
00000001
00000000
00000000
00000000
,
00001000
00000000
00001001
00000000
00000010
00000100
00000010
00000000
,
00010000
00001000
00010000
00001000
00100000
00000000
00000000
00000000
,
00010000
00000000
01010000
00010000
01000000
00000000
00100000
00000000
,
10000000
01000000
10000000
01000000
00100000
00000000
00001000
00000000
;
#NOTES:
     dance-double:
     :
     Hard:
     7:
     :
00000000
00000000
00000000
00000000
,
00000000
00000000
00000000
00000000
,
00100000
00000000
00010000
10000000
10000000
00000000
01000000
00010000
,
00001000
00010000
00001000
00000100
00000010
00000000
00001001
00000000
,
00000110
00000000
00001000
00000001
00000100
00000000
00001000
00000000
,
00011000
00000000
00000000
00000000
00010000
00000000
01000000
00000000
00100000
00000000
00000000
01000000
00100000
00000000
00000000
00000000
,
00110000
00000000
00000000
00000000
10000000
00000000
01000000
00000000
00010000
00000000
00000000
00001000
00010000
00000000
00000000
00000000
,
00001000
00000000
00000100
00000000
00000010
00001000
00000001
00001000
,
00000200
00000000
00000300
00000010
00000001
00000000
00000000
00000000
00000200
00000000
00000300
00001000
00010000
00000000
00000000
00000000
,
00200000
00000000
00300000
10000000
01000000
00000000
00000000
00000000
00020000
00000000
00030000
00001000
00010000
00000000
00000000
00000000
,
00200000
00000000
00300000
00010000
00001000
00000000
00000000
00000000
00000020
00000000
00000030
00001000
00010000
00000000
00000000
00000000
,
00002000
00000000
00003000
00010000
00001000
00000000
00000100
00000000
00000010
00000000
00000100
00000000
00001001
00000000
00000000
00000000
,
00001000
00000100
00000001
00000100
00001000
00000010
00000100
00000000
,
00000001
00000010
00000100
00001000
00000100
00010000
00001000
00000000
,
00001000
00100000
00010000
00000000
00010000
00100000
01000000
00000000
,
01000000
10000000
00100000
01000000
00010000
00000000
10010000
00000000
,
10000000
00100000
00010000
00100000
10000000
01000000
00100000
00000000
,
10000000
00100000
00010000
01000000
00001000
00010000
00000100
00000010
,
00000100
00000100
00001000
00000000
00000010
00000010
00000100
00000000
,
00000001
00000100
00001000
00010000
00001000
00000000
00011000
00000000
,
00100000
00010000
01000000
00000000
00100000
00010000
01000000
00000000
,
00001000
00010000
00000010
00001000
00000001
00000000
00000101
00000000
,
00000010
00001000
00000100
00000000
00000010
00001000
00000100
00000000
,
00001000
00000100
00010000
00001000
00100000
00010000
00001000
00000000
,
01000000
00010000
00100000
00000000
01000000
10000000
00100000
00000000
,
00010000
10000000
00100000
01000000
10000000
00000000
00010000
00000000
,
01000000
00010000
00001000
00000000
00010000
00001000
00000100
00000000
,
00000100
00000010
00000001
00001000
00000100
00000000
00000010
00000000
,
00000001
00000000
00001000
00000000
00000000
00001000
00010000
00000000
,
00100000
10000000
01000000
00010000
00100000
00000000
00010000
00000000
,
10000000
00000000
00010000
00000000
00000000
00010000
00001000
00000000
,
00000010
00000001
00000100
00001000
00000010
00000000
00001000
00000000
,
00010000
00000000
00011000
00000000
00000000
00001000
00100000
00000000
,
00010000
00100000
10000000
00100000
00001000
00010000
00001000
00000000
,
00010000
00000000
00011000
00000000
00000000
00010000
00000010
00000000
,
00001000
00000010
00000001
00000010
00010000
00001000
00010000
00000000
,
00001000
00010000
00001000
00000100
00000010
00000100
00000001
00001000
,
00000100
00010000
00001000
00100000
00010000
10000000
01000000
00010000
,
00001000
00010000
00002000
00003000
00010000
00001000
00020000
00030000
,
00000010
00001000
00000100
00010000
00001000
00010000
00100000
00000000
,
00010000
00001000
00000010
00000001
00000010
00001000
00010000
00001000
,
00000100
00001000
00010000
01000000
10000000
00100000
00010000
00001000
,
00010000
00001000
00020000
00030000
00001000
00010000
00002000
00003000
,
00100000
00010000
01000000
00001000
00010000
00001000
00000010
00000000
,
00000001
00000010
00001000
00000000
00010000
00100000
10000000
00000000
,
10000000
01000000
00010000
00001000
00000100
00000001
00000010
00000000
,
00000001
00000100
00001000
00010000
00010000
00001000
00010000
00100000
,
10000000
01000000
00100000
00010000
01010000
00000000
01001000
00000000
;
