
//----- song ID: stre -----
#TITLE:Streamline;
#ARTIST:Kazuto;
#BANNER:Streamline.png;
#BACKGROUND:Streamline-bg.png;
#CDTITLE:./CDTitles/DDR UNIVERSE3.png;
#MUSIC:Streamline.ogg;
#OFFSET:-0.001;
#SAMPLESTART:82.286;
#SAMPLELENGTH:15;
#BPMS:0=175;
#NOTES:
     dance-single:
     :
     Beginner:
     1:
     :
0000
0000
0000
0000
,
0000
0000
0000
0000
,
0000
0000
0000
0000
,
0000
0000
0000
0000
,
1000
0000
0000
0000
,
0001
0000
0000
0000
,
1000
0000
0000
0000
,
0001
0000
0000
0000
,
1000
0000
0000
0000
,
0100
0000
0000
0000
,
0010
0000
0000
0000
,
0001
0000
0000
0000
,
1000
0000
0000
0000
,
0001
0000
0000
0000
,
0100
0000
0000
0000
,
0010
0000
0000
0000
,
1000
0000
0000
0000
,
0001
0000
0000
0000
,
0100
0000
0100
0000
,
0110
0000
0000
0000
,
0010
0000
0000
0000
,
1000
1000
0000
0000
,
0001
0000
0000
0000
,
0010
0010
0000
0000
,
0100
0000
0000
0000
,
1000
1000
0000
0000
,
0100
0000
0000
0000
,
0010
0010
0000
0000
,
0001
0000
0000
0000
,
1000
0001
1000
0000
,
1000
0000
0000
0000
,
0100
1000
0100
0000
,
0100
0000
0000
0000
,
0010
0100
0010
0000
,
0010
0000
0000
0000
,
0001
0010
0001
0000
,
0001
0000
0000
0000
,
1000
0001
1000
0000
,
0100
0000
0000
0000
,
0010
0100
0010
0000
,
0010
0000
0000
0000
,
0001
1000
0001
0000
,
1000
0000
0000
0000
,
0001
0100
0001
0000
,
2000
0000
0000
3000
,
1000
0000
0000
0000
,
0002
0000
0000
0003
,
0001
0000
0000
0000
,
0200
0000
0000
0300
,
0100
0000
0000
0000
,
0020
0000
0000
0030
,
0010
0000
0000
0000
,
2000
0000
0000
3000
,
1000
0000
0000
0000
,
0200
0000
0000
0300
,
0100
0000
0000
0000
,
0010
0000
0000
0000
,
0001
0000
0000
0000
,
1000
0000
0001
0000
,
1001
0000
0000
0000
,
1000
0000
0100
0000
,
0010
0000
0000
0000
,
0001
0000
0100
0000
,
0010
0000
0000
0000
,
1000
0000
0100
0000
,
0001
0000
0000
0000
,
0001
0000
0100
0000
,
1000
0000
0000
0000
,
0001
0000
0100
0000
,
0010
0000
0100
0000
,
0001
0000
0001
0000
,
1000
0000
0000
0000
,
1000
0000
0100
0000
,
0010
0000
0100
0000
,
1000
0000
1000
0000
,
0001
0000
0001
0000
,
1001
0000
0000
0000
;
#NOTES:
     dance-single:
     :
     Easy:
     4:
     :
0000
0000
0000
0000
,
0000
0000
0000
0000
,
0000
0000
0000
0000
,
0000
0000
0000
0000
,
1000
0000
0001
0000
,
0100
0000
0010
0000
,
1000
0000
0100
0000
,
0001
0000
0100
0000
,
1000
0000
0001
0000
,
0100
0000
0010
0000
,
1000
0000
0010
0000
,
0001
0000
0010
0000
,
1000
1000
1000
0000
,
0001
0100
0001
0000
,
0001
0001
0001
0000
,
0010
0100
0010
0000
,
0010
0000
0010
0000
,
0001
0000
0001
0000
,
1000
0100
1000
0100
,
0010
0010
0110
0000
,
0001
0000
0001
0100
,
0000
0100
0010
0000
,
1000
0000
1000
0001
,
0000
0001
0010
0000
,
0010
0000
0010
0100
,
0000
0100
1000
0000
,
1000
0000
1000
0001
,
0000
0001
1000
0000
,
1001
0000
0001
0100
,
0000
0100
0010
0000
,
0110
0000
0010
1000
,
0000
1000
0001
0000
,
1001
0000
0001
1000
,
0000
1000
0100
0000
,
0110
0000
0010
0001
,
0000
0001
1000
0000
,
0001
0000
1000
1000
,
0000
0100
0100
0000
,
0010
0000
0001
0001
,
0000
0100
0100
0000
,
0010
0000
1000
1000
,
0000
0001
0001
0000
,
0100
0000
0001
0001
,
0000
1000
1000
0000
,
0200
0000
0000
0300
,
0100
0000
0010
0000
,
0002
0000
0000
0003
,
0001
0000
0100
0000
,
0020
0000
0000
0030
,
0010
0000
1000
0000
,
2000
0000
0000
3000
,
1000
0000
0001
0000
,
0200
0000
0000
0300
,
0100
0010
1000
0000
,
2000
0000
0000
3000
,
1000
0100
0010
0000
,
0010
0000
0001
0000
,
0100
0000
0010
0000
,
1000
1000
0001
0001
,
0100
0100
0110
0000
,
0010
0001
1000
0000
,
0001
0100
0010
1000
,
0001
0100
0010
0000
,
1000
0001
1001
0000
,
0001
1000
0100
0000
,
1000
0100
0010
0001
,
1000
0100
0010
0000
,
0001
1000
1001
0000
,
0002
0000
0000
0003
,
0001
1000
0001
1000
,
2000
0000
0000
3000
,
1000
0100
0010
0000
,
0010
0000
0001
0000
,
0100
0000
0010
0000
,
1000
0001
1000
0001
,
0100
0010
0100
0010
,
0110
0000
0000
0000
;
#NOTES:
     dance-single:
     :
     Medium:
     6:
     :
0000
0000
0000
0000
,
0000
0000
0000
0000
,
0000
0000
0000
0000
,
0000
0000
0000
0000
,
0010
0100
0010
0000
1000
0000
0000
0001
,
0000
0010
0100
0000
1100
0000
0000
0001
,
0100
0010
0100
0000
0001
0000
0000
0010
,
0000
0100
1000
0000
0101
0000
0000
0100
,
0001
1000
0001
0000
0010
0000
0000
0001
,
0000
0100
0010
0000
1010
0000
0000
1000
,
0010
1000
0001
0000
0010
0000
0000
0001
,
0000
0100
0010
0000
0101
0000
0000
0000
,
1000
0000
0000
0000
0001
0000
0000
0000
1000
0000
0000
0100
0000
0000
0010
0000
,
0001
1000
0110
0000
,
0100
0000
0000
0000
0010
0000
0000
0000
1000
0000
0000
0001
0000
0000
0100
0000
,
0010
1000
0110
0000
,
1000
0001
1000
0001
,
0010
0100
0010
0100
,
1000
0100
1000
0000
0001
0100
0001
0000
,
1000
0100
0010
0001
1000
0000
0000
0000
,
0001
0100
0000
0001
0100
0000
0010
1000
,
0000
0010
1000
0000
0101
0000
0000
0000
,
1000
0100
0000
1000
0100
0000
0010
0001
,
0000
0010
0001
0000
1100
0000
0000
0000
,
0001
0100
0000
0010
0100
0000
0010
1000
,
0000
0001
1000
0000
1001
0000
0000
0000
,
1000
0100
0000
1000
0001
0000
0010
0001
,
0000
0010
0100
0000
0110
0000
0000
0000
,
0010
0001
0100
0001
0010
0000
0000
0011
,
0000
1001
0000
1100
0000
0000
0000
0000
,
0010
1000
0100
1000
0010
0000
0000
1010
,
0000
1001
0000
0101
0000
0110
0000
0000
,
0001
0100
1000
0100
0001
0000
0000
1001
,
0000
0101
0000
0110
0000
0000
0000
0000
,
1000
0010
0001
0010
1000
0000
0000
1010
,
0000
0110
0000
0101
0000
1001
0000
0000
,
1000
0001
0000
0001
1000
0000
1000
0001
,
0000
0001
1000
0000
1001
0000
0000
0000
,
0001
0100
0000
0100
0010
0000
0010
0100
,
0000
0100
0001
0000
0001
0100
0001
0100
,
0010
1000
0000
1000
0100
0000
0100
0010
,
0000
0010
0001
0000
1001
0000
0000
0000
,
1000
0100
0000
0100
0001
0000
0001
0010
,
0000
0010
1000
0000
1000
0100
1000
0100
,
2000
0000
0000
3000
,
0001
0100
0010
1000
,
2002
0000
0000
3003
,
1000
0100
0110
0001
,
0202
0000
0000
0303
,
0001
1000
0101
0110
,
2020
0000
0000
3030
,
1000
1010
0011
0101
,
2200
0000
0000
3300
,
0001
0000
1000
0010
0000
1000
0010
0000
,
0202
0000
0000
0303
,
1000
0000
0100
0010
0000
0001
0010
0000
,
0001
0001
1000
1000
,
0100
0100
0010
0010
,
0001
0010
0001
0000
0100
0010
0100
0000
,
0010
1000
0001
0010
0100
0000
0000
0000
,
0002
0010
0013
0000
,
0001
0000
0100
0010
0000
0100
0001
0000
,
2000
0100
3100
0000
,
1000
0000
0010
0100
0000
0000
0000
0000
,
0201
0010
0310
0000
,
1000
0000
0001
0010
0000
0001
0100
0000
,
1020
0100
0130
0000
,
1000
0000
0001
0010
0000
0000
0000
0000
,
2001
3020
0130
0000
,
1000
0000
0001
0100
0000
0010
1000
0000
,
0001
0100
1000
0100
,
0001
0000
1000
0100
0000
0110
0000
0000
,
0012
2003
3100
0000
,
0010
0000
0100
0001
0000
1000
0100
0000
,
0010
0001
1000
0000
0010
1000
0001
0000
,
1000
0100
0010
0001
1000
0010
0100
0001
,
1000
0000
0000
0000
;
#NOTES:
     dance-single:
     :
     Hard:
     8:
     :
0000
0000
0000
0000
,
0000
0000
0000
0000
,
0000
0000
0000
0000
,
0000
0000
0000
0000
,
0001
0000
1000
0000
0001
0000
0000
0000
1000
0000
0000
0100
0000
0000
0010
0000
,
0000
0000
0001
0000
0001
0000
0000
0000
0100
0000
0000
0010
0000
0000
1000
0000
,
0001
0000
0100
0000
0001
0000
0000
0000
0100
0000
0000
0010
0000
0000
1000
0000
,
0000
0000
0100
0000
0100
0000
0000
0000
0010
0000
0000
0001
0000
0000
1000
0000
,
1001
0000
0100
0000
1000
0000
0000
0000
0001
0000
0000
0100
0000
0000
0010
0000
,
0000
0000
0100
0000
0100
0000
0000
0000
0010
0000
0000
1000
0000
0000
0001
0000
,
0110
0000
1000
0000
0001
0000
0000
0000
0100
0000
0000
0001
0000
0000
1000
0000
,
0000
0000
0100
0000
0100
0000
0000
0000
0010
0000
0000
0001
0000
0000
1000
0000
,
0001
0000
0100
0000
0001
0000
0100
0000
0010
0000
0000
1000
0000
0000
0001
0000
,
1000
0100
0001
0100
1000
0000
0000
0000
,
1000
0000
0001
0000
1000
0000
0001
0000
0100
0000
0000
0010
0000
0000
1000
0000
,
0001
0100
0010
0100
0001
0000
0000
0000
,
1000
1000
1100
1100
,
0001
0001
0101
0101
,
0001
0100
0010
1000
0001
0100
0010
1000
,
0001
1000
0001
1000
0001
1000
0001
1000
0001
0000
0000
0000
0000
0000
0000
0000
,
1000
0100
0000
1000
0001
0000
1000
0010
,
0000
1000
0100
0000
0010
0001
0000
0000
,
0001
0010
0000
0001
0100
0000
0001
1000
,
0000
0001
0100
0000
0010
1000
0100
0001
,
0100
0010
0000
0100
1000
0000
0100
0010
,
0000
0100
0001
0000
0100
1000
0000
0000
,
0010
1000
0000
0010
0100
0000
0010
0001
,
0000
0010
0100
0000
0001
1000
0100
0010
,
0001
0001
0000
0000
1010
0000
0000
0001
,
0000
0100
0000
0010
0000
1000
0000
0001
,
0000
0010
0000
0000
1100
0000
0000
0100
,
0000
0010
0000
0001
0000
0000
0000
0000
,
1000
1000
0000
0000
0110
0000
0000
0001
,
0000
0100
0000
1000
0000
0100
0000
0001
,
0000
0010
0000
0000
0101
0000
0000
1000
,
0000
0100
0000
0010
0000
0000
0000
0000
,
1000
0001
0000
0001
0100
0000
0100
0010
,
0000
0010
1000
0000
1000
0100
0010
0001
,
1000
0100
0000
0100
1000
0000
1000
0001
,
0000
0000
0001
0000
0100
0000
0000
0000
0100
0000
0010
1000
0010
1000
0001
0000
,
1000
0100
0000
0010
0001
0000
1000
0001
,
0000
0100
0010
0000
1000
0001
0100
0010
,
1000
0100
0000
0010
0001
0000
0001
0100
,
0000
0010
1000
0000
0001
1000
0010
0100
,
1002
0000
0000
0003
,
1000
0000
0000
0101
0000
0100
0010
1000
,
1200
0000
1000
0300
,
0010
0000
0000
0101
0000
0001
0010
0100
,
2001
0001
0001
3000
,
0010
0000
0000
0110
0000
0010
1000
0001
,
0021
0001
0100
0030
,
1000
0000
0000
0011
0000
0010
0001
0100
,
0010
0000
0010
0000
1010
0000
1000
0001
,
0000
0000
0001
0000
1000
0000
0000
0000
0100
0000
0000
0000
0010
0001
0010
0001
,
1000
0000
1000
0000
0101
0000
0100
0010
,
0000
0000
0010
0000
1000
0000
0000
0000
0001
0000
0000
0000
0100
0010
0100
0010
,
1000
1000
0101
0101
,
0010
0010
1001
1001
,
1000
0100
0001
0100
1000
0100
0001
0100
,
1000
0100
1000
0100
0010
0001
0010
0001
1000
0000
0000
0000
0001
0000
0000
0000
,
1001
0100
0000
1000
0000
0010
0000
0101
,
0000
0001
0000
1000
0000
0100
0000
0011
,
0001
1000
0000
0100
0000
0010
0000
1100
,
0000
0001
0000
0100
0000
0010
0000
0000
,
0110
1000
0000
0100
0000
1000
0000
0110
,
0000
0001
0000
0100
0000
0001
0000
1001
,
0010
0001
0000
0100
0000
0010
0000
0101
,
0000
0010
0000
1000
0000
0001
0000
1000
,
1000
0100
1000
0100
0010
0001
0010
0001
,
1000
0001
1010
0101
,
0001
0010
1000
0010
0001
0100
1000
0100
,
0001
0010
1100
0011
,
1000
0100
0010
0001
1000
0100
0010
0001
,
1000
0001
1000
0001
0100
0010
0100
0010
,
1000
0001
0100
0010
0100
0001
0010
0100
,
1000
0100
0001
0100
0010
0001
0100
0010
,
1000
0000
0000
0000
;
#NOTES:
     dance-double:
     :
     Beginner:
     2:
     :
00000000
00000000
00000000
00000000
,
00000000
00000000
00000000
00000000
,
00000000
00000000
00000000
00000000
,
00000000
00000000
00000000
00000000
,
10000000
00000000
00000000
00000000
,
00010000
00000000
00000000
00000000
,
01000000
00000000
00000000
00000000
,
00001000
00000000
00000000
00000000
,
00010000
00000000
00000000
00000000
,
00001000
00000000
00000000
00000000
,
00000100
00000000
00000000
00000000
,
00000001
00000000
00000000
00000000
,
00000100
00000000
00000000
00000000
,
00000010
00000000
00000000
00000000
,
00000100
00000000
00000000
00000000
,
00000001
00000000
00000000
00000000
,
00001000
00000000
00000000
00000000
,
00000100
00000000
00000000
00000000
,
00010000
00000000
00010000
00000000
,
00011000
00000000
00000000
00000000
,
00001000
00000000
00000000
00000000
,
01000000
01000000
00000000
00000000
,
00010000
00000000
00000000
00000000
,
10000000
10000000
00000000
00000000
,
01000000
00000000
00000000
00000000
,
00100000
00100000
00000000
00000000
,
00001000
00000000
00000000
00000000
,
00010000
00010000
00000000
00000000
,
00000010
00000000
00000000
00000000
,
00001000
00000010
00001000
00000000
,
00000001
00000000
00000000
00000000
,
00000100
00000010
00000010
00000000
,
00010000
00000000
00000000
00000000
,
00001000
00010000
00001000
00000000
,
01000000
00000000
00000000
00000000
,
00010000
10000000
10000000
00000000
,
01000000
00000000
00000000
00000000
,
00100000
00010000
00100000
00000000
,
00001000
00000000
00000000
00000000
,
00010000
00000010
00000010
00000000
,
00001000
00000000
00000000
00000000
,
00000001
00001000
00000001
00000000
,
00000100
00000000
00000000
00000000
,
00000010
00001000
00001000
00000000
,
00000002
00000000
00000000
00000003
,
00000001
00000000
00000000
00000000
,
00002000
00000000
00000000
00003000
,
00001000
00000000
00000000
00000000
,
00000200
00000000
00000000
00000300
,
00000100
00000000
00000000
00000000
,
00020000
00000000
00000000
00030000
,
00010000
00000000
00000000
00000000
,
00002000
00000000
00000000
00003000
,
00001000
00000000
00000000
00000000
,
02000000
00000000
00000000
03000000
,
01000000
00000000
00000000
00000000
,
00100000
00000000
00000000
00000000
,
00100000
00000000
00000000
00000000
,
10000000
00000000
00010000
00000000
,
10010000
00000000
00000000
00000000
,
10000000
00000000
01000000
00000000
,
00100000
00000000
00000000
00000000
,
00001000
00000000
00010000
00000000
,
00000010
00000000
00000000
00000000
,
00001000
00000000
00000001
00000000
,
00000100
00000000
00000000
00000000
,
00000001
00000000
00000100
00000000
,
00000010
00000000
00000000
00000000
,
00010000
00000000
00001000
00000000
,
00100000
00000000
00010000
00000000
,
01000000
00000000
00010000
00000000
,
10000000
00000000
00000000
00000000
,
10000000
00000000
01000000
00000000
,
00010000
00000000
00001000
00000000
,
00000010
00000000
00000001
00000000
,
00001000
00000000
00000001
00000000
,
00001001
00000000
00000000
00000000
;
#NOTES:
     dance-double:
     :
     Easy:
     4:
     :
00000000
00000000
00000000
00000000
,
00000000
00000000
00000000
00000000
,
00000000
00000000
00000000
00000000
,
00000000
00000000
00000000
00000000
,
10000000
00000000
01000000
00000000
,
00100000
00000000
00001000
00000000
,
00010000
00000000
00000010
00000000
,
00001000
00000000
00000001
00000000
,
00001000
00000000
00000001
00000000
,
00000100
00000000
00001000
00000000
,
00010000
00000000
00100000
00000000
,
10000000
00000000
00010000
00000000
,
10000000
10000000
10000000
00000000
,
00010000
00010000
00010000
00000000
,
01000000
01000000
01000000
00000000
,
00001000
00001000
00001000
00000000
,
00010000
00000000
00010000
00000000
,
00000100
00000000
00000100
00000000
,
00001000
00000001
00001000
00000001
,
00000010
00000010
00000110
00000000
,
00000001
00000000
00000001
00000100
,
00000000
00000100
00000010
00000000
,
00010000
00000000
00010000
00001000
,
00000000
00001000
01000000
00000000
,
00010000
00000000
00010000
10000000
,
00000000
10000000
01000000
00000000
,
00100000
00000000
00001000
00010000
,
00000000
00010000
00001000
00000000
,
00011000
00000000
00010000
00000100
,
00000000
00000100
00000010
00000000
,
00000110
00000000
00000010
00000001
,
00000000
00000001
00001000
00000000
,
00001001
00000000
00001000
00000100
,
00000000
00000100
00010000
00000000
,
00011000
00000000
00001000
01000000
,
00000000
01000000
00100000
00000000
,
10000000
00000000
01000000
01000000
,
00000000
00010000
00010000
00000000
,
00001000
00000000
00000100
00000100
,
00000000
00000001
00000001
00000000
,
00000010
00000000
00000100
00000100
,
00000000
00010000
00010000
00000000
,
00001000
00000000
01000000
01000000
,
00000000
00100000
00100000
00000000
,
20000000
00000000
00000000
30000000
,
10000000
00000000
00100000
00000000
,
02000000
00000000
00000000
03000000
,
01000000
00000000
00010000
00000000
,
00200000
00000000
00000000
00300000
,
00100000
00000000
00001000
00000000
,
00020000
00000000
00000000
00030000
,
00010000
00000000
00000010
00000000
,
00002000
00000000
00000000
00003000
,
00001000
00000001
00001000
00000000
,
00000002
00000000
00000000
00000003
,
00000001
00000100
00000010
00000000
,
00010000
00000000
00001000
00000000
,
00010000
00000000
00001000
00000000
,
01000000
01000000
00010000
00010000
,
10000000
10000000
10010000
00000000
,
10000000
01000000
00100000
00000000
,
01000000
00100000
00001000
00010000
,
00000100
00001000
00000010
00000000
,
00001000
00000001
00001001
00000000
,
00000001
00000100
00001000
00000000
,
00000100
00001000
00010000
00100000
,
01000000
00010000
10000000
00000000
,
00010000
10000000
10010000
00000000
,
20000000
00000000
00000000
30000000
,
10000000
01000000
00100000
00001000
,
00020000
00000000
00000000
00030000
,
00010000
00000010
00001000
00000000
,
00000001
00000000
00001000
00000000
,
00000100
00000000
00010000
00000000
,
00001000
00010000
00001000
01000000
,
00010000
01000000
00100000
10000000
,
00100000
00000000
00000000
00000000
;
#NOTES:
     dance-double:
     :
     Medium:
     6:
     :
00000000
00000000
00000000
00000000
,
00000000
00000000
00000000
00000000
,
00000000
00000000
00000000
00000000
,
00000000
00000000
00000000
00000000
,
10000000
01000000
10000000
00000000
00010000
00000000
00000000
00100000
,
00000000
00001000
00010000
00000000
00011000
00000000
00000000
00001000
,
00010000
00000100
00000010
00000000
00000001
00000000
00000000
00000100
,
00000000
00000001
00001000
00000000
00001010
00000000
00000000
00000010
,
00010000
00001000
00010000
00000000
00001000
00000000
00000000
00100000
,
00000000
01000000
10000000
00000000
10010000
00000000
00000000
10000000
,
01000000
00010000
00001000
00000000
00010000
00000000
00000000
00001000
,
00000000
00010000
00000100
00000000
00000110
00000000
00000000
00000000
,
00000010
00000000
00000000
00000000
00000001
00000000
00000000
00000000
00001000
00000000
00000000
00000001
00000000
00000000
00000100
00000000
,
00000010
00010000
00011000
00000000
,
00001000
00000000
00000000
00000000
00010000
00000000
00000000
00000000
00100000
00000000
00000000
01000000
00000000
00000000
00010000
00000000
,
10000000
01000000
01100000
00000000
,
10000000
01000000
00010000
00001000
,
00010000
00001000
00000100
00000001
,
00001000
00000001
00001000
00000000
00000010
00000100
00000010
00000000
,
00001000
00000010
00000100
00001000
00010000
00000000
00000000
00000000
,
00001000
00100000
00000000
00001000
00100000
00000000
00010000
01000000
,
00000000
00010000
01000000
00000000
10010000
00000000
00000000
00000000
,
10000000
01000000
00000000
10000000
01000000
00000000
00100000
00010000
,
00000000
00100000
00010000
00000000
00101000
00000000
00000000
00000000
,
00010000
00000100
00000000
00010000
00000100
00000000
00001000
00000010
,
00000000
00001000
00000010
00000000
00001001
00000000
00000000
00000000
,
00000001
00000010
00000000
00000001
00000010
00000000
00000100
00001000
,
00000000
00000100
00001000
00000000
00011000
00000000
00000000
00000000
,
00010000
00001000
00100000
00001000
00010000
00000000
00000000
00011000
,
00000000
00101000
00000000
00110000
00000000
00000000
00000000
00000000
,
00010000
10000000
01000000
10000000
00010000
00000000
00000000
10010000
,
00000000
01010000
00000000
01001000
00000000
00011000
00000000
00000000
,
00010000
00001000
00000100
00000001
00001000
00000000
00000000
00001001
,
00000000
00000101
00000000
00000110
00000000
00000000
00000000
00000000
,
00000010
00001000
00000100
00010000
00001000
00000000
00000000
00011000
,
00000000
00101000
00000000
00110000
00000000
10010000
00000000
00000000
,
10000000
00010000
00000000
00010000
01000000
00000000
01000000
00001000
,
00000000
00001000
00010000
00000000
00011000
00000000
00000000
00000000
,
00001000
00010000
00000000
00010000
00000010
00000000
00000010
00001000
,
00000000
00001000
00000001
00000000
00000001
00001000
00000001
00001000
,
00000010
00000100
00000000
00000100
00001000
00000000
00001000
00010000
,
00000000
00010000
00100000
00000000
01100000
00000000
00000000
00000000
,
00100000
10000000
00000000
10000000
01000000
00000000
01000000
00010000
,
00000000
00010000
00001000
00000000
00001000
00000100
00001000
00000100
,
00000020
00000000
00000000
00000030
,
00001000
00000001
00000100
00000010
,
00002200
00000000
00000000
00003300
,
00000100
00010000
00011000
00001000
,
02020000
00000000
00000000
03030000
,
01000000
00100000
11000000
01100000
,
00220000
00000000
00000000
00330000
,
00001000
00011000
00010100
00001100
,
00002002
00000000
00000000
00003003
,
00000001
00000000
00000100
00000010
00000000
00000100
00000010
00000000
,
00002020
00000000
00000000
00003030
,
00001000
00000000
00000100
00010000
00000000
00001000
00100000
00000000
,
00001000
00001000
00010000
00010000
,
01000000
01000000
00100000
00100000
,
00010000
10000000
00010000
00000000
10000000
01000000
10000000
00000000
,
00100000
01000000
00010000
00100000
00001000
00000000
00000000
00000000
,
00020000
00001000
00031000
00000000
,
00000100
00000000
00001000
00000010
00000000
00001000
00000010
00000000
,
00000002
00001000
00001003
00000000
,
00000010
00000000
00001000
00000100
00000000
00000000
00000000
00000000
,
00012000
00100000
00013000
00000000
,
01000000
00000000
00010000
00100000
00000000
00010000
00100000
00000000
,
12000000
00100000
03100000
00000000
,
00010000
00000000
10000000
00010000
00000000
00000000
00000000
00000000
,
02100000
03002000
00013000
00000000
,
00001000
00000000
00010000
00000100
00000000
00000100
00001000
00000000
,
00000001
00000100
00000010
00000100
,
00000001
00000000
00001000
00000100
00000000
00000110
00000000
00000000
,
00001200
00020300
00031000
00000000
,
00100000
00000000
00001000
01000000
00000000
01000000
00010000
00000000
,
10000000
00010000
10000000
00000000
01000000
00100000
01000000
00000000
,
10000000
01000000
00010000
00001000
00000100
00000001
00000010
00000001
,
00001000
00000000
00000000
00000000
;
#NOTES:
     dance-double:
     :
     Hard:
     8:
     :
00000000
00000000
00000000
00000000
,
00000000
00000000
00000000
00000000
,
00000000
00000000
00000000
00000000
,
00000000
00000000
00000000
00000000
,
00001000
00000000
00010000
00000000
00001000
00000000
00000000
00000000
00000100
00000000
00000000
00000010
00000000
00000000
00001000
00000000
,
00000000
00000000
00000001
00000000
00000001
00000000
00000000
00000000
00000100
00000000
00000000
00000010
00000000
00000000
00010000
00000000
,
00001000
00000000
00010000
00000000
00001000
00000000
00000000
00000000
01000000
00000000
00000000
00100000
00000000
00000000
10000000
00000000
,
00000000
00000000
01000000
00000000
01000000
00000000
00000000
00000000
00100000
00000000
00000000
00001000
00000000
00000000
00010000
00000000
,
00011000
00000000
00001000
00000000
00010000
00000000
00000000
00000000
00000100
00000000
00000000
00001000
00000000
00000000
00000001
00000000
,
00000000
00000000
00000100
00000000
00000100
00000000
00000000
00000000
00000001
00000000
00000000
00000100
00000000
00000000
00000010
00000000
,
00001100
00000000
00000100
00000000
00010000
00000000
00000000
00000000
00001000
00000000
00000000
00100000
00000000
00000000
00010000
00000000
,
00000000
00000000
01000000
00000000
01000000
00000000
00000000
00000000
00100000
00000000
00000000
10000000
00000000
00000000
10000000
00000000
,
01000000
00000000
00010000
00000000
00001000
00000000
00010000
00000000
00001000
00000000
00000000
00010000
00000000
00000000
00000100
00000000
,
00001000
00000100
00000010
00000001
00001000
00000000
00000000
00000000
,
00000001
00000000
00000100
00000000
00001000
00000000
00010000
00000000
00001000
00000000
00000000
00100000
00000000
00000000
00010000
00000000
,
01000000
00100000
10000000
01000000
10000000
00000000
00000000
00000000
,
10000000
10000000
01100000
01100000
,
00001000
00001000
00011000
00011000
,
00000100
00010000
00000010
00001000
00000100
00010000
00000010
00001000
,
00000001
00001000
00000001
00001000
00000001
00001000
00000001
00001000
00000001
00000000
00000000
00000000
00000000
00000000
00000000
00000000
,
00000100
00000001
00000000
00000100
00000010
00000000
00000100
00001000
,
00000000
00010000
00001000
00000000
00010000
00001000
00000000
00000000
,
00100000
00001000
00000000
00100000
00010000
00000000
00100000
01000000
,
00000000
00100000
10000000
00000000
00100000
00010000
10000000
01000000
,
00100000
00010000
00000000
00100000
00001000
00000000
00010000
00001000
,
00000000
00010000
00000010
00000000
00001000
00000010
00000000
00000000
,
00000010
00001000
00000000
00000010
00000100
00000000
00000010
00000001
,
00000000
00000010
00000100
00000000
00000001
00000100
00001000
00010000
,
00001000
00001000
00000000
00000000
00011000
00000000
00000000
00100000
,
00000000
00010000
00000000
01000000
00000000
00100000
00000000
10000000
,
00000000
00010000
00000000
00000000
11000000
00000000
00000000
01000000
,
00000000
00100000
00000000
00001000
00000000
00000000
00000000
00000000
,
00010000
00010000
00000000
00000000
00011000
00000000
00000000
00000010
,
00000000
00001000
00000000
00000100
00000000
00001000
00000000
00000001
,
00000000
00000010
00000000
00000000
00000101
00000000
00000000
00000001
,
00000000
00000100
00000000
00000010
00000000
00000000
00000000
00000000
,
00001000
00000001
00000000
00000001
00000100
00000000
00000100
00000010
,
00000000
00000010
00010000
00000000
00010000
00001000
01000000
00010000
,
00100000
01000000
00000000
01000000
10000000
00000000
10000000
00010000
,
00000000
00000000
00010000
00000000
01000000
00000000
00000000
00000000
01000000
00000000
00001000
00010000
00001000
00010000
00001000
00000000
,
00010000
00000100
00000000
00000100
00000010
00000000
00000010
00000001
,
00000000
00000001
00000100
00000000
00000100
00001000
00010000
00001000
,
00010000
01000000
00000000
01000000
00100000
00000000
00100000
00010000
,
00000000
00010000
10000000
00000000
00010000
00100000
00010000
00100000
,
00002000
00000000
00000000
00003000
,
00010000
00000000
00000000
00010100
00000000
00001000
00000010
00000100
,
00000002
00000000
00001000
00000003
,
00000010
00000000
00000000
00001001
00000000
00000100
00001000
00010000
,
00002000
00010000
00010000
00003000
,
00100000
00000000
00000000
00110000
00000000
00010000
10000000
00100000
,
02000000
10000000
00100000
03000000
,
10000000
00000000
00000000
00110000
00000000
00100000
00001000
00010000
,
00000100
00000000
00000100
00000000
00001100
00000000
00001000
00000001
,
00000000
00000000
00000001
00000000
00001000
00000000
00000000
00000000
00000001
00000000
00000000
00000000
00000100
00000010
00000100
00000010
,
00000100
00000000
00000010
00000000
00011000
00000000
00010000
00001000
,
00000000
00000000
00001000
00000000
01000000
00000000
00000000
00000000
00010000
00000000
00000000
00000000
10000000
00100000
10000000
00100000
,
10000000
01000000
01100000
01100000
,
00001000
00001000
00011000
00011000
,
00010000
00001000
00000100
00000001
00000010
00000001
00000100
00001000
,
00010000
00001000
00010000
00001000
00010000
00001000
00010000
00001000
00010000
00000000
00000000
00000000
00000000
00000000
00000000
00000000
,
00110000
01000000
00000000
10000000
00000000
00100000
00000000
01001000
,
00000000
00010000
00000000
00001000
00000000
00010000
00000000
00001010
,
00000010
00001000
00000000
00000001
00000000
00000100
00000000
00000110
,
00000000
00000010
00000000
00010000
00000000
00001000
00000000
00000000
,
00011000
00001000
00000000
00100000
00000000
00010000
00000000
01010000
,
00000000
01000000
00000000
00100000
00000000
10000000
00000000
01100000
,
10000000
01000000
00000000
00010000
00000000
00001000
00000000
00011000
,
00000000
00010000
00000000
00000100
00000000
00000010
00000000
00000001
,
00001000
00000001
00001000
00000001
00000100
00001000
00010000
00001000
,
00010000
00001000
00011000
00110000
,
00100000
00010000
01000000
00100000
10000000
01000000
00010000
00001000
,
00010000
00001000
00011000
00010100
,
00000100
00000010
00000001
00000100
00001000
00010000
00100000
10000000
,
00010000
10000000
00010000
10000000
01000000
00100000
00010000
00001000
,
00000010
00000100
00000001
00000010
00000001
00000100
00001000
00010000
,
00001000
00100000
00010000
01000000
00100000
10000000
01000000
00100000
,
00010000
00000000
00000000
00000000
;
