
//----- song ID: sieg -----
#TITLE:Siege Engine;
#ARTIST:Morgan's Corner;
#BANNER:Siege Engine.png;
#BACKGROUND:Siege Engine-bg.png;
#CDTITLE:./CDTitles/DDR UNIVERSE3.png;
#MUSIC:Siege Engine.ogg;
#OFFSET:-2.885;
#SAMPLESTART:52.245;
#SAMPLELENGTH:15;
#BPMS:0=175;
#NOTES:
     dance-single:
     :
     Beginner:
     1:
     :
0000
0000
0000
0000
,
0000
0000
0000
0000
,
0000
0000
0000
0000
,
0000
0000
0000
0000
,
1000
0000
0001
0000
,
1000
0000
0000
0000
,
0100
0000
0010
0000
,
0100
0000
0000
0000
,
0001
0000
1000
0000
,
0001
0000
0000
0000
,
0010
0000
0100
0000
,
0010
0000
0000
0000
,
0001
0000
0000
0000
,
1000
0000
0001
0000
,
0100
0000
0010
0000
,
1000
0000
0000
0000
,
1000
0000
0000
0000
,
0100
0000
0010
0000
,
0001
0000
0100
0000
,
1000
0000
0000
0000
,
0100
0000
0000
0000
,
0001
0000
0000
0000
,
0010
0000
0000
0000
,
0100
0000
0000
0000
,
1000
0000
0000
0000
,
0001
0000
0000
0000
,
1000
0000
0000
0000
,
0100
0000
0000
0000
,
0010
0000
0000
0000
,
0001
0000
0000
0000
,
1001
0000
0000
0000
,
0000
0000
0000
0000
,
0100
0000
0000
0000
,
0010
0000
0000
0000
,
0110
0000
0000
0000
,
1000
0000
0001
0000
,
1000
0000
0000
0000
,
0001
0000
0000
0000
,
1000
0000
0001
0000
,
0100
0000
0010
0000
,
1000
0000
0000
0000
,
0001
0000
0000
0000
,
1000
0000
0100
0000
,
0001
0000
0100
0000
,
1000
0000
0000
0000
,
0010
0000
0000
0000
,
0100
0000
0001
0000
,
0010
0000
0001
0000
,
0100
0000
0000
0000
,
0100
0000
0000
0000
,
0010
0000
0000
0000
,
0020
0000
0000
0030
,
0010
0000
1000
0000
,
0001
0000
0000
0000
,
1000
0000
0001
0000
,
0010
0000
0000
0000
,
0100
0000
1000
0000
,
0100
0000
0000
0000
,
0010
0000
0001
0000
,
0010
0000
0000
0000
,
0001
0000
1000
0000
,
0001
0000
0000
0000
,
0100
0000
0010
0000
,
0100
0000
0000
0000
,
0010
0000
1000
0000
,
0100
0000
0000
0000
,
0100
0000
1000
0000
,
0001
0000
0010
0000
,
0100
0000
0000
0000
;
#NOTES:
     dance-single:
     :
     Easy:
     4:
     :
0000
0000
0000
0000
,
0000
0000
0000
0000
,
0000
0000
0000
0000
,
0000
0000
0000
0000
,
1001
0000
1000
0100
,
0010
0000
0100
1000
,
0001
0000
0100
0001
,
0010
0000
0001
0100
,
0010
0000
1000
0001
,
1000
0000
0001
0100
,
0001
0000
0100
0010
,
0100
0000
0010
1000
,
0010
0000
1001
0000
,
1000
0100
0010
0001
,
1000
0000
1001
0000
,
0001
0100
0010
1000
,
0100
0000
0110
0000
,
0100
1000
0001
0100
,
0010
0000
0110
0000
,
0010
1000
0001
0010
,
0200
0000
0300
0000
,
1001
0000
0001
0100
,
0001
0100
0001
0010
,
0002
0000
0003
0000
,
0200
0000
0300
0000
,
1001
0000
1000
0001
,
1000
0001
1000
0010
,
2000
0000
3000
0000
,
0002
0000
0003
0000
,
0110
0000
0100
0010
,
0100
0010
0100
0001
,
0200
0000
0300
0000
,
0002
0000
0003
0000
,
0110
0000
0010
0001
,
0010
0000
0001
0000
,
1000
1000
0001
0001
,
0100
0000
0110
0000
,
0010
1000
0010
0100
,
0010
0000
1001
0000
,
0001
1000
0100
0000
,
0110
0000
1001
0000
,
1000
0100
1000
0010
,
1000
0000
0110
0000
,
0010
1000
0001
0000
,
1001
0000
0110
0000
,
0100
0001
0100
0010
,
0100
0000
1001
0000
,
1000
0100
0010
0000
,
0110
0000
1001
0000
,
1000
0001
0100
0001
,
1000
0000
0000
0000
,
0001
0001
1000
1000
,
1001
0000
0001
0000
,
0010
0001
0100
1000
,
0100
0000
0010
0000
,
1000
0001
0010
0000
,
0001
1000
1001
0000
,
1000
0001
0100
0000
,
0010
0100
0110
0000
,
0010
1000
0001
0000
,
1001
0000
0100
0000
,
1000
0100
0001
0100
,
1000
0000
0001
0000
,
0100
0010
0110
0000
,
0010
1000
0001
0000
,
1000
0100
1001
0000
,
0001
0100
0010
0000
,
1000
0001
0100
0010
,
1000
0000
0000
0000
;
#NOTES:
     dance-single:
     :
     Medium:
     5:
     :
0000
0000
0000
0000
,
0000
0000
0000
0000
,
0000
0000
0000
0000
,
0000
0000
0000
0000
,
1000
0000
0001
0000
1000
0000
0001
0100
,
0000
0010
0000
0100
0001
0000
0000
0000
,
0100
0000
0010
0000
0100
0000
0010
1000
,
0000
0001
0000
1000
0100
0000
0000
0000
,
0010
0000
0001
0000
0010
0000
0001
1000
,
0000
0100
0000
1000
0001
0000
0000
0000
,
0100
0000
0010
0000
0100
0000
0010
1000
,
0000
0001
0000
0010
0001
0000
0000
0000
,
1000
0000
0100
0000
0010
0000
0000
0100
,
0000
1000
0000
0001
0100
0000
0001
0000
,
0001
0000
0100
0000
0010
0000
0000
0100
,
0000
0001
0000
1000
0001
0000
0010
0000
,
0010
0000
0001
0000
1000
0000
0000
0010
,
0000
1000
0000
0010
0100
0000
0001
0000
,
0001
0000
1000
0000
0100
0000
0000
1000
,
0000
0100
0000
0010
0100
0000
0000
0000
,
1001
0100
1001
0000
,
1000
0000
0000
0001
0100
0001
0000
1000
,
0100
1000
0000
0001
0100
0001
0000
1000
,
0100
0010
0001
0000
,
0110
1000
0110
0000
,
0001
0000
0000
1000
0010
1000
0000
0001
,
0010
0001
0000
1000
0010
1000
0000
0001
,
0010
0001
1000
0000
,
0011
0100
1010
0000
,
1000
0000
0000
1000
0001
1000
0000
0001
,
0100
0001
0000
0100
0010
0100
0000
0010
,
1000
0001
0010
0000
,
0101
0100
1010
0000
,
1000
0000
0000
0001
0100
0001
0000
1000
,
0200
0300
0020
0030
,
0001
1000
0001
1000
,
0002
0000
0003
0000
0100
0000
0010
0100
,
0000
0001
0000
0100
0010
0000
1000
0000
,
2000
0000
3000
0000
0001
0000
1000
0100
,
0000
0000
0010
0100
0010
0000
0000
0000
,
0002
0000
0003
0000
1000
0000
0001
0100
,
0000
0001
0000
1000
0100
0000
0010
0000
,
0200
0000
0300
0000
1000
0000
0001
0100
,
0000
0000
0010
1000
0010
0000
1000
0000
,
2000
0000
3000
0000
0100
0000
1000
0010
,
0000
0100
0000
0010
1000
0000
0001
0000
,
0200
0000
0300
0000
0001
0000
1000
0001
,
0000
0000
1000
0010
1000
0000
0000
0000
,
0020
0000
0030
0000
0100
0000
0001
1000
,
0000
0001
0000
1000
0100
0000
0010
0000
,
0001
0000
0000
0000
,
1000
1000
0001
0001
,
2000
0000
3000
0000
0001
0000
1000
0200
,
0000
0300
0000
0100
2000
0000
3000
0000
,
0002
0000
0003
0000
0001
0000
0100
0002
,
0000
0003
0000
0001
0020
0000
0030
0000
,
0002
0000
0003
0000
0100
0000
0100
0020
,
0000
0030
0000
0010
2000
0000
3000
0000
,
0002
0000
0003
0000
1000
0000
0001
0200
,
0000
0300
0000
0010
2000
0000
3000
0000
,
0200
0000
1300
0000
0001
0000
0100
0020
,
0000
0030
0000
0010
0200
0000
0300
0000
,
0002
0000
1003
0000
0010
0000
1000
0002
,
0000
0003
0000
0001
1000
0000
0001
0000
,
0020
0000
0130
0000
0010
0000
0100
2000
,
0000
3000
0000
1000
0200
0000
0300
0000
,
2000
0000
3001
0000
0100
0000
0010
2000
,
0000
3000
0000
1000
0010
0000
0100
0010
,
1000
0000
0000
0000
;
#NOTES:
     dance-single:
     :
     Hard:
     8:
     :
0000
0000
0000
0000
,
0000
0000
0000
0000
,
0000
0000
0000
0000
,
0000
0000
0000
0000
,
0100
1000
0100
0000
1000
0000
0001
0100
,
0000
0001
0000
0010
0001
0000
1000
0000
,
0010
0100
0010
0000
1000
0000
0100
0010
,
0000
0100
0000
1000
0001
0000
0100
0000
,
0001
0100
0001
0000
0010
0000
0001
1000
,
0000
0010
0000
0100
0010
0000
1000
0000
,
0100
0010
0100
0000
1000
0000
0010
1000
,
0000
0001
0000
0010
0001
0000
0110
0000
,
0001
0100
0001
0100
0010
0000
1000
0001
,
0000
1000
0000
0100
0010
0000
0100
0000
,
1000
0100
1000
0100
0010
0000
0001
1000
,
0000
0001
0000
0010
0100
0000
1000
0000
,
0001
1000
0001
0100
0010
0000
1000
0100
,
0000
0010
0000
0100
1000
0000
0001
0000
,
1000
0100
0010
0001
0010
0000
0001
0100
,
0000
0010
0000
1000
0001
0000
1000
0000
,
0001
1000
0101
1100
,
0001
0000
0010
0001
0010
0001
0010
0001
,
1000
0001
1000
0100
1000
0100
1000
0100
,
0010
0001
1010
0011
,
1000
0001
1010
1100
,
1000
0000
0001
0100
0001
0100
0001
0100
,
0010
0100
0010
1000
0010
1000
0001
1000
,
0001
1000
0110
1001
,
1000
0100
0110
0011
,
1000
0000
0001
1000
0001
1000
0001
1000
,
0010
1000
0010
0100
0010
0100
1000
0100
,
1000
0100
0101
1001
,
0100
0010
0011
0110
,
1000
0000
0001
0100
0001
0010
0100
1000
,
0001
1000
1100
0110
,
0001
0011
1001
1010
,
0100
0000
0001
0100
0010
0000
0100
0002
,
0000
1000
0000
0103
0010
0000
0011
0000
,
1010
0000
1000
0000
0002
1000
0003
1000
,
0001
0000
0010
0100
0010
0000
0001
0000
,
1001
0000
1000
0000
0100
0000
0010
0200
,
0000
1000
0000
0301
0100
0000
0110
0000
,
1010
0000
0001
0000
2000
0100
3000
0100
,
1000
0000
0010
1000
0010
0000
1000
0000
,
0110
0000
0001
0000
1000
0000
0100
2000
,
0000
0001
0000
3010
0100
0000
0101
0000
,
0110
0000
0010
0000
2000
0001
3000
0001
,
1000
0000
0100
1000
0100
0000
0010
0000
,
1001
0000
0100
0000
0010
0000
1000
0200
,
0000
0010
0000
1300
0001
0000
0110
0000
,
1001
0000
0000
0000
,
0010
1000
0100
1000
0010
0000
0100
0000
,
0002
0000
0010
0000
0103
0000
0001
0100
,
0000
0001
0000
0010
0100
0000
1000
0000
,
0001
0100
1000
0100
0001
0000
1000
0100
,
0000
0010
0000
0100
1000
0010
0100
0000
,
1001
0000
0001
0100
0010
0000
1000
0001
,
0000
1000
0000
0001
0100
0000
0010
0000
,
1000
0100
0001
0100
1000
0000
0001
1000
,
0000
0010
0000
1000
0100
0010
0001
0000
,
1200
0000
0010
0000
0301
0000
0100
1000
,
0000
0001
0000
0100
0010
0000
1000
0000
,
0001
0100
1000
0100
0010
0000
1000
0001
,
0000
0011
0000
0010
0100
1000
0001
0000
,
0110
0000
0010
1000
0100
0000
1000
0100
,
0000
1001
0000
0010
0001
0000
0100
0000
,
0001
0100
1000
0100
0010
0000
1000
0010
,
0000
1001
0000
1000
0100
0010
0001
0100
,
0010
0000
0000
0000
;
#NOTES:
     dance-double:
     :
     Beginner:
     1:
     :
00000000
00000000
00000000
00000000
,
00000000
00000000
00000000
00000000
,
00000000
00000000
00000000
00000000
,
00000000
00000000
00000000
00000000
,
10000000
00000000
00010000
00000000
,
01000000
00000000
00000000
00000000
,
00001000
00000000
00010000
00000000
,
00001000
00000000
00000000
00000000
,
00010000
00000000
00000100
00000000
,
00000010
00000000
00000000
00000000
,
00000001
00000000
00001000
00000000
,
00000001
00000000
00000000
00000000
,
00000100
00000000
00000000
00000000
,
00001000
00000000
00010000
00000000
,
00001000
00000000
00100000
00000000
,
00010000
00000000
00000000
00000000
,
10000000
00000000
00000000
00000000
,
01000000
00000000
00100000
00000000
,
00001000
00000000
00010000
00000000
,
00001000
00000000
00000000
00000000
,
00010000
00000000
00000000
00000000
,
00000100
00000000
00000000
00000000
,
00001000
00000000
00000000
00000000
,
00000001
00000000
00000000
00000000
,
00000100
00000000
00000000
00000000
,
00000010
00000000
00000000
00000000
,
00001000
00000000
00000000
00000000
,
00000100
00000000
00000000
00000000
,
00010000
00000000
00000000
00000000
,
00001000
00000000
00000000
00000000
,
00011000
00000000
00000000
00000000
,
00000000
00000000
00000000
00000000
,
00001000
00000000
00000000
00000000
,
01000000
00000000
00000000
00000000
,
01100000
00000000
00000000
00000000
,
10000000
00000000
01000000
00000000
,
00010000
00000000
00000000
00000000
,
00001000
00000000
00000000
00000000
,
00010000
00000000
00001000
00000000
,
00000100
00000000
00000010
00000000
,
00000100
00000000
00000000
00000000
,
00000001
00000000
00000000
00000000
,
00001000
00000000
00000010
00000000
,
00001000
00000000
00000100
00000000
,
00010000
00000000
00000000
00000000
,
00001000
00000000
00000000
00000000
,
01000000
00000000
00010000
00000000
,
00100000
00000000
00010000
00000000
,
10000000
00000000
00000000
00000000
,
01000000
00000000
00000000
00000000
,
00100000
00000000
00000000
00000000
,
00200000
00000000
00000000
00300000
,
00100000
00000000
00001000
00000000
,
00010000
00000000
00000000
00000000
,
00000100
00000000
00001000
00000000
,
00000001
00000000
00000000
00000000
,
00000100
00000000
00001000
00000000
,
00010000
00000000
00000000
00000000
,
01000000
00000000
10000000
00000000
,
00100000
00000000
00000000
00000000
,
00010000
00000000
00001000
00000000
,
00000010
00000000
00000000
00000000
,
00000001
00000000
00001000
00000000
,
00000001
00000000
00000000
00000000
,
00001000
00000000
00000100
00000000
,
00010000
00000000
00000000
00000000
,
00001000
00000000
01000000
00000000
,
00010000
00000000
00100000
00000000
,
01000000
00000000
00000000
00000000
;
#NOTES:
     dance-double:
     :
     Easy:
     4:
     :
00000000
00000000
00000000
00000000
,
00000000
00000000
00000000
00000000
,
00000000
00000000
00000000
00000000
,
00000000
00000000
00000000
00000000
,
10010000
00000000
10000000
01000000
,
00100000
00000000
01000000
00100000
,
00001000
00000000
00100000
00001000
,
00010000
00000000
00001000
00010000
,
00000010
00000000
00010000
00000010
,
00001000
00000000
00000010
00001000
,
00000001
00000000
00001000
00000001
,
00000100
00000000
00000001
00000100
,
00000010
00000000
00000110
00000000
,
00000010
00001000
00000100
00010000
,
00001000
00000000
00011000
00000000
,
00001000
00100000
00010000
01000000
,
00100000
00000000
01100000
00000000
,
00100000
10000000
01000000
00010000
,
00001000
00000000
00011000
00000000
,
00010000
00001000
00000100
00000001
,
00002000
00000000
00003000
00000000
,
00001001
00000000
00001000
00000001
,
00001000
00000010
00001000
00000100
,
00002000
00000000
00003000
00000000
,
00000200
00000000
00000300
00000000
,
00011000
00000000
00001000
00010000
,
00001000
00100000
00001000
01000000
,
00002000
00000000
00003000
00000000
,
00020000
00000000
00030000
00000000
,
00011000
00000000
00100000
00001000
,
00100000
00010000
00100000
01000000
,
00200000
00000000
00300000
00000000
,
00020000
00000000
00030000
00000000
,
10010000
00000000
10000000
01000000
,
10000000
00000000
00010000
00000000
,
01000000
01000000
00001000
00001000
,
00010000
00000000
00011000
00000000
,
00001000
00010000
00000100
00001000
,
00000010
00000000
00000110
00000000
,
00000100
00000001
00001000
00000000
,
00001001
00000000
00001001
00000000
,
00001000
00000010
00010000
00001000
,
00010000
00000000
00011000
00000000
,
00001000
00100000
01000000
00000000
,
01100000
00000000
01100000
00000000
,
10000000
01000000
00100000
00001000
,
00010000
00000000
00011000
00000000
,
00001000
00010000
00000100
00000000
,
00000110
00000000
00000110
00000000
,
00000010
00000001
00001000
00000001
,
00000100
00000000
00000000
00000000
,
00000010
00000010
00000100
00000100
,
00000110
00000000
00000001
00000000
,
00000100
00001000
00010000
01000000
,
00100000
00000000
00010000
00000000
,
10000000
00100000
01000000
00000000
,
00001000
00010000
00011000
00000000
,
00010000
00000100
00001000
00000000
,
00000010
00001000
00001001
00000000
,
00000001
00000010
00000100
00000000
,
00000110
00000000
00001000
00000000
,
00000100
00010000
00001000
01000000
,
00010000
00000000
00100000
00000000
,
00010000
10000000
10010000
00000000
,
00010000
10000000
01000000
00000000
,
00100000
00001000
00011000
00000000
,
00010000
00000100
00001000
00000000
,
00000010
00001000
00000001
00000100
,
00001000
00000000
00000000
00000000
;
#NOTES:
     dance-double:
     :
     Medium:
     5:
     :
00000000
00000000
00000000
00000000
,
00000000
00000000
00000000
00000000
,
00000000
00000000
00000000
00000000
,
00000000
00000000
00000000
00000000
,
00010000
00000000
10000000
00000000
00010000
00000000
10000000
00100000
,
00000000
01000000
00000000
00001000
00010000
00000000
00000000
00000000
,
00001000
00000000
00010000
00000000
00001000
00000000
00010000
00000100
,
00000000
00001000
00000000
00000010
00000100
00000000
00000000
00000000
,
00000001
00000000
00001000
00000000
00000001
00000000
00001000
00000100
,
00000000
00000010
00000000
00000001
00000100
00000000
00000000
00000000
,
00001000
00000000
00010000
00000000
00001000
00000000
00010000
00001000
,
00000000
00100000
00000000
00010000
10000000
00000000
00000000
00000000
,
01000000
00000000
00100000
00000000
00010000
00000000
00000000
01000000
,
00000000
00001000
00000000
00010000
00001000
00000000
00000010
00000000
,
00000001
00000000
00000100
00000000
00000010
00000000
00000000
00001000
,
00000000
00000100
00000000
00010000
00001000
00000000
00100000
00000000
,
00010000
00000000
10000000
00000000
01000000
00000000
00000000
00010000
,
00000000
00001000
00000000
00010000
00000010
00000000
00001000
00000000
,
00000001
00000000
00000100
00000000
00001000
00000000
00000000
00010000
,
00000000
00001000
00000000
00100000
01000000
00000000
00000000
00000000
,
10100000
00010000
01010000
00000000
,
00100000
00000000
00000000
00001000
00010000
00001000
00000000
00010000
,
00000100
00010000
00000000
00000100
00001000
00000100
00000000
00001000
,
00000001
00000010
00000100
00000000
,
00001001
00000100
00001100
00000000
,
00010000
00000000
00000000
00001000
00100000
00001000
00000000
00100000
,
00010000
00100000
00000000
00010000
01000000
00010000
00000000
01000000
,
00100000
10000000
01000000
00000000
,
00110000
00010000
00101000
00000000
,
00010000
00000000
00000000
00001000
00010000
00001000
00000000
00010000
,
00000010
00010000
00000000
00000010
00000100
00000010
00000000
00000100
,
00000001
00000100
00001000
00000000
,
00011000
00010000
00101000
00000000
,
00010000
00000000
00000000
00100000
00010000
00100000
00000000
00010000
,
20000000
30000000
00020000
00030000
,
01000000
00100000
10000000
01000000
,
00020000
00000000
00030000
00000000
00001000
00000000
00010000
00000100
,
00000000
00001000
00000000
00000010
00001000
00000000
00000001
00000000
,
00002000
00000000
00003000
00000000
00000001
00000000
00000100
00000010
,
00000000
00000000
00010000
00001000
00010000
00000000
00000000
00000000
,
00002000
00000000
00003000
00000000
01000000
00000000
00010000
00100000
,
00000000
00010000
00000000
10000000
01000000
00000000
00100000
00000000
,
00002000
00000000
00003000
00000000
00010000
00000000
00000100
00001000
,
00000000
00000000
00000001
00001000
00000001
00000000
00000100
00000000
,
00000020
00000000
00000030
00000000
00001000
00000000
00000100
00010000
,
00000000
00001000
00000000
01000000
00010000
00000000
10000000
00000000
,
02000000
00000000
03000000
00000000
00100000
00000000
00001000
00010000
,
00000000
00000000
00001000
00010000
00001000
00000000
00000000
00000000
,
00020000
00000000
00030000
00000000
00000010
00000000
00001000
00000001
,
00000000
00000100
00000000
00000001
00001000
00000000
00000010
00000000
,
00010000
00000000
00000000
00000000
,
00001000
00001000
00010000
00010000
,
00002000
00000000
00003000
00000000
01000000
00000000
00100000
20000000
,
00000000
30000000
00000000
01000000
00200000
00000000
00300000
00000000
,
00020000
00000000
00030000
00000000
10000000
00000000
01000000
00020000
,
00000000
00030000
00000000
00001000
00020000
00000000
00030000
00000000
,
00002000
00000000
00003000
00000000
00010000
00000000
00000100
00000020
,
00000000
00000030
00000000
00000001
00002000
00000000
00003000
00000000
,
00000002
00000000
00000003
00000000
00000100
00000000
00000010
00002000
,
00000000
00003000
00000000
00000100
00020000
00000000
00030000
00000000
,
00002000
00000000
00013000
00000000
01000000
00000000
10000000
00200000
,
00000000
00300000
00000000
01000000
00020000
00000000
00030000
00000000
,
00200000
00000000
00301000
00000000
00010000
00000000
00000100
00002000
,
00000000
00003000
00000000
00000010
00001000
00000000
00000001
00000000
,
00002000
00000000
00003010
00000000
00000100
00000000
00001000
00020000
,
00000000
00030000
00000000
00001000
00200000
00000000
00300000
00000000
,
00020000
00000000
10030000
00000000
01000000
00000000
00010000
00002000
,
00000000
00003000
00000000
00010000
00001000
00000000
00010000
00001000
,
00000100
00000000
00000000
00000000
;
#NOTES:
     dance-double:
     :
     Hard:
     8:
     :
00000000
00000000
00000000
00000000
,
00000000
00000000
00000000
00000000
,
00000000
00000000
00000000
00000000
,
00000000
00000000
00000000
00000000
,
00100000
10000000
00100000
00000000
01000000
00000000
00010000
00100000
,
00000000
00001000
00000000
00010000
00001000
00000000
00010000
00000000
,
00000010
00001000
00000010
00000000
00001000
00000000
00000001
00000100
,
00000000
00000010
00000000
00001000
00000100
00000000
00010000
00000000
,
00001000
00010000
00001000
00000000
00100000
00000000
00010000
10000000
,
00000000
00100000
00000000
10000000
01000000
00000000
00100000
00000000
,
00001000
00010000
00001000
00000000
00010000
00000000
00000100
00001000
,
00000000
00000010
00000000
00001000
00000001
00000000
00000110
00000000
,
00000001
00000100
00000001
00000100
00000010
00000000
00010000
00001000
,
00000000
00010000
00000000
00001000
01000000
00000000
00100000
00000000
,
10000000
01000000
10000000
01000000
00100000
00000000
00001000
00010000
,
00000000
00001000
00000000
00010000
00000010
00000000
00000100
00000000
,
00000001
00000100
00000010
00010000
00001000
00000000
00100000
00010000
,
00000000
10000000
00000000
00010000
01000000
00000000
00100000
00000000
,
10000000
01000000
00100000
00001000
00010000
00000000
00000010
00001000
,
00000000
00000100
00000000
00001000
00000001
00000000
00000100
00000000
,
00000010
00001000
00001100
00011000
,
00001000
00000000
00100000
00001000
00100000
00001000
00100000
00001000
,
01000000
00001000
01000000
00010000
01000000
00010000
10000000
00010000
,
10000000
00100000
01010000
00011000
,
00010000
00000100
00001010
00000011
,
00001000
00000000
00000001
00000100
00000001
00000100
00000001
00000100
,
00001000
00000100
00001000
00010000
00001000
00010000
00100000
00010000
,
00100000
10000000
10010000
11000000
,
00100000
01000000
00110000
00011000
,
00010000
00000000
00001000
00010000
00001000
00010000
00001000
00010000
,
00000010
00010000
00000010
00001000
00000010
00001000
00000001
00001000
,
00000001
00000100
00001010
00001100
,
00010000
00001000
00101000
00110000
,
00010000
00000000
10000000
01000000
00010000
00001000
00000100
00000001
,
00000010
00000001
00000101
00001010
,
00010010
00011000
00101000
00110000
,
01000000
00000000
00100000
10000000
01000000
00000000
00100000
00002000
,
00000000
00010000
00000000
01003000
00100000
00000000
01010000
00000000
,
00011000
00000000
00010000
00000000
00000200
00001000
00000300
00001000
,
00000010
00000000
00001000
00000001
00001000
00000000
00000100
00000000
,
00000110
00000000
00010000
00000000
00001000
00000000
00100000
00020000
,
00000000
01000000
00000000
10030000
01000000
00000000
01100000
00000000
,
00110000
00000000
00001000
00000000
00020000
00001000
00030000
00001000
,
00010000
00000000
00000100
00000010
00000100
00000000
00001000
00000000
,
00001001
00000000
00000001
00000000
00000100
00000000
00000010
00002000
,
00000000
00000001
00000000
00003100
00010000
00000000
00011000
00000000
,
01010000
00000000
00100000
00000000
20000000
00010000
30000000
00010000
,
10000000
00000000
01000000
00100000
01000000
00000000
00010000
00000000
,
00011000
00000000
00001000
00000000
00010000
00000000
00000010
00000200
,
00000000
00001000
00000000
00000301
00001000
00000000
00000110
00000000
,
00001001
00000000
00000000
00000000
,
00000001
00000100
00001000
00010000
00001000
00000000
00011000
00000000
,
00020000
00000000
00001000
00000000
01030000
00000000
00100000
00010000
,
00000000
10000000
00000000
01000000
00100000
00000000
00001000
00000000
,
00010000
00001000
00000010
00000001
00000100
00000000
00000001
00001000
,
00000000
00000010
00000000
00001000
00000100
00010000
00001000
00000000
,
00011000
00000000
00001000
01000000
00100000
00000000
10000000
01000000
,
00000000
00100000
00000000
00010000
01000000
00000000
00100000
00000000
,
10000000
01000000
00010000
00001000
00000010
00000000
00000100
00001000
,
00000000
00000001
00000000
00000100
00000010
00001000
00000100
00000000
,
00021000
00000000
00000010
00000000
00130000
00000000
01000000
00010000
,
00000000
10000000
00000000
01000000
00100000
00000000
00010000
00000000
,
00100000
01000000
00010000
00001000
00000100
00000000
00000010
00001000
,
00000000
00001001
00000000
00000001
00000100
00001000
00010000
00000000
,
00011000
00000000
00001000
00100000
00010000
00000000
01000000
00100000
,
00000000
10010000
00000000
10000000
01000000
00000000
00100000
00000000
,
00001000
00010000
00001000
00000100
00000010
00000000
00001000
00000100
,
00000000
00000011
00000000
00001000
00000010
00000100
00001000
00010000
,
00001000
00000000
00000000
00000000
;
