
//----- song ID: tut2 -----
#TITLE:Senses (Kaiju Remix);
#ARTIST:JT.1UP;
#BANNER:Senses (Kaiju Remix).png;
#BACKGROUND:Senses (Kaiju Remix)-bg.png;
#CDTITLE:./CDTitles/DDR UNIVERSE3.png;
#MUSIC:Senses (Kaiju Remix).ogg;
#OFFSET:-0.001;
#SAMPLESTART:16;
#SAMPLELENGTH:15;
#BPMS:0=120;
#NOTES:
     dance-single:
     :
     Beginner:
     1:
     :
0000
0000
0000
0000
,
0000
0000
0000
0000
,
0000
0000
0000
0000
,
0000
0000
0000
0000
,
0001
0000
0000
0000
,
0001
0000
0000
0000
,
1000
0000
0000
0000
,
1000
0000
0000
0000
,
0100
0100
0000
0000
,
1000
1000
0000
0000
,
0001
0001
0000
0000
,
0010
0010
0000
0000
,
0001
0000
0000
0000
,
0100
0000
0000
0000
,
1000
0000
0000
0000
,
0100
0000
0000
0000
,
0001
0001
0000
0000
,
0010
0010
0000
0000
,
0100
0100
0000
0000
,
1000
1000
0000
0000
,
0001
0000
0000
0000
,
0010
0000
0000
0000
,
1000
0000
0000
0000
,
0010
0000
0000
0000
,
0001
0000
0000
0000
,
1000
0000
0000
0000
,
0001
0000
0000
0000
,
1000
0000
0000
0000
,
0002
0000
0000
0003
,
0001
0000
0000
0000
,
2000
0000
0000
3000
,
1000
0000
0000
0000
,
0010
0010
0000
0000
,
0100
0100
0000
0000
,
0001
0001
0000
0000
,
1000
1000
0000
0000
,
0001
0000
0000
0000
,
0100
0000
0000
0000
,
1000
0000
0000
0000
,
0100
0000
0000
0000
,
0010
0010
0000
0000
,
0001
0001
0000
0000
,
0100
0100
0000
0000
,
1000
1000
0000
0000
,
0001
0000
0000
0000
,
0010
0000
0000
0000
,
1000
0000
0000
0000
,
0010
0000
0000
0000
,
0001
0000
0001
0000
,
1000
0000
1000
0000
,
1001
0000
0000
0000
;
#NOTES:
     dance-single:
     :
     Easy:
     3:
     :
0000
0000
0000
0000
,
0000
0000
0000
0000
,
0000
0000
0000
0000
,
0000
0000
0000
0000
,
0001
0000
0001
0000
,
1000
0000
0100
0000
,
1000
0000
1000
0000
,
0001
0000
0100
0000
,
0001
1000
0001
1000
,
0100
0000
0100
0000
,
0010
0001
0010
0001
,
0100
0000
0100
0000
,
0001
0010
0100
1000
,
0100
0000
0100
0000
,
1000
0100
0010
0001
,
0100
0000
0100
0000
,
0001
1000
0001
1000
,
0010
0000
0010
0000
,
0100
0001
0100
0001
,
0010
0000
0010
0000
,
0001
0100
0010
1000
,
0010
0000
0010
0000
,
1000
0010
0100
0001
,
0010
0000
0010
0000
,
0001
0000
0100
0000
,
1000
0000
0100
0000
,
0001
0000
0100
0000
,
1000
0000
0100
0000
,
0001
0000
0010
0000
,
1000
0000
0010
0000
,
0001
0000
0010
0000
,
1000
0000
0010
0000
,
0001
1000
0001
1000
,
0100
0000
0100
0000
,
0010
0001
0010
0001
,
0100
0000
0100
0000
,
0001
0010
0100
1000
,
0100
0000
0100
0000
,
1000
0100
0010
0001
,
0100
0000
0100
0000
,
0001
1000
0001
1000
,
0010
0000
0010
0000
,
0100
0001
0100
0001
,
0010
0000
0010
0000
,
0001
0100
0010
1000
,
0010
0000
0010
0000
,
1000
0010
0100
0001
,
0010
0000
0010
0000
,
0001
0000
1000
0000
,
0001
0000
1000
0000
,
1001
0000
0000
0000
;
#NOTES:
     dance-single:
     :
     Medium:
     4:
     :
0000
0000
0000
0000
,
0000
0000
0000
0000
,
0000
0000
0000
0000
,
0000
0000
0000
0000
,
0010
0001
1000
0010
,
0200
0000
0300
0000
,
0010
1000
0001
0010
,
0200
0000
0300
0000
,
0001
1000
0001
0000
1001
0000
0000
0000
,
1000
0100
0001
0010
,
1000
0001
1000
0000
1001
0000
0000
0000
,
0001
0100
1000
0010
,
0001
1000
0001
0000
1001
0000
0000
0000
,
1000
0100
0001
0010
,
1000
0001
1000
0000
1001
0000
0000
0000
,
0001
0100
1000
0010
,
0002
0000
2000
0003
,
0002
3000
0000
0003
,
2000
0000
0002
3000
,
2000
0003
0000
3000
,
0200
1000
0001
1300
,
0020
1000
1000
1030
,
1000
0100
0001
0000
,
1000
0010
0001
0000
,
1000
0100
0010
0001
,
1000
0100
1100
0000
,
0001
0010
0100
1000
,
0001
0010
0011
0000
,
1000
0010
0100
0001
,
1000
0010
1010
0000
,
0001
0100
0010
1000
,
2002
0000
0000
3003
,
0001
1000
0001
0000
1001
0000
0000
0000
,
1000
0100
0001
0010
,
1000
0001
1000
0000
1001
0000
0000
0000
,
0001
0100
1000
0010
,
0001
1000
0001
0000
1001
0000
0000
0000
,
1000
0100
0001
0010
,
1000
0001
1000
0000
1001
0000
0000
0000
,
0001
0100
1000
0010
,
0002
0000
2000
0003
,
0002
3000
0000
0003
,
2000
0000
0002
3000
,
2000
0003
0000
3000
,
0200
1000
0001
1300
,
0020
1000
1000
1030
,
1000
0100
0001
0000
,
1000
0010
0001
0000
,
0001
1000
0001
0000
0010
0000
0100
0000
,
1000
0001
1000
0000
0010
0000
0100
0000
,
1001
0000
0000
0000
;
#NOTES:
     dance-single:
     :
     Hard:
     6:
     :
0000
0000
0000
0000
,
0000
0000
0000
0000
,
0000
0000
0000
0000
,
0000
0000
0000
0000
,
2020
0000
3000
0200
,
0030
0002
0000
0303
,
0022
0000
0003
0200
,
0030
2000
0000
3300
,
0001
1000
0001
0000
1000
0001
1000
0000
,
0001
0100
1000
0100
,
0010
0100
0010
0000
0100
0010
0100
0000
,
1000
0100
0001
0100
,
0001
1000
0001
0000
0100
0000
0110
0000
,
1000
0001
1000
0000
0100
0000
0110
0000
,
0001
0100
1000
0010
,
0001
0100
2000
3010
,
0001
0100
0001
0000
1000
0100
1000
0000
,
0001
0100
1000
0100
,
0010
0001
0010
0000
0100
1000
0100
0000
,
1000
0100
0001
0100
,
0001
0010
0001
0000
0100
0000
0110
0000
,
1000
0010
1000
0000
0100
0000
0110
0000
,
0001
0100
1000
0010
,
0001
0100
2000
3010
,
0001
0010
0100
1100
,
1000
0010
0100
0101
,
0001
0100
0010
1010
,
1000
0100
0010
0011
,
1000
1010
0001
0011
,
1000
1100
0001
0101
,
1010
1100
0011
0101
,
2002
0000
0000
3003
,
1000
0001
1000
0000
0001
1000
0001
0000
,
1000
0010
0001
0010
,
0100
0010
0100
0000
0010
0100
0010
0000
,
0001
0010
1000
0010
,
1000
0001
1000
0000
0010
0000
0110
0000
,
0001
1000
0001
0000
0010
0000
0110
0000
,
1000
0010
0001
0100
,
1000
0010
0002
0103
,
1000
0010
1000
0000
0001
0010
0001
0000
,
1000
0010
0001
0010
,
0100
1000
0100
0000
0010
0001
0010
0000
,
0001
0010
1000
0010
,
1000
0100
1000
0000
0010
0000
0110
0000
,
0001
0100
0001
0000
0010
0000
0110
0000
,
1000
0010
0001
0100
,
1000
0010
0002
0103
,
1000
1001
0001
1001
,
0001
0010
0100
1000
0001
0010
0100
1000
,
0100
0000
0000
0000
;
#NOTES:
     dance-double:
     :
     Beginner:
     1:
     :
00000000
00000000
00000000
00000000
,
00000000
00000000
00000000
00000000
,
00000000
00000000
00000000
00000000
,
00000000
00000000
00000000
00000000
,
00000001
00000000
00000000
00000000
,
00000001
00000000
00000000
00000000
,
00001000
00000000
00000000
00000000
,
00001000
00000000
00000000
00000000
,
00000001
00000001
00000000
00000000
,
00000010
00000010
00000000
00000000
,
00000100
00000100
00000000
00000000
,
00001000
00001000
00000000
00000000
,
00000001
00000000
00000000
00000000
,
00000100
00000000
00000000
00000000
,
00001000
00000000
00010000
00000000
,
01000000
00000000
00000000
00000000
,
10000000
10000000
00000000
00000000
,
00100000
00100000
00000000
00000000
,
01000000
01000000
00000000
00000000
,
00010000
00010000
00000000
00000000
,
10000000
00000000
00000000
00000000
,
01000000
00000000
00000000
00000000
,
00010000
00000000
00001000
00000000
,
00000100
00000000
00000000
00000000
,
00000100
00000000
00000000
00000000
,
00000001
00000000
00000000
00000000
,
00000010
00000000
00000000
00000000
,
00001000
00000000
00000000
00000000
,
00010000
00000000
00000000
00000000
,
00100000
00000000
00000000
00000000
,
10000000
00000000
00000000
00000000
,
01000000
00000000
00000000
00000000
,
10000000
10000000
00000000
00000000
,
01000000
01000000
00000000
00000000
,
00100000
00100000
00000000
00000000
,
00010000
00010000
00000000
00000000
,
10000000
00000000
00000000
00000000
,
00100000
00000000
00000000
00000000
,
00010000
00000000
00001000
00000000
,
00000010
00000000
00000000
00000000
,
00000001
00000001
00000000
00000000
,
00000100
00000100
00000000
00000000
,
00000010
00000010
00000000
00000000
,
00001000
00001000
00000000
00000000
,
00000001
00000000
00000000
00000000
,
00000010
00000000
00000000
00000000
,
00001000
00000000
00010000
00000000
,
00100000
00000000
00000000
00000000
,
10000000
00000000
10000000
00000000
,
00010000
00000000
00010000
00000000
,
10010000
00000000
00000000
00000000
;
#NOTES:
     dance-double:
     :
     Easy:
     3:
     :
00000000
00000000
00000000
00000000
,
00000000
00000000
00000000
00000000
,
00000000
00000000
00000000
00000000
,
00000000
00000000
00000000
00000000
,
00000001
00000000
00000001
00000000
,
00000100
00000000
00001000
00000000
,
00010000
00000000
01000000
00000000
,
10000000
00000000
10000000
00000000
,
00010000
10000000
00010000
10000000
,
01000000
00000000
01000000
00000000
,
00010000
00001000
00010000
00001000
,
00000100
00000000
00000100
00000000
,
00000001
00000010
00000100
00001000
,
00000100
00000000
00000100
00000000
,
00001000
00000100
00000010
00000001
,
00000100
00000000
00000100
00000000
,
00001000
00000001
00001000
00000001
,
00000100
00000000
00000100
00000000
,
00001000
00010000
00001000
00010000
,
01000000
00000000
01000000
00000000
,
10000000
01000000
00100000
00010000
,
01000000
00000000
01000000
00000000
,
00010000
00100000
01000000
10000000
,
01000000
00000000
01000000
00000000
,
00100000
00000000
10000000
00000000
,
01000000
00000000
00010000
00000000
,
00001000
00000000
00000100
00000000
,
00000001
00000000
00000010
00000000
,
00000010
00000000
00000001
00000000
,
00000100
00000000
00001000
00000000
,
00010000
00000000
01000000
00000000
,
10000000
00000000
00100000
00000000
,
00010000
10000000
00010000
10000000
,
00100000
00000000
00100000
00000000
,
00010000
00001000
00010000
00001000
,
00000010
00000000
00000010
00000000
,
00000001
00000100
00000010
00001000
,
00000010
00000000
00000010
00000000
,
00001000
00000010
00000100
00000001
,
00000010
00000000
00000010
00000000
,
00001000
00000001
00001000
00000001
,
00000010
00000000
00000010
00000000
,
00001000
00010000
00001000
00010000
,
00100000
00000000
00100000
00000000
,
10000000
00100000
01000000
00010000
,
00100000
00000000
00100000
00000000
,
00010000
01000000
00100000
10000000
,
00100000
00000000
00100000
00000000
,
00010000
00000000
00001000
00000000
,
00010000
00000000
00001000
00000000
,
00011000
00000000
00000000
00000000
;
#NOTES:
     dance-double:
     :
     Medium:
     4:
     :
00000000
00000000
00000000
00000000
,
00000000
00000000
00000000
00000000
,
00000000
00000000
00000000
00000000
,
00000000
00000000
00000000
00000000
,
00000010
00000001
00000010
00000001
,
00000200
00000000
00000300
00000000
,
00000010
00001000
00000010
00001000
,
00000200
00000000
00000300
00000000
,
00010000
00001000
00010000
00000000
00011000
00000000
00000000
00000000
,
00001000
00000100
00000001
00000010
,
00001000
00010000
00001000
00000000
00011000
00000000
00000000
00000000
,
00010000
01000000
10000000
00100000
,
00010000
00001000
00010000
00000000
00011000
00000000
00000000
00000000
,
00001000
00000010
00000001
00000100
,
00001000
00010000
00001000
00000000
00011000
00000000
00000000
00000000
,
00010000
00100000
10000000
01000000
,
00020000
00000000
00002000
00030000
,
00020000
00003000
00000000
00030000
,
00002000
00000000
00020000
00003000
,
00002000
00030000
00000000
00003000
,
00000200
00000001
00001000
00000301
,
00000020
00000001
00000001
00000031
,
00000100
00001000
00010000
00000000
,
00001000
00010000
01000000
00000000
,
10000000
00100000
00010000
00001000
,
00000010
00000001
00000101
00000000
,
00000001
00000010
00001000
00010000
,
00100000
10000000
11000000
00000000
,
10000000
01000000
00010000
00001000
,
00000100
00000001
00000011
00000000
,
00000001
00000100
00001000
00010000
,
00022000
00000000
00000000
00033000
,
00010000
00001000
00010000
00000000
00011000
00000000
00000000
00000000
,
00001000
00000100
00000001
00000010
,
00001000
00010000
00001000
00000000
00011000
00000000
00000000
00000000
,
00010000
01000000
10000000
00100000
,
00010000
00001000
00010000
00000000
00011000
00000000
00000000
00000000
,
00001000
00000010
00000001
00000100
,
00001000
00010000
00001000
00000000
00011000
00000000
00000000
00000000
,
00010000
00100000
10000000
01000000
,
00020000
00000000
00002000
00030000
,
00020000
00003000
00000000
00030000
,
00002000
00000000
00020000
00003000
,
00002000
00030000
00000000
00003000
,
00000200
00000001
00001000
00000301
,
00000020
00000001
00000001
00000031
,
00000100
00001000
00010000
00000000
,
00001000
00010000
01000000
00000000
,
00010000
10000000
00010000
00000000
00100000
00000000
01000000
00000000
,
10000000
00010000
10000000
00000000
00100000
00000000
01000000
00000000
,
10010000
00000000
00000000
00000000
;
#NOTES:
     dance-double:
     :
     Hard:
     6:
     :
00000000
00000000
00000000
00000000
,
00000000
00000000
00000000
00000000
,
00000000
00000000
00000000
00000000
,
00000000
00000000
00000000
00000000
,
00000001
00000100
00000001
00000010
,
00000100
00010000
00001000
01000000
,
00100000
10000000
01000000
10000000
,
20020000
30030000
02200000
03300000
,
00010000
10000000
00010000
00000000
10000000
00010000
10000000
00000000
,
01000000
00010000
00001000
00000100
,
00000001
00001000
00000001
00000000
00001000
00000001
00001000
00000000
,
00000010
00010000
00001000
00100000
,
01000000
01000000
01000000
00000000
10000000
00000000
10010000
00000000
,
01000000
01000000
01000000
00000000
00001000
00000000
00011000
00000000
,
00100000
10000000
01000000
00010000
,
00001000
00000100
00000002
00000013
,
00000100
00000010
00000100
00000000
00000010
00000001
00000010
00000000
,
00000100
00010000
00001000
01000000
,
00100000
01000000
00100000
00000000
01000000
10000000
01000000
00000000
,
00100000
00001000
00010000
00000010
,
00000001
00000100
00001000
00000000
00010000
00000000
00011000
00000000
,
00001000
00010000
01000000
00000000
10000000
00000000
10010000
00000000
,
01000000
10000000
00100000
00010000
,
00001000
00000010
00000002
00000103
,
00000001
00000010
00001000
00011000
,
00010000
00100000
10000000
10010000
,
10000000
01000000
00010000
00011000
,
00001000
00000100
00000001
00001001
,
00001000
00001010
00000010
00010010
,
00010000
00011000
00001000
00101000
,
00110000
11000000
10100000
01010000
,
20020000
00000000
00000000
30030000
,
00010000
10000000
00010000
00000000
10000000
00010000
10000000
00000000
,
00100000
00010000
00001000
00000010
,
00000001
00001000
00000001
00000000
00001000
00000001
00001000
00000000
,
00000100
00010000
00001000
01000000
,
00100000
00100000
00100000
00000000
10000000
00000000
10010000
00000000
,
00100000
00100000
00100000
00000000
00001000
00000000
00011000
00000000
,
01000000
10000000
00100000
00010000
,
00001000
00000010
00000002
00000103
,
00000010
00000100
00000010
00000000
00000100
00000001
00000100
00000000
,
00000010
00010000
00001000
00100000
,
01000000
00100000
01000000
00000000
00100000
10000000
00100000
00000000
,
01000000
00001000
00010000
00000100
,
00000001
00000010
00001000
00000000
00010000
00000000
00011000
00000000
,
00001000
00010000
00100000
00000000
10000000
00000000
10010000
00000000
,
00100000
10000000
01000000
00010000
,
00001000
00000100
00000002
00000013
,
00001000
00011000
00010000
00011000
,
00001000
00100000
00001000
00100000
00010000
01000000
00010000
01000000
,
00100000
00000000
00000000
00000000
;
