#TITLE:Rhythm of My Heart;
#ARTIST:Master Source;
#BANNER:Rhythm of My Heart.png;
#BACKGROUND:Rhythm of My Heart-bg.png;
#LYRICSPATH:Rhythm of My Heart.lrc;
#CDTITLE:./CDTITLES/DanceDanceRevolution UNIVERSE3.png;
#MUSIC:Rhythm of My Heart.ogg;
#SAMPLESTART:42.352;
#SAMPLELENGTH:15;
#BPMS:0=102;

//---------------dance-single - ----------------
#NOTES:
     dance-single:
     :
     Beginner:
     1:
     :
0000
0000
0000
0000
,
0000
0000
0000
0000
,
0000
0000
0000
0000
,
0000
0000
0000
0000
,
1000
0000
0001
0000
,
0100
0000
0000
0000
,
0010
0000
1000
0000
,
0001
0000
0000
0000
,
0010
0000
0001
0000
,
1000
0000
0100
0000
,
0010
0000
0000
0000
,
0100
0000
0000
0000
,
1000
0000
0000
0000
,
0001
0000
0000
0000
,
1000
0000
0000
0000
,
0010
0000
0000
0000
,
0100
0000
0000
0000
,
0001
0000
0001
0000
,
1000
0000
0000
0000
,
0001
0000
0001
0000
,
1000
0000
0000
0000
,
1001
0000
0000
0000
,
0100
0000
0000
0000
,
0010
0000
0010
0000
,
0100
0000
0000
0000
,
0110
0000
0000
0000
,
1000
0000
0000
0000
,
0100
0000
0000
0000
,
0010
0000
0000
0000
,
0001
0000
0000
0000
,
0100
0000
0000
0000
,
0001
0000
0000
0000
,
1000
0000
0000
0000
,
0100
0000
0000
0000
,
0010
0000
0000
0000
,
0100
0000
0100
0000
,
0010
0000
0000
0000
,
0110
0000
0000
0000
,
1000
0000
0000
0000
,
0001
0000
0001
0000
,
1000
0000
0000
0000
,
1001
0000
0000
0000
,
1000
0000
0100
0000
,
1000
0000
0000
0000
,
0001
0000
0100
0000
,
0001
0000
0000
0000
,
1000
0000
0010
0000
,
1000
0000
0000
0000
,
0001
0000
0100
0000
,
0001
0000
0000
0000
,
0100
0000
0010
0000
,
0110
0000
0000
0000
;

//---------------dance-single - ----------------
#NOTES:
     dance-single:
     :
     Easy:
     3:
     :
0000
0000
0000
0000
,
0000
0000
0000
0000
,
0000
0000
0000
0000
,
0000
0000
0000
0000
,
1000
0000
0001
0000
,
0100
0000
0010
0010
,
1000
0000
0100
0000
,
0010
0000
0001
0001
,
0100
0000
0010
0000
,
1000
0001
1000
0001
,
0100
0000
0001
0000
,
0200
0000
0000
0300
,
0010
0000
1000
0000
,
0020
0000
0000
0030
,
1000
0000
0100
0000
,
2000
0000
0000
3000
,
0001
0000
0010
0000
,
0001
0000
1000
0001
,
0100
0001
0001
0000
,
1000
0100
0100
0000
,
0010
0001
0001
0000
,
1000
0010
0010
0000
,
0010
0100
0100
0000
,
0001
0100
0100
0000
,
0010
1000
1000
0000
,
0100
0010
0010
0000
,
0001
0000
1000
0000
,
2002
0000
0000
3003
,
0100
0000
0010
0000
,
0220
0000
0000
0330
,
1000
0000
0001
0000
,
2002
0000
0000
3003
,
0010
0000
1000
0000
,
0010
0000
0100
0110
,
0100
0100
0110
0000
,
1000
1000
1001
0000
,
0010
0010
0110
0000
,
0002
0003
2000
3000
,
0001
0001
1001
0000
,
0010
0010
0110
0000
,
1000
1000
1001
0000
,
0200
0300
0020
0030
,
1000
0000
0001
1000
,
0001
0000
0010
0000
,
0001
0010
1000
0000
,
0010
0001
0100
0000
,
0001
0100
1000
0000
,
0100
0000
0010
0000
,
1000
0010
0001
0000
,
0010
1000
0100
0000
,
1000
0100
0001
0000
,
0100
0010
0000
0000
;

//---------------dance-single - ----------------
#NOTES:
     dance-single:
     :
     Medium:
     5:
     :
0000
0000
0000
0000
,
0000
0000
0000
0000
,
0000
0000
0000
0000
,
0000
0000
0000
0000
,
1000
0000
0000
1000
0000
0000
0001
0000
0000
0000
0100
0000
0000
0000
0001
0000
,
0010
0000
0000
0010
0000
0000
0100
0000
0000
0000
0001
0000
0000
0000
0100
0000
,
1000
0000
0000
1000
0000
0000
0010
0000
0000
0000
0100
0000
0000
0000
0010
0000
,
0100
0000
0000
0100
0000
0000
0001
0000
0000
0000
1000
0000
0000
0000
0001
0000
,
1000
0000
0000
1000
0000
0000
0000
0000
0010
0000
0000
0010
0000
0000
0000
0000
,
0100
0000
0000
0100
0000
0000
0000
0000
0001
0000
0100
0000
1000
0000
0100
0000
,
0001
0000
0000
0001
0000
0000
0000
0000
0010
0000
0000
0010
0000
0000
0000
0000
,
0200
0000
1300
0001
,
1000
0000
0000
1000
0000
0000
0000
0000
0010
0000
0000
0010
0000
0000
0000
0000
,
0200
0000
0000
0000
0000
0301
0001
0001
,
0010
0000
0000
0010
0000
0000
0000
0000
0001
0000
0000
0001
0000
0000
0000
0000
,
2000
0000
3001
0100
,
0020
0000
0230
0000
,
0310
0000
0000
1000
0000
0000
0001
0000
0010
0000
0000
0000
0001
0000
0000
0000
,
1000
0000
0000
0100
0000
0100
0000
1000
0000
0000
0000
0000
0010
0000
0000
0000
,
0100
0000
0000
0001
0000
0001
0000
0100
0000
0000
0000
0000
0010
0000
0000
0000
,
1000
0000
0000
0001
0000
0001
0000
1000
0000
0000
0000
0000
0010
0000
0000
0000
,
0202
0303
0010
1000
,
0100
0000
0000
0010
0000
0010
0000
0100
0000
0000
0000
0000
1000
0000
0000
0000
,
0010
0000
0000
0100
0000
0100
0000
0010
0000
0000
0000
0000
1000
0000
0000
0000
,
0001
0000
0000
0010
0000
0010
0000
0100
0000
0000
0000
0000
1000
0000
0000
0000
,
2002
3003
1000
0100
,
1000
0000
0000
0100
0000
0000
0000
0000
0100
0000
0000
0001
0000
0000
0000
0000
,
0200
0000
0310
0001
,
0001
0000
0000
0100
0000
0000
0000
0000
0100
0000
0000
1000
0000
0000
0000
0000
,
0200
0000
0000
0000
0000
0310
0010
0010
,
0100
0000
0000
0001
0000
0000
0000
0000
0001
0000
0000
0010
0000
0000
0000
0000
,
0002
0000
1000
1003
,
0200
0000
0320
0000
,
0031
0000
0000
1000
0000
0000
0100
0000
0010
0000
0000
0000
0110
0000
0000
0000
,
1000
0000
0000
0001
0000
0001
0000
0100
0000
0000
0000
0000
0101
0000
0000
0000
,
0001
0000
0000
1000
0000
1000
0000
0100
0000
0000
0000
0000
1100
0000
0000
0000
,
1000
0000
0000
0010
0000
0010
0000
0100
0000
0000
0000
0000
0110
0000
0000
0000
,
2002
3003
1100
0101
,
0001
0000
0000
0100
0000
0010
0000
0100
0000
0000
0000
0000
0110
0000
0000
0000
,
1000
0000
0000
0001
0000
0010
0000
0001
0000
0000
0000
0000
0011
0000
0000
0000
,
0001
0000
0000
1000
0000
0010
0000
1000
0000
0000
0000
0000
1010
0000
0000
0000
,
2200
3300
0202
0303
,
1001
0000
0000
1001
0000
0000
0000
0011
0000
0000
1010
0000
1001
0000
0000
0000
,
0001
1000
0010
0100
0000
0001
0000
1000
,
0100
1000
0000
0010
0000
1000
0000
0001
,
0100
0001
0010
0001
0000
1000
0000
0100
,
0001
0100
0000
1000
0000
0001
0000
0100
,
0010
1000
0010
0100
0000
0001
0000
0010
,
0100
0010
0000
0100
0000
1000
0000
0010
,
0100
0001
0100
0010
0000
1000
0000
0001
,
0010
0000
1000
0000
0000
0000
0010
0000
0001
0000
0000
1000
0000
0000
0000
0001
,
0000
0100
0010
0000
0000
0000
0000
0000
;

//---------------dance-single - ----------------
#NOTES:
     dance-single:
     :
     Hard:
     7:
     :
0000
0000
0000
0000
,
0000
0000
0000
0000
,
0000
0000
0000
0000
,
0000
0000
0000
0000
,
1000
0000
0100
1000
0000
1000
0100
0000
0000
0000
1100
0000
0000
0000
0001
0000
,
0100
0000
0001
0100
0000
0100
0001
0000
0000
0000
0101
0000
0000
0000
0010
0000
,
1000
0000
0010
1000
0000
1000
0010
0000
0000
0000
1010
0000
0000
0000
0001
0000
,
0010
0000
0001
0010
0000
0010
0001
0000
0000
0000
0011
0000
0000
0000
0001
0000
,
1000
0000
0001
1000
0000
1000
0001
0000
0000
0000
1000
0100
0000
0100
1000
0000
,
0000
0000
0001
0100
0000
0100
0001
0000
0010
0000
0100
0000
1000
0000
0001
0000
,
2000
0000
3002
0000
,
0013
0000
0000
0000
0000
0001
0100
0001
0000
0000
1000
0000
0100
0000
0010
0000
,
0002
0000
0203
0000
,
0310
0000
0000
0000
0000
1001
0100
1000
,
0002
0000
0023
0000
,
0130
0000
0000
0000
1000
0100
1000
0010
,
2000
0000
3002
0000
,
0103
0000
0000
0010
0000
0000
0100
0000
0001
0000
0000
0000
1001
0000
0000
0000
,
1000
0000
0000
0100
0000
1000
0000
1000
0000
0000
0001
0000
0100
0000
0001
0000
,
0010
0000
0000
0001
0000
0100
0000
0100
0000
0000
0010
0000
1000
0000
0001
0000
,
1000
0000
0000
0100
0000
0010
0000
0010
0000
0000
0001
0000
0100
0000
0001
0000
,
0010
0000
0100
1000
0000
0010
0000
0000
0110
0000
0000
0000
0000
0000
0000
0000
,
0001
0000
0000
1000
0000
0010
0000
0010
0000
0000
0100
0000
0001
0000
0010
0000
,
0100
0000
0000
1000
0000
0001
0000
0001
0000
0000
0100
0000
1000
0000
0100
0000
,
0001
0000
0000
0010
0000
0100
0000
0100
0000
0000
1000
0000
0100
0000
0001
0000
,
0100
0000
1000
0001
0000
1000
0000
0000
0001
0000
0000
0000
1100
0000
0000
0000
,
0002
0000
0203
0000
,
0310
0000
0000
0000
1000
0001
0100
1000
,
0200
0000
0320
0000
,
1030
0000
0000
0000
0000
1100
0010
0001
,
0200
0000
0320
0000
,
1030
0000
0000
0000
0001
0100
0010
1000
,
0200
0000
2300
0000
,
3010
0000
0000
0100
0000
0000
0001
0000
1000
0000
0000
0000
0110
0000
0000
0000
,
0100
0000
0000
0001
0000
0110
0000
0110
0000
0000
0100
0000
1000
0000
0010
0000
,
1000
0000
0000
0001
0000
1100
0000
1100
0000
0000
0001
0000
0100
0000
1000
0000
,
0100
0000
0000
0010
0000
0101
0000
0101
0000
0000
1000
0000
0010
0000
1000
0001
,
1000
0000
0001
0010
0000
0100
0000
0000
1000
0000
0000
0000
0011
0000
0000
0000
,
0100
0000
0000
0010
0000
1100
0000
1100
0000
0000
1000
0000
0010
0000
0100
0000
,
0001
0000
0000
0100
0000
1010
0000
1010
0000
0000
0100
0000
0001
0000
1000
0000
,
0100
0000
0000
1000
0000
0011
0000
0011
0000
0000
0100
0000
0001
0000
0010
0001
,
0010
0000
0001
1000
0000
0100
0000
0000
0010
0000
0000
0000
0110
0000
0000
0000
,
1010
0000
0000
1100
0000
0000
0000
0101
0000
0000
0011
0000
1001
0000
0000
0000
,
0001
0000
0001
0000
0001
0000
0001
0000
1000
0000
0001
1000
0000
0100
0000
0001
,
0000
0100
0000
1000
0001
0100
0001
0010
0001
0000
0100
0010
0000
1000
0000
0100
,
0010
0000
0001
0000
0010
0000
1000
0000
0010
0000
0001
1000
0000
0010
0000
0001
,
0000
0010
0000
1000
0001
1000
0100
1000
0010
0000
1000
0100
0000
0010
0000
0001
,
1000
0000
1000
0000
1000
0000
1000
0000
0001
0000
1000
0001
0000
0100
0000
1000
,
0000
0100
0000
0001
1000
0100
1000
0010
1000
0000
0100
0010
0000
0001
0000
0100
,
0010
0000
1000
0000
0010
0000
0001
0000
0010
0000
1000
0001
0000
0010
0000
1000
,
0000
0010
0000
0001
1000
0001
0100
0001
0010
0000
0000
0001
0000
0000
0000
1000
,
0000
0010
0010
0000
0000
0000
0000
0000
;

//---------------dance-double - ----------------
#NOTES:
     dance-double:
     :
     Beginner:
     1:
     :
00000000
00000000
00000000
00000000
,
00000000
00000000
00000000
00000000
,
00000000
00000000
00000000
00000000
,
00000000
00000000
00000000
00000000
,
10000000
00000000
01000000
00000000
,
00010000
00000000
00000000
00000000
,
00001000
00000000
00000100
00000000
,
00000001
00000000
00000000
00000000
,
00000001
00000000
00000100
00000000
,
00001000
00000000
00010000
00000000
,
00011000
00000000
00000000
00000000
,
00010000
00000000
00000000
00000000
,
10000000
00000000
00000000
00000000
,
00010000
00000000
00000000
00000000
,
01000000
00000000
00000000
00000000
,
00001000
00000000
00000000
00000000
,
00010000
00000000
00000000
00000000
,
00000100
00000000
00000100
00000000
,
00001000
00000000
00000000
00000000
,
00000001
00000000
00000001
00000000
,
00000010
00000000
00000000
00000000
,
00000100
00000000
00000000
00000000
,
00001000
00000000
00000000
00000000
,
00010000
00000000
00010000
00000000
,
00001000
00000000
00000000
00000000
,
00011000
00000000
00000000
00000000
,
00010000
00000000
00000000
00000000
,
00100000
00000000
00000000
00000000
,
01000000
00000000
00000000
00000000
,
10000000
00000000
00000000
00000000
,
01000000
00000000
00000000
00000000
,
00010000
00000000
00000000
00000000
,
00001000
00000000
00000000
00000000
,
00000010
00000000
00000000
00000000
,
00000001
00000000
00000000
00000000
,
00000100
00000000
00000100
00000000
,
00000010
00000000
00000000
00000000
,
00000110
00000000
00000000
00000000
,
00001000
00000000
00000000
00000000
,
00010000
00000000
00010000
00000000
,
00001000
00000000
00000000
00000000
,
00011000
00000000
00000000
00000000
,
00010000
00000000
01000000
00000000
,
10000000
00000000
00000000
00000000
,
00100000
00000000
00010000
00000000
,
00001000
00000000
00000000
00000000
,
00000100
00000000
00000001
00000000
,
00000010
00000000
00000000
00000000
,
00000100
00000000
00001000
00000000
,
00010000
00000000
00000000
00000000
,
00001000
00000000
00010000
00000000
,
00011000
00000000
00000000
00000000
;

//---------------dance-double - ----------------
#NOTES:
     dance-double:
     :
     Easy:
     2:
     :
00000000
00000000
00000000
00000000
,
00000000
00000000
00000000
00000000
,
00000000
00000000
00000000
00000000
,
00000000
00000000
00000000
00000000
,
10000000
00000000
01000000
00000000
,
00010000
00000000
00001000
00001000
,
00000100
00000000
00000010
00000000
,
00010000
00000000
00001000
00001000
,
01000000
00000000
00100000
00000000
,
10000000
01000000
00010000
01000000
,
00010000
00000000
00001000
00000000
,
00000200
00000000
00000000
00000300
,
00000001
00000000
00000010
00000000
,
00002000
00000000
00000000
00003000
,
00010000
00000000
00100000
00000000
,
20000000
00000000
00000000
30000000
,
00010000
00000000
01000000
00000000
,
00001000
00000000
00010000
00011000
,
00010000
00000100
00000100
00000000
,
00000010
00000001
00000001
00000000
,
00001000
00000010
00000010
00000000
,
00010000
00001000
00001000
00000000
,
00100000
00010000
00010000
00000000
,
10000000
00100000
00100000
00000000
,
01000000
00010000
00010000
00000000
,
00100000
00001000
00001000
00000000
,
00010000
00000000
00001000
00000000
,
00022000
00000000
00000000
00033000
,
00001000
00000000
00000100
00000000
,
00000002
00000000
00000000
00000003
,
00000100
00000000
00001000
00000000
,
00022000
00000000
00000000
00033000
,
00100000
00000000
01000000
00000000
,
00001000
00000000
00010000
00011000
,
00001000
00001000
00011000
00000000
,
00000100
00000100
00000110
00000000
,
00000001
00000001
00001001
00000000
,
00000002
00000003
00002000
00003000
,
00000100
00000100
00000110
00000000
,
00010000
00010000
00011000
00000000
,
00100000
00100000
01100000
00000000
,
02000000
03000000
00200000
00300000
,
10000000
00000000
01000000
00010000
,
00001000
00000000
00000100
00000000
,
00000001
00000010
00000001
00000000
,
00000100
00000010
00000100
00000000
,
00001000
00010000
00001000
00000000
,
00100000
00000000
01000000
00000000
,
10000000
00010000
10000000
00000000
,
00010000
00100000
00010000
00000000
,
00001000
00010000
00001000
00000000
,
00011000
00011000
00000000
00000000
;

//---------------dance-double - ----------------
#NOTES:
     dance-double:
     :
     Medium:
     5:
     :
00000000
00000000
00000000
00000000
,
00000000
00000000
00000000
00000000
,
00000000
00000000
00000000
00000000
,
00000000
00000000
00000000
00000000
,
10000000
00000000
00000000
01000000
00000000
00000000
00010000
00000000
00000000
00000000
01000000
00000000
00000000
00000000
00010000
00000000
,
00001000
00000000
00000000
00000010
00000000
00000000
00000001
00000000
00000000
00000000
00000010
00000000
00000000
00000000
00000001
00000000
,
00000100
00000000
00000000
00000100
00000000
00000000
00000010
00000000
00000000
00000000
00010000
00000000
00000000
00000000
00001000
00000000
,
00100000
00000000
00000000
00100000
00000000
00000000
01000000
00000000
00000000
00000000
10000000
00000000
00000000
00000000
00010000
00000000
,
01000000
00000000
00000000
01000000
00000000
00000000
00000000
00000000
00001000
00000000
00000000
00001000
00000000
00000000
00000000
00000000
,
00010000
00000000
00000000
00010000
00000000
00000000
00000000
00000000
00000100
00000000
00000000
00000000
00001000
00000000
00000000
00000000
,
00000001
00000000
00000000
00000100
00000000
00000000
00000000
00000000
00001000
00000000
00000000
00010000
00000000
00000000
00000000
00000000
,
02000000
00000000
13000000
00010000
,
10000000
00000000
00000000
01000000
00000000
00000000
00000000
00000000
00010000
00000000
00000000
00001000
00000000
00000000
00000000
00000000
,
00000200
00000000
00000000
00000000
00000000
00000310
00001000
00001000
,
00000001
00000000
00000000
00001000
00000000
00000000
00000000
00000000
00000100
00000000
00000000
00010000
00000000
00000000
00000000
00000000
,
00002000
00000000
00103000
01000000
,
20000000
00000000
30020000
00000000
,
00130000
00000000
00000000
01000000
00000000
00000000
00010000
00000000
00001000
00000000
00000000
00000000
00011000
00000000
00000000
00000000
,
00010000
00000000
00000000
00000010
00000000
00000010
00000000
00000010
00000000
00000000
00000000
00000000
00001000
00000000
00000000
00000000
,
00000001
00000000
00000000
00000100
00000000
00000100
00000000
00000100
00000000
00000000
00000000
00000000
00001000
00000000
00000000
00000000
,
00010000
00000000
00000000
01000000
00000000
01000000
00000000
01000000
00000000
00000000
00000000
00000000
10000000
00000000
00000000
00000000
,
02002000
03003000
00010000
00000100
,
00000010
00000000
00000000
00000001
00000000
00000001
00000000
00000100
00000000
00000000
00000000
00000000
00001000
00000000
00000000
00000000
,
00000100
00000000
00000000
00001000
00000000
00001000
00000000
00010000
00000000
00000000
00000000
00000000
01000000
00000000
00000000
00000000
,
00010000
00000000
00000000
01000000
00000000
01000000
00000000
00100000
00000000
00000000
00000000
00000000
00001000
00000000
00000000
00000000
,
00022000
00033000
00001000
00000100
,
00000001
00000000
00000000
00001000
00000000
00000000
00000000
00000000
00000100
00000000
00000000
00010000
00000000
00000000
00000000
00000000
,
00002000
00000000
00103000
00010000
,
10000000
00000000
00000000
00010000
00000000
00000000
00000000
00000000
01000000
00000000
00000000
00001000
00000000
00000000
00000000
00000000
,
00020000
00000000
00000000
00000000
00000000
00030010
00001000
00000100
,
00000010
00000000
00000000
00000001
00000000
00000000
00000000
00000000
00001000
00000000
00000000
00000100
00000000
00000000
00000000
00000000
,
00020000
00000000
00031000
00100000
,
02000000
00000000
23000000
00000000
,
30100000
00000000
00000000
01000000
00000000
00000000
00001000
00000000
00010000
00000000
00000000
00000000
00011000
00000000
00000000
00000000
,
00010000
00000000
00000000
00000100
00000000
00000100
00000000
00001000
00000000
00000000
00000000
00000000
00000001
00000000
00000000
00000000
,
00000100
00000000
00000000
00000010
00000000
00000010
00000000
00010000
00000000
00000000
00000000
00000000
00001000
00000000
00000000
00000000
,
00100000
00000000
00000000
00010000
00000000
00010000
00000000
10000000
00000000
00000000
00000000
00000000
01000000
00000000
00000000
00000000
,
00200000
00300000
00010000
01000000
,
10000000
00000000
00000000
01000000
00000000
00010000
00000000
01000000
00000000
00000000
00000000
00000000
01010000
00000000
00000000
00000000
,
00001000
00000000
00000000
00010000
00000000
00000100
00000000
00010000
00000000
00000000
00000000
00000000
00010100
00000000
00000000
00000000
,
00001000
00000000
00000000
00000010
00000000
00000001
00000000
00000010
00000000
00000000
00000000
00000000
00000011
00000000
00000000
00000000
,
00002002
00003003
00000220
00000330
,
00001010
00000000
00000000
00000100
00000000
00000000
00000000
00010000
00000000
00000000
00001000
00000000
01000000
00000000
00000000
00000000
,
00100000
00100000
00100000
00100000
00000000
10000000
00000000
01000000
,
00010000
00001000
00000000
00010000
00000000
00001000
00000000
00000100
,
00000001
00000010
00000001
00000100
00000000
00000010
00000000
00001000
,
00000100
00010000
00000000
00001000
00000000
01000000
00000000
00010000
,
00100000
00100000
00100000
00100000
00000000
10000000
00000000
00100000
,
00001000
00010000
00000000
00000010
00000000
00001000
00000000
00000001
,
00000100
00001000
00000100
00000010
00000000
00010000
00000000
00001000
,
00010000
00000000
01000000
00000000
00000000
00000000
00100000
00000000
00010000
00000000
00000000
10000000
00000000
00000000
00000000
01000000
,
00000000
00010000
00001000
00000000
00000000
00000000
00000000
00000000
;

//---------------dance-double - ----------------
#NOTES:
     dance-double:
     :
     Hard:
     8:
     :
00000000
00000000
00000000
00000000
,
00000000
00000000
00000000
00000000
,
00000000
00000000
00000000
00000000
,
00000000
00000000
00000000
00000000
,
00010000
00000000
10000000
01000000
00000000
01000000
00010000
00000000
00000000
00000000
00001000
00000000
00000000
00000000
00010000
00000000
,
00001000
00000000
00001000
00000010
00000000
00000010
00000001
00000000
00000000
00000000
00000100
00000000
00000000
00000000
00000001
00000000
,
00001000
00000000
00000001
00000100
00000000
00000100
00001000
00000000
00000000
00000000
00010000
00000000
00000000
00000000
00001000
00000000
,
00010000
00000000
00010000
00100000
00000000
00100000
10000000
00000000
00000000
00000000
00100000
00000000
00000000
00000000
10000000
00000000
,
00010000
00000000
00010000
01000000
00000000
01000000
00001000
00000000
00000000
00000000
00001000
00010000
00000000
00010000
00000100
00000000
,
00000000
00000000
00000100
00001000
00000000
00001000
00000001
00000000
00000100
00000000
00001000
00000000
00010000
00000000
00100000
00000000
,
20000000
00000000
32000000
00000000
,
03100000
00000000
00000000
00000000
00000000
00001000
00010000
00001000
00000000
00000000
01000000
00000000
00001000
00000000
00010000
00000000
,
00000200
00000000
00000320
00000000
,
00000031
00000000
00000000
00000000
00000000
00000100
00001000
00010000
,
02000000
00000000
23000000
00000000
,
31000000
00000000
00000000
00000000
00100000
00001000
00010000
00000010
,
00000200
00000000
00000320
00000000
,
00000130
00000000
00000000
00001000
00000000
00000000
00010000
00000000
00001000
00000000
00000000
00000000
00011000
00000000
00000000
00000000
,
00010000
00000000
00000000
00100000
00000000
10000000
00000000
00100000
00000000
00000000
10000000
00000000
01000000
00000000
00010000
00000000
,
00001000
00000000
00000000
00000010
00000000
00000001
00000000
00000010
00000000
00000000
00000001
00000000
00000100
00000000
00001000
00000000
,
00010000
00000000
00000000
01000000
00000000
00010000
00000000
00001000
00000000
00000000
00000100
00000000
00000001
00000000
00000010
00000000
,
00000100
00000000
00001000
00000010
00000000
00000100
00000000
00000000
00001000
00000000
00000000
00000000
00000000
00000000
00000000
00000000
,
00010000
00000000
00000000
01000000
00000000
10000000
00000000
00100000
00000000
00000000
10000000
00000000
01000000
00000000
00010000
00000000
,
00001000
00000000
00000000
00000100
00000000
00000001
00000000
00000010
00000000
00000000
00000001
00000000
00000100
00000000
00001000
00000000
,
00010000
00000000
00000000
01000000
00000000
10000000
00000000
00100000
00000000
00000000
01000000
00000000
00010000
00000000
10000000
00000000
,
01000000
00000000
00010000
00001000
00000000
00010000
00000000
00000000
00001000
00000000
00000000
00000000
00010000
00000000
00000000
00000000
,
00002000
00000000
00003200
00000000
,
00000310
00000000
00000000
00000000
00000100
00000001
00000100
00001000
,
00020000
00000000
02030000
00000000
,
13000000
00000000
00000000
00000000
00000000
00100000
01000000
00001000
,
00020000
00000000
00030200
00000000
,
00000310
00000000
00000000
00000000
00000100
00001000
00000010
00000100
,
00002000
00000000
00203000
00000000
,
01300000
00000000
00000000
00010000
00000000
00000000
00001000
00000000
00000100
00000000
00000000
00000000
00000101
00000000
00000000
00000000
,
00000100
00000000
00000000
00000001
00000000
00001010
00000000
00001010
00000000
00000000
00010000
00000000
00001000
00000000
01000000
00000000
,
00010000
00000000
00000000
00100000
00000000
11000000
00000000
11000000
00000000
00000000
00100000
00000000
00001000
00000000
00010000
00000000
,
00000100
00000000
00000000
00000010
00000000
00000101
00000000
00000101
00000000
00000000
00000010
00000000
00010000
00000000
00001000
00010000
,
00001000
00000000
00010000
01000000
00000000
10000000
00000000
00000000
00100000
00000000
00000000
00000000
01100000
00000000
00000000
00000000
,
10000000
00000000
00000000
00010000
00000000
01100000
00000000
01100000
00000000
00000000
00001000
00000000
00010000
00000000
00000100
00000000
,
00001000
00000000
00000000
00000001
00000000
00000110
00000000
00000110
00000000
00000000
00000001
00000000
00001000
00000000
00000100
00000000
,
00010000
00000000
00000000
00001000
00000000
00011000
00000000
00011000
00000000
00000000
00100000
00000000
00010000
00000000
01000000
00010000
,
01000000
00000000
00100000
10000000
00000000
01000000
00000000
00000000
00100000
00000000
00000000
00000000
01100000
00000000
00000000
00000000
,
01010000
00000000
00000000
01001000
00000000
00000000
00000000
00011000
00000000
00000000
00010100
00000000
00001100
00000000
00000000
00000000
,
00001000
00000000
00000100
00000000
00000010
00000000
00000001
00000000
00000100
00000000
00000001
00000100
00000000
00001000
00000000
00010000
,
00000000
01000000
00000000
10000000
00100000
10000000
01000000
10000000
00100000
00000000
01000000
00001000
00000000
00010000
00000000
00000100
,
00001000
00000000
00000010
00000000
00000100
00000000
00000001
00000000
00000010
00000000
00000100
00001000
00000000
00000001
00000000
00000100
,
00000000
00001000
00000000
00010000
00001000
00010000
01000000
00010000
00001000
00000000
00100000
00010000
00000000
10000000
00000000
00010000
,
01000000
00000000
00100000
00000000
10000000
00000000
01000000
00000000
00010000
00000000
00001000
00010000
00000000
00001000
00000000
00000100
,
00000000
00000001
00000000
00000010
00000001
00000010
00001000
00000010
00000100
00000000
00001000
00000001
00000000
00000100
00000000
00000010
,
00001000
00000000
00000001
00000000
00000100
00000000
00001000
00000000
00010000
00000000
01000000
00100000
00000000
00010000
00000000
01000000
,
00000000
00001000
00000000
00010000
00001000
00010000
00000010
00010000
00000100
00000000
00000000
00001000
00000000
00000000
00000000
00000010
,
00000000
00010000
00011000
00000000
00000000
00000000
00000000
00000000
;
