
//----- song ID: rotm -----
#TITLE:Return of the Machines (Radio Mix);
#ARTIST:Oforia feat. Bwicked;
#BANNER:Return of the Machines (Radio Mix).png;
#BACKGROUND:Return of the Machines (Radio Mix)-bg.png;
#CDTITLE:./CDTitles/DDR UNIVERSE3.png;
#MUSIC:Return of the Machines (Radio Mix).ogg;
#OFFSET:-1.479;
#SAMPLESTART:85.217;
#SAMPLELENGTH:15;
#BPMS:0=144;
#BGCHANGES:-3=Return of the Machines (Radio Mix).avi=1=0=0=0;
#NOTES:
     dance-single:
     :
     Beginner:
     1:
     :
0000
0000
0000
0000
,
0000
0000
0000
0000
,
0000
0000
0000
0000
,
0000
0000
0000
0000
,
1000
0000
0000
0000
,
0001
0000
0000
0000
,
0100
0000
0000
0000
,
0001
0000
0000
0000
,
1000
0000
0000
0000
,
0100
0000
0000
0000
,
0010
0000
0000
0000
,
0110
0000
0000
0000
,
0001
0000
0000
0000
,
1000
0000
0000
0000
,
0100
0000
0000
0000
,
0010
0000
0000
0000
,
0001
0000
0000
0000
,
1000
0000
0000
0000
,
0001
0000
0000
0000
,
1001
0000
0000
0000
,
1000
0000
0000
0000
,
0001
0000
0000
0000
,
0100
0000
0000
0000
,
0010
0000
0010
0000
,
1000
0000
0000
0000
,
0100
0000
0000
0000
,
0010
0000
0000
0000
,
0001
0000
0001
0000
,
0000
1000
0000
0000
,
0000
0001
0000
0000
,
0000
0100
0000
0000
,
0000
0010
0000
0000
,
0000
1000
0000
0000
,
0000
0100
0000
0000
,
0000
0001
0000
0000
,
0000
0100
0000
0000
,
0000
1000
0000
0000
,
0000
0010
0000
0000
,
0000
0001
0000
0000
,
0000
0010
0000
0000
,
0000
0000
1000
0000
,
0001
0000
0000
0000
,
1000
0000
0000
0000
,
0100
0000
0000
0000
,
0010
0000
0000
0000
,
0100
0000
0000
0000
,
1000
0000
0000
0000
,
0001
0000
0000
0000
,
0100
0000
0000
0000
,
0001
0000
1000
0000
,
1001
0000
0000
0000
,
0010
0000
0000
0000
,
1000
0000
0000
0000
,
0001
0000
0001
0000
,
1000
0000
0000
0000
,
0100
0000
0000
0000
,
0010
0000
0000
0000
,
0100
0000
0100
0000
,
1000
0000
0000
0000
,
0001
0000
0000
0000
,
0100
0000
0000
0000
,
1000
0000
1000
0000
,
0100
0000
0000
0000
,
0001
0000
0000
0000
,
1000
0000
0000
0000
,
1001
0000
0000
0000
;
#NOTES:
     dance-single:
     :
     Easy:
     2:
     :
0000
0000
0000
0000
,
0000
0000
0000
0000
,
0000
0000
0000
0000
,
0000
0000
0000
0000
,
0100
0000
0000
0000
,
1000
0000
0001
1000
,
0001
0000
0000
0000
,
0100
0000
0001
1000
,
0001
0000
0000
0000
,
0100
0000
0010
0100
,
0010
0000
0000
0000
,
0100
1000
0001
0100
,
0010
0000
0000
0000
,
1000
0000
0100
1000
,
0100
0000
0000
0000
,
1000
0000
0001
0010
,
0001
0000
0000
0000
,
0100
0000
0010
1000
,
0010
0000
0000
0000
,
0100
0000
0001
1000
,
0001
0000
0010
0000
,
0000
0100
0100
0000
,
1000
0000
0000
0000
,
0001
0100
0010
0000
,
0100
0000
0001
0000
,
0000
1000
1000
0000
,
0100
0000
0000
0000
,
0010
0001
0100
0000
,
0000
0010
0000
0000
,
0000
0100
0000
0000
,
0000
0001
0000
0000
,
0000
1000
0000
0000
,
0000
1001
0000
0000
,
0000
0110
0000
0000
,
0000
1001
0000
0000
,
0000
0110
0000
0000
,
0000
1000
0000
0000
,
0000
0001
0000
0000
,
0000
0010
0000
0000
,
0100
0000
0010
0010
,
0010
0000
0000
0000
,
1000
0000
0001
0001
,
0001
0000
1000
0100
,
0001
0000
0100
0000
,
1000
0000
0001
0100
,
1000
0000
0100
0000
,
0001
0000
1000
0010
,
0001
0000
0010
0000
,
1000
0000
0000
0000
,
0001
0000
1000
1000
,
1000
0000
0100
0000
,
0010
0001
0100
0000
,
0010
0000
0100
0000
,
0001
1000
0100
0000
,
1000
0000
0010
0000
,
1000
0100
0010
0000
,
0001
0000
0100
0000
,
1001
0100
0010
0000
,
1000
0000
0001
0000
,
0010
0100
1000
0000
,
0001
0000
0100
0000
,
0010
1000
0001
0000
,
0010
0000
0100
0000
,
1000
0010
0100
0000
,
0001
0000
1000
0000
,
0010
0010
0010
0000
;
#NOTES:
     dance-single:
     :
     Medium:
     4:
     :
0000
0000
0000
0000
,
0000
0000
0000
0000
,
0000
0000
0000
0000
,
0000
0000
0000
0000
,
1000
0100
1000
0000
,
0001
0000
0100
0001
0100
0000
0010
0000
,
0000
1000
0001
0000
,
0010
0000
0100
1000
0100
0000
1000
0000
,
0000
0001
0100
0000
,
0010
0000
0100
0001
0100
0000
0001
0000
,
0000
1000
0001
0010
,
0110
0000
0000
0000
0100
1000
0100
0000
,
1000
0000
0001
0100
,
0010
0000
1000
0001
1000
0000
0100
0000
,
0000
0010
0100
0000
,
1000
0000
0001
0100
0001
0000
0010
0000
,
0000
0100
1000
0000
,
0001
0000
1000
0001
1000
0000
0100
0000
,
0000
0010
0001
1000
,
0100
1000
0110
0000
,
1001
0000
0000
0000
1000
0001
1000
0001
,
0100
0000
0010
0000
,
0110
0000
0000
0000
0100
0010
0100
0010
,
1000
0001
1001
0000
,
1000
0000
0000
0000
1000
0010
1000
0010
,
0100
0000
0001
0000
,
0011
0000
0000
0000
0001
0010
0001
0010
,
0100
1000
1001
0000
,
0000
2000
0000
3000
,
0000
0200
0000
0300
,
0000
0002
0000
0003
,
0000
0020
0000
0030
,
0000
0000
2000
0000
0000
0001
3000
0000
,
0000
0000
0002
0000
0000
0100
0003
0000
,
0000
0000
0200
0000
0000
0010
0300
0000
,
0000
0100
0001
0010
,
0000
0000
0002
0000
0000
1000
0003
0000
,
0000
0000
2000
0000
0000
0010
3000
0000
,
0000
0000
0020
0000
0000
0100
0030
0000
,
0001
0010
0100
1000
,
1001
0000
0000
0000
,
1000
0010
0100
0001
,
1001
0000
0000
0000
0001
0100
0001
0000
,
1000
0000
0000
0000
0100
0010
0100
0000
,
0010
0000
0000
0000
0001
0010
0001
0000
,
0100
0000
0000
0000
0001
0100
0001
0000
,
0100
0000
0000
0000
0010
1000
0010
0000
,
1000
0000
0000
0000
0001
1000
0001
0000
,
0000
1001
0010
0100
,
1001
0100
0001
0000
,
1000
0000
0001
0000
1000
0100
1000
0100
,
1000
0000
1100
0000
,
0001
0000
0010
0000
0001
0100
0001
0100
,
0001
0010
0110
0000
,
0100
0000
1000
0000
0001
1000
0001
1000
,
0001
0000
1001
0000
,
1000
0000
0010
0000
0100
0010
0100
0010
,
0100
0010
1010
0000
,
0001
0000
0100
0000
0000
0010
0000
0000
,
1000
0000
0100
0000
0000
0010
0000
0000
,
0001
0000
1000
0000
0000
0100
0000
0000
,
1000
0001
0100
0000
,
0010
0000
1000
0001
0000
1000
0100
0000
,
0010
0000
0001
1000
0000
0001
0100
0000
,
0010
0000
1000
0100
0000
0010
0001
0000
,
0100
0010
0110
0000
;
#NOTES:
     dance-single:
     :
     Hard:
     6:
     :
0000
0000
0000
0000
,
0000
0000
0000
0000
,
0000
0000
0000
0000
,
0000
0000
0000
0000
,
1001
0000
0000
0000
1000
0100
1000
0000
,
0001
0000
0100
0000
0001
0100
0001
0000
,
1001
0000
0000
0000
0000
0000
0000
0000
0000
0000
0000
0000
0000
0000
0000
0000
0000
0000
0000
0000
0000
0000
0000
0000
0000
0000
0000
0000
0000
0000
0000
0000
0100
0000
0000
0000
0000
0000
0000
0000
0000
0000
0010
0000
0000
0000
0000
0000
0000
0000
0000
0000
0000
1000
0000
0000
0000
0000
0000
0000
0000
0000
0000
0000
,
0001
0000
0010
0000
0100
0010
0100
0000
,
0000
0000
0000
0000
1000
0001
0100
0000
,
0010
0000
1010
0000
0001
1000
0100
0000
,
0000
0000
0000
0000
0000
0000
0000
0000
0000
0000
0000
0000
0000
0000
0000
0000
1000
0000
0000
0000
0000
0000
0000
0000
0000
0000
0000
0000
0000
0000
0000
0000
0001
0000
0000
0000
0000
0000
0000
0000
0000
0000
0010
0000
0000
0000
0000
0000
0000
0000
0000
0000
0000
0001
0000
0000
0000
0000
0000
0000
0000
0000
0000
0000
,
0100
0010
1000
0001
,
0101
0000
0000
0000
0000
0000
0000
0000
0000
0000
0000
0000
0000
0000
0000
0000
0000
0000
0000
0000
0000
0000
0000
0000
0000
0000
0000
0000
0000
0000
0000
0000
1000
0000
0000
0000
0000
0000
0000
0000
0000
0000
0010
0000
0000
0000
0000
0000
0000
0000
0000
0000
0000
1000
0000
0000
0000
0000
0000
0000
0000
0000
0000
0000
,
0100
0000
0010
0010
0000
0001
0000
0000
,
0000
0100
0010
1000
0100
0000
0000
0010
,
0100
0000
0100
0010
0000
0001
0000
0000
,
0000
1000
0010
1000
0100
0000
0000
0010
,
0001
0000
0001
0010
0000
0100
0000
0000
,
0000
0000
0000
0000
0000
0000
0000
0000
0000
0000
0000
0000
0000
0000
0000
0000
1000
0000
0000
0000
0000
0000
0000
0000
0001
0000
0000
0000
0000
0000
0000
0000
1000
0000
0000
0000
0000
0000
0000
0000
0000
0000
0010
0000
0000
0000
0000
0000
0000
0000
0000
0000
0000
0100
0000
0000
0000
0000
0000
0000
0000
0000
0000
0000
,
0001
0100
0001
0010
,
1100
0000
1000
0100
0000
1000
0100
1000
,
0001
0000
1001
0000
,
0010
0000
0001
0100
0000
0001
0100
0001
,
1000
0001
1010
0000
,
0010
0000
0001
0010
0000
0001
0010
0001
,
1000
0000
1001
0000
,
0010
0000
1000
0100
0000
1000
0001
1000
,
0100
0010
0011
0000
,
0101
0000
0000
0000
,
1000
0000
0001
1000
0000
0000
0000
0000
,
0001
0000
1000
0001
0000
0000
0000
0000
,
0100
0000
0010
0100
0000
0000
0000
0000
,
0010
0000
0100
0010
0000
0100
0010
0000
,
1000
0000
0100
1000
0000
0100
1000
0000
,
0001
0000
0100
0001
0000
0100
0001
0000
,
1000
0001
0010
0100
,
1001
0000
1000
0001
0000
1000
0001
0000
,
0011
0000
0001
0010
0000
0001
0010
0000
,
1010
0000
0000
0000
0000
0000
0000
0000
0000
0000
0000
0000
0000
0000
0000
0000
0000
0000
0000
0000
0000
0000
0000
0000
0000
0000
0000
0000
0000
0000
0000
0000
1000
0000
0000
0000
0000
0000
0000
0000
0000
0000
0010
0000
0000
0000
0000
0000
0000
0000
0000
0000
0000
1000
0000
0000
0000
0000
0000
0000
0000
0000
0000
0000
,
0100
0010
0001
0100
,
0110
0000
0000
0000
,
1000
0100
0001
0010
,
1001
0000
1000
0100
1000
0100
0000
0010
,
0001
1000
0001
1001
,
0001
0100
0001
0100
0001
0000
1000
0010
,
1000
0010
0100
0110
,
1000
0100
1000
0010
1000
0000
0001
0010
,
0001
0100
0000
0010
0000
1000
0000
0000
,
0000
0000
0000
0000
0000
0000
0000
0000
0000
0000
0000
0000
0000
0000
0000
0000
0001
0000
0000
0000
0000
0000
0000
0000
1000
0000
0000
0000
0000
0000
0000
0000
0100
0000
0000
0000
0000
0000
0000
0000
0000
0000
0010
0000
0000
0000
0000
0000
0000
0000
0000
0000
0000
0001
0000
0000
0000
0000
0000
0000
0000
0000
0000
0000
,
0100
0000
0010
1000
,
1001
0000
1000
0100
0000
1000
0001
0100
,
0010
0000
0100
0010
0000
1000
0001
0010
,
0100
0000
0010
0100
0000
1000
0001
0100
,
1000
0100
0001
0010
,
0110
0000
0001
1000
0000
0001
1000
0010
,
0100
0000
0010
0100
0000
0001
1000
0100
,
0010
0000
0100
0010
0000
0001
1000
0100
,
0001
0100
1000
0000
,
1001
0000
1000
1000
0000
0001
0100
0001
,
0100
0000
0001
0001
0000
1000
0100
1000
,
0100
0000
1000
1000
0000
0010
0100
0010
,
0100
0001
1000
0100
0010
0000
0001
0000
,
0100
0000
0010
0010
0000
1000
0100
1000
,
0010
0000
0100
0100
0000
0001
0100
0001
,
0010
0000
0100
0100
0000
1000
0010
0100
,
0001
1100
0101
0000
;
#NOTES:
     dance-double:
     :
     Beginner:
     1:
     :
00000000
00000000
00000000
00000000
,
00000000
00000000
00000000
00000000
,
00000000
00000000
00000000
00000000
,
00000000
00000000
00000000
00000000
,
10000000
00000000
00000000
00000000
,
00100000
00000000
00000000
00000000
,
00010000
00000000
00000000
00000000
,
00001000
00000000
00000000
00000000
,
00000100
00000000
00000000
00000000
,
00000001
00000000
00000000
00000000
,
00001000
00000000
00000000
00000000
,
00001001
00000000
00000000
00000000
,
00000001
00000000
00000000
00000000
,
00000010
00000000
00000000
00000000
,
00001000
00000000
00000000
00000000
,
00010000
00000000
00000000
00000000
,
01000000
00000000
00000000
00000000
,
10000000
00000000
00000000
00000000
,
00010000
00000000
00000000
00000000
,
10010000
00000000
00000000
00000000
,
01000000
00000000
00000000
00000000
,
00001000
00000000
00000000
00000000
,
00010000
00000000
00000000
00000000
,
00001000
00000000
00001000
00000000
,
00010000
00000000
00000000
00000000
,
00000100
00000000
00000000
00000000
,
00000010
00000000
00000000
00000000
,
00000001
00000000
00000001
00000000
,
00000000
00001000
00000000
00000000
,
00000000
00000100
00000000
00000000
,
00000000
00010000
00000000
00000000
,
00000000
00001000
00000000
00000000
,
00000000
01000000
00000000
00000000
,
00000000
00010000
00000000
00000000
,
00000000
10000000
00000000
00000000
,
00000000
00010000
00000000
00000000
,
00000000
00100000
00000000
00000000
,
00000000
00001000
00000000
00000000
,
00000000
00010000
00000000
00000000
,
00000000
00000100
00000000
00000000
,
00000000
00000000
00001000
00000000
,
00000001
00000000
00000000
00000000
,
00000100
00000000
00000000
00000000
,
00001000
00000000
00000000
00000000
,
00010000
00000000
00000000
00000000
,
01000000
00000000
00000000
00000000
,
10000000
00000000
00000000
00000000
,
01000000
00000000
00000000
00000000
,
00010000
00000000
00000000
00000000
,
00001000
00000000
00010000
00000000
,
00011000
00000000
00000000
00000000
,
00010000
00000000
00000000
00000000
,
00000100
00000000
00000000
00000000
,
00001000
00000000
00001000
00000000
,
00000010
00000000
00000000
00000000
,
00000100
00000000
00000000
00000000
,
00000001
00000000
00000000
00000000
,
00000100
00000000
00000100
00000000
,
00001000
00000000
00000000
00000000
,
00010000
00000000
00000000
00000000
,
01000000
00000000
00000000
00000000
,
10000000
00000000
10000000
00000000
,
01000000
00000000
00000000
00000000
,
00010000
00000000
00000000
00000000
,
00001000
00000000
00000000
00000000
,
00011000
00000000
00000000
00000000
;
#NOTES:
     dance-double:
     :
     Easy:
     2:
     :
00000000
00000000
00000000
00000000
,
00000000
00000000
00000000
00000000
,
00000000
00000000
00000000
00000000
,
00000000
00000000
00000000
00000000
,
00100000
00000000
00000000
00000000
,
10000000
00000000
01000000
00100000
,
00001000
00000000
00000000
00000000
,
00010000
00000000
00000100
00001000
,
00000010
00000000
00000000
00000000
,
00000100
00000000
00000001
00001000
,
00000010
00000000
00000000
00000000
,
00000100
00001000
00010000
00001000
,
01000000
00000000
00000000
00000000
,
00100000
00000000
10000000
00010000
,
01000000
00000000
00000000
00000000
,
00001000
00000000
00010000
00001000
,
00010000
00000000
00000000
00000000
,
00000100
00000000
00000010
00000001
,
00000100
00000000
00000000
00000000
,
00000001
00000000
00000100
00000010
,
00010000
00000000
00001000
00000000
,
00000000
01000000
01000000
00000000
,
00010000
00000000
00000000
00000000
,
10000000
01000000
00100000
00000000
,
00001000
00000000
00010000
00000000
,
00000000
00000100
00000100
00000000
,
00001000
00000000
00000000
00000000
,
00000001
00000010
00000100
00000000
,
00000000
00001000
00000000
00000000
,
00000000
00000100
00000000
00000000
,
00000000
00010000
00000000
00000000
,
00000000
00001000
00000000
00000000
,
00000000
00100000
00000000
00000000
,
00000000
00010000
00000000
00000000
,
00000000
01000000
00000000
00000000
,
00000000
00001000
00000000
00000000
,
00000000
00010000
00000000
00000000
,
00000000
00000100
00000000
00000000
,
00000000
00001000
00000000
00000000
,
00000001
00000000
00000001
00000001
,
00000001
00000000
00000000
00000000
,
00000100
00000000
00001000
00001000
,
00001000
00000000
00010000
00001000
,
00010000
00000000
01000000
00000000
,
10000000
00000000
00100000
01000000
,
00100000
00000000
01000000
00000000
,
00001000
00000000
00010000
00001000
,
00010000
00000000
00000100
00000000
,
00000010
00000000
00000000
00000000
,
00000001
00000000
00001000
00001000
,
00001000
00000000
00000010
00000000
,
00000100
00001000
00010000
00000000
,
00001000
00000000
00100000
00000000
,
00010000
01000000
00100000
00000000
,
10000000
00000000
00010000
00000000
,
00100000
01000000
00010000
00000000
,
00001000
00000000
00010000
00000000
,
00011000
00001000
00010000
00000000
,
00000100
00000000
00001000
00000000
,
00000001
00000100
00001000
00000000
,
00010000
00000000
00001000
00000000
,
00010000
01000000
10000000
00000000
,
00010000
00000000
01000000
00000000
,
00001000
00010000
00001000
00000000
,
00010000
00000000
00000010
00000000
,
00001000
00001000
00001000
00000000
;
#NOTES:
     dance-double:
     :
     Medium:
     4:
     :
00000000
00000000
00000000
00000000
,
00000000
00000000
00000000
00000000
,
00000000
00000000
00000000
00000000
,
00000000
00000000
00000000
00000000
,
10000000
01000000
00100000
00000000
,
00010000
00000000
01000000
00001000
01000000
00000000
00001000
00000000
,
00000000
00000100
00000010
00000000
,
00001000
00000000
00000001
00001000
00000001
00000000
00000100
00000000
,
00000000
00001000
00010000
00000000
,
01000000
00000000
00100000
00010000
00100000
00000000
00010000
00000000
,
00000000
10000000
00010000
00100000
,
00011000
00000000
00000000
00000000
00001000
00010000
00001000
00000000
,
00000100
00000000
00000001
00000010
,
00000001
00000000
00000100
00000010
00000100
00000000
00001000
00000000
,
00000000
00010000
00001000
00000000
,
00010000
00000000
01000000
00100000
01000000
00000000
10000000
00000000
,
00000000
00010000
00100000
00000000
,
00001000
00000000
00010000
00001000
00010000
00000000
00001000
00000000
,
00000000
00000100
00000010
00001000
,
00000001
00000100
00000101
00000000
,
00001100
00000000
00000000
00000000
00010000
00001000
00010000
00001000
,
00010000
00000000
00001000
00000000
,
00110000
00000000
00000000
00000000
01000000
00100000
01000000
00100000
,
01000000
10000000
10010000
00000000
,
01000000
00000000
00000000
00000000
00010000
00100000
00010000
00100000
,
00010000
00000000
00100000
00000000
,
00101000
00000000
00000000
00000000
00010000
00001000
00010000
00001000
,
00010000
00000100
00001100
00000000
,
00000000
00000002
00000000
00000003
,
00000000
00000020
00000000
00000030
,
00000000
00002000
00000000
00003000
,
00000000
00020000
00000000
00030000
,
00000000
00200000
00000000
00300000
,
00000000
20000000
00000000
30000000
,
00000000
02000000
00000000
03000000
,
00000000
00100000
00001000
00010000
,
00000000
00000000
00002000
00000000
00000000
00010000
00003000
00000000
,
00000000
00000000
00020000
00000000
00000000
00000100
00030000
00000000
,
00000000
00000000
00000200
00000000
00000000
00000010
00000300
00000000
,
00000001
00000100
00001000
00000100
,
00000110
00000000
00000000
00000000
,
00000100
00001000
00010000
01000000
,
01100000
00000000
00000000
00000000
01000000
10000000
01000000
00000000
,
10000000
00000000
00000000
00000000
00010000
01000000
00010000
00000000
,
01000000
00000000
00000000
00000000
00001000
00010000
00001000
00000000
,
00010000
00000000
00000000
00000000
00000100
00010000
00000100
00000000
,
00010000
00000000
00000000
00000000
00000010
00001000
00000010
00000000
,
00001000
00000000
00000000
00000000
00000001
00001000
00000001
00000000
,
00000000
00001001
00000100
00000010
,
00010010
00010000
00001000
00000000
,
00010000
00000000
01000000
00000000
00100000
01000000
00100000
01000000
,
00100000
00000000
11000000
00000000
,
00010000
00000000
00100000
00000000
00001000
00010000
00001000
00010000
,
00001000
00010000
00001100
00000000
,
00001000
00000000
00000010
00000000
00000100
00000001
00000100
00000001
,
00000100
00000000
00000110
00000000
,
00010000
00000000
00001000
00000000
00010000
00000100
00010000
00000100
,
00010000
00001000
01010000
00000000
,
00100000
00000000
10000000
00000000
00000000
01000000
00000000
00000000
,
10000000
00000000
01000000
00000000
00000000
00100000
00000000
00000000
,
00010000
00000000
01000000
00000000
00000000
00001000
00000000
00000000
,
00010000
00001000
00010000
00000000
,
00000100
00000000
00001000
00000010
00000000
00001000
00000100
00000000
,
00000010
00000000
00000001
00001000
00000000
00000001
00000100
00000000
,
00001000
00000000
00010000
00001000
00000000
00010000
01000000
00000000
,
00100000
00010000
00110000
00000000
;
#NOTES:
     dance-double:
     :
     Hard:
     6:
     :
00000000
00000000
00000000
00000000
,
00000000
00000000
00000000
00000000
,
00000000
00000000
00000000
00000000
,
00000000
00000000
00000000
00000000
,
01100000
00000000
00000000
00000000
00100000
00010000
00100000
00000000
,
00001000
00000000
00010000
00000000
00000010
00001000
00000010
00000000
,
00000110
00000000
00000000
00000000
00000001
00000100
00000001
00000100
,
00001000
00000000
00010000
00000000
01000000
10000000
01000000
00000000
,
00000000
00000000
00000000
00000000
10000000
00010000
01000000
00000000
,
00001000
00000000
00011000
00000000
00010000
00000010
00001000
00000000
,
00000000
00000000
00000001
00000000
00000100
00000010
00001000
00000100
,
00010000
00001000
01000000
00010000
,
01010000
00000000
00000000
00000000
00010000
01000000
00100000
10000000
,
01000000
00000000
00100000
00100000
00000000
00010000
00000000
00000000
,
00000000
10000000
01000000
00010000
00001000
00000000
00000000
00010000
,
00001000
00000000
00001000
00010000
00000000
00001000
00000000
00000000
,
00000000
00000100
00000001
00000010
00000001
00000000
00000000
00000100
,
00000010
00000000
00000010
00000100
00000000
00000001
00000000
00000000
,
00000000
00000000
00000100
00001000
00000100
00000000
00001000
00000000
,
00010000
01000000
10000000
00100000
,
01010000
00000000
00100000
10000000
00000000
01000000
10000000
01000000
,
00010000
00000000
00011000
00000000
,
00001000
00000000
00000010
00000001
00000000
00000100
00000010
00000100
,
00001000
00010000
00011000
00000000
,
01000000
00000000
00010000
00100000
00000000
00010000
10000000
01000000
,
00010000
00000000
00011000
00000000
,
00001000
00000000
00000100
00000010
00000000
00001000
00000001
00000100
,
00001000
00010000
00011000
00000000
,
01010000
00000000
00000000
00000000
,
10000000
11000000
00000000
00000000
,
00100000
00110000
00000000
00000000
,
00001000
00011000
00000000
00000000
,
00000100
00000000
00001100
00000000
00000000
00001000
00000100
00000000
,
00000001
00000000
00001001
00000000
00000000
00000001
00001000
00000000
,
00000010
00000000
00010010
00000000
00000000
00010000
00000010
00000000
,
00010000
00001000
00010000
01000000
,
00100000
00000000
01100000
00000000
00000000
01000000
00100000
00000000
,
00010000
00000000
10010000
00000000
00000000
10000000
00010000
00000000
,
01000000
00000000
01001000
00000000
00000000
01000000
00001000
00000000
,
00010000
00000010
00001000
00000100
,
00000110
00000000
00000000
00000000
,
00000001
00000100
00001000
00010000
,
01000000
00000000
00100000
00010000
00100000
00010000
00000000
10000000
,
01000000
00100000
00001000
00101000
,
00000000
00010000
00001000
00010000
00001000
00000000
00000100
00000010
,
00000100
00000001
00001000
00001001
,
00000000
00000010
00000001
00000100
00000001
00000000
00000100
00000010
,
00000100
00001000
00000000
00010000
00000000
01000000
00000000
00000000
,
00000000
00000000
10000000
00010000
01000000
00100000
10000000
01000000
,
00010000
00000000
00001000
00010000
,
00011000
00000000
00010000
00001000
00000000
00010000
00001000
00000100
,
00000001
00000000
00000100
00000010
00000000
00000100
00001000
00010000
,
01000000
00000000
00100000
01000000
00000000
10000000
01000000
00100000
,
00010000
01000000
00001000
00010000
,
00011000
00000000
00001000
00010000
00000000
00000100
00001000
00000001
,
00000100
00000000
00000010
00001000
00000000
00000001
00000100
00001000
,
00010000
00000000
00001000
00010000
00000000
00001000
00010000
01000000
,
10000000
00100000
01000000
00000000
,
01100000
00000000
00010000
01000000
00010000
01000000
00001000
00100000
,
00001000
00000000
00010000
00001000
00010000
00000100
00001000
00000100
,
00001000
00000000
00000010
00001000
00000010
00000100
00000001
00000100
,
00000001
00000010
00000100
00010000
00001000
00000000
00010000
00000000
,
01000000
00000000
10000000
01000000
10000000
01000000
00100000
01000000
,
00010000
00000000
00001000
00010000
00001000
00010000
00000010
00010000
,
00001000
00000000
00000100
00000010
00000100
00000001
00000010
00000100
,
00001000
00000100
00011000
00000000
;
