
//----- song ID: rave -----
#TITLE:Rave Until The Night Is Over (Universe Edit);
#ARTIST:DM Ashura feat. MC Jay & Weronica;
#BANNER:Rave Until The Night Is Over (Universe Edit).png;
#BACKGROUND:Rave Until The Night Is Over (Universe Edit)-bg.png;
#CDTITLE:./CDTitles/DDR UNIVERSE3.png;
#MUSIC:Rave Until The Night Is Over (Universe Edit).ogg;
#OFFSET:-0.001;
#SAMPLESTART:26.662;
#SAMPLELENGTH:15;
#BPMS:0=144;
#NOTES:
     dance-single:
     :
     Beginner:
     1:
     :
0000
0000
0000
0000
,
0000
0000
0000
0000
,
0000
0000
0000
0000
,
0000
0000
0000
0000
,
1000
0000
0000
0000
,
0001
0000
0000
0000
,
1000
0000
0000
0000
,
0001
0000
0000
0000
,
0010
0010
0000
0000
,
0100
0100
0000
0000
,
1000
1000
0000
0000
,
0001
0001
0000
0000
,
1000
1000
0000
0000
,
0010
0010
0000
0000
,
0100
0100
0000
0000
,
0001
0001
0000
0000
,
0010
0000
0000
0000
,
0001
0000
0000
0000
,
0100
0000
0000
0000
,
0010
0000
0000
0000
,
0100
0000
0000
0000
,
0010
0000
0000
0000
,
1000
0000
0000
0000
,
0100
0000
0000
0000
,
1000
0000
1000
0000
,
1000
0000
0000
0000
,
0001
0000
0001
0000
,
0001
0000
0000
0000
,
0010
0000
0010
0000
,
0010
0000
0000
0000
,
0100
0000
0100
0000
,
0100
0000
0000
0000
,
1000
1000
0000
0000
,
0001
0001
0000
0000
,
0010
0010
0000
0000
,
0100
0100
0000
0000
,
1000
1000
0000
0000
,
0010
0010
0000
0000
,
0100
0100
0000
0000
,
0001
0001
0000
0000
,
1000
0000
0000
0000
,
0100
0000
0000
0000
,
0001
0000
0000
0000
,
0100
0000
0000
0000
,
1000
0000
0000
0000
,
0010
0000
0000
0000
,
0001
0000
0000
0000
,
0010
0000
0000
0000
,
1000
0000
0001
0000
,
1000
0000
0000
0000
,
0010
0000
0100
0000
,
0010
0000
0000
0000
,
1000
0000
0100
0000
,
1000
0000
0000
0000
,
0001
0000
0100
0000
,
0001
0000
0000
0000
,
0020
0000
0000
0030
,
0010
0000
0000
0000
,
0200
0000
0000
0300
,
0100
0000
0000
0000
,
1000
0000
0001
0000
,
1000
0000
0000
0000
,
0001
0000
0010
0000
,
0100
0000
1000
0000
,
2002
0000
0000
3003
;
#NOTES:
     dance-single:
     :
     Easy:
     4:
     :
0000
0000
0000
0000
,
0000
0000
0000
0000
,
0000
0000
0000
0000
,
0000
0000
0000
0000
,
1000
0000
0010
0000
,
1000
0000
0100
0000
,
0001
0000
0010
0000
,
0001
0000
0100
0000
,
1000
0010
0100
0010
,
1000
0001
1000
0000
,
0001
0010
0100
0010
,
0001
1000
0001
0000
,
0100
0001
1000
0100
,
0010
0001
1000
0000
,
0020
0030
0200
0300
,
0001
0001
1000
1000
,
0001
1000
0110
0000
,
1000
0100
0010
0001
,
0100
0001
1001
0000
,
1000
0100
0010
0100
,
1000
0001
0110
0000
,
0001
0100
0010
1000
,
0100
1000
0001
0010
,
0100
1000
0001
0000
,
0200
0300
0020
0030
,
1000
0100
0010
0001
,
0200
0300
0020
0030
,
1000
0100
0010
0001
,
0020
0030
0200
0300
,
1000
0010
0100
0001
,
0020
0030
0200
0300
,
1000
0010
0100
0001
,
1000
0100
1000
0010
,
0100
0001
0010
0000
,
0001
1000
0001
0100
,
1000
0100
0001
0000
,
1000
0001
1000
0100
,
0001
0100
1000
0000
,
0002
0003
2000
3000
,
0010
0010
0100
0100
,
0001
1000
0110
0000
,
1000
0100
0010
0001
,
0100
0001
1001
0000
,
1000
0100
0010
0100
,
1000
0001
0110
0000
,
0001
0100
0010
1000
,
0100
1000
0001
0010
,
0100
1000
0001
0000
,
1000
0010
1001
0000
,
0010
0001
0100
1000
,
0100
0001
0110
0000
,
0001
0100
0010
1000
,
0001
0010
1001
0000
,
0010
1000
0100
0001
,
0100
1000
0001
0010
,
0100
1000
0001
0000
,
0010
0000
0001
0000
,
0100
0000
1000
0000
,
0010
0000
1000
0000
,
0100
0000
0001
0000
,
0020
0030
0200
0300
,
1000
0010
0100
0001
,
0020
0030
0200
0300
,
1000
0010
0100
0001
,
0020
0000
0000
0030
;
#NOTES:
     dance-single:
     :
     Medium:
     6:
     :
0000
0000
0000
0000
,
0000
0000
0000
0000
,
0000
0000
0000
0000
,
0000
0000
0000
0000
,
0001
0000
0100
0000
0001
0000
0100
0010
,
1000
0000
0100
0000
1000
0000
0100
0010
,
0001
0000
1000
0000
0001
0000
1000
0001
,
0010
0000
0100
0000
0010
0000
0100
1000
,
0001
0000
0100
0000
0001
0100
1000
0000
,
0100
0000
0001
0000
1000
0100
0001
0000
,
0100
0000
1000
0000
0001
0010
1000
0000
,
0010
0000
0001
0000
1000
0010
0001
0000
,
0010
0000
1000
0000
0100
0010
0001
0000
,
0100
0000
0010
0000
1000
0100
0010
0000
,
1001
0000
0000
0100
0110
0000
0000
0001
,
1001
0110
2002
3003
,
1100
0000
0101
0000
0010
1000
0100
0000
,
1000
0001
0010
0010
,
0011
0000
1010
0000
0100
0001
1000
0000
,
0100
1000
0020
0030
,
1010
0000
0011
0000
0100
1000
0010
0000
,
1000
0001
0100
0100
,
0010
1000
0001
1000
,
0100
0010
0001
0000
,
0100
0001
0100
0000
0001
1000
0001
0000
,
0020
0032
2003
3200
,
0310
0001
0010
0000
0001
1000
0001
0000
,
0200
0302
2003
3020
,
1030
0100
1000
0000
0010
0100
0010
0000
,
2000
3200
0320
0032
,
0103
0010
0100
0000
0001
1000
0001
0000
,
0020
0230
2300
3002
,
0103
0000
0010
0000
1000
0100
0001
0000
,
0100
0000
1000
0000
0001
0100
1000
0000
,
0100
0000
0010
0000
1000
0001
0010
0000
,
0100
0000
1000
0000
0001
0010
1000
0000
,
0010
0000
0001
0000
0100
0010
1000
0000
,
0100
0000
0010
0000
0001
0100
0010
0000
,
1001
0000
0000
0010
0110
0000
0000
1000
,
1001
0110
2002
3003
,
0101
0000
1100
0000
0010
0001
0100
0000
,
0001
1000
0010
0010
,
1010
0000
0011
0000
0100
1000
0001
0000
,
0100
0001
0020
0030
,
0011
0000
1010
0000
0100
0001
0010
0000
,
0001
1000
0100
0100
,
0010
0001
1000
0001
,
0100
0010
1000
0000
,
1010
0000
0101
0000
0010
1000
0100
0000
,
1000
1000
0001
0000
0010
0010
0100
0000
,
0011
0000
1100
0000
0010
0001
0100
0000
,
0001
0001
1000
0000
0200
0000
0300
0000
,
1001
0000
0110
0000
1000
0001
0100
0000
,
0010
0010
1000
0000
0100
0100
0010
0000
,
0001
0100
0010
1000
,
0100
0010
0001
0000
,
0100
0010
0100
0010
,
2000
3200
0320
0032
,
1003
0001
1000
0001
,
0020
0230
2300
3002
,
0103
0010
0100
0000
0001
0010
0001
0000
,
0200
0302
2003
3020
,
1030
0100
1000
0000
0001
1000
0001
0000
,
2000
3200
0320
0032
,
0203
0000
0000
0300
;
#NOTES:
     dance-single:
     :
     Hard:
     8:
     :
0000
0000
0000
0000
,
0000
0000
0000
0000
,
0000
0000
0000
0000
,
0000
0000
0000
0000
,
0010
0000
0000
1000
0000
0000
0100
0000
0000
1000
0000
0000
0001
0000
0100
0000
,
0010
0000
0000
1000
0000
0000
0001
0000
0000
0010
0000
0000
0100
0000
0010
0000
,
0001
0000
0000
0100
0000
0000
0001
0000
0000
1000
0000
0000
0010
0000
1000
0000
,
0100
0000
0000
0010
0000
0000
0001
0000
0000
1000
0000
0000
0010
0000
1000
0000
,
0100
0010
0001
0100
0010
1000
0100
0010
,
0001
1000
0001
0010
0001
0100
0010
0000
,
1000
0001
0010
1000
0010
0100
1000
0010
,
0100
0001
1000
0010
1000
0100
0010
0000
,
0001
0100
1000
0100
0001
1000
0100
0010
,
0001
0100
0010
0100
0001
0010
0100
1000
,
1010
0000
0000
0001
0011
0000
0000
1000
,
1100
0000
0101
0000
0010
1000
0001
1000
,
0200
0000
0001
0000
1000
1000
1300
0000
,
0001
0001
1000
1000
0010
0010
1000
0010
,
0200
0000
1000
0000
0001
0001
0301
1000
,
0010
0000
1000
0000
0100
0000
0010
0000
0001
0000
0000
1000
0001
0000
0100
0000
,
0020
0000
0001
0000
1000
1000
1030
0000
,
0100
0010
0001
0100
0010
1000
0100
1000
,
0001
0100
0010
0001
0010
1000
0001
1000
,
0100
0010
0001
0100
0010
0000
0000
0000
,
1000
0000
0001
0000
0100
0000
0000
0010
0000
0000
0100
0000
0001
0000
0010
0000
,
0001
0000
1000
0000
0010
0000
0000
1000
0000
0000
0100
0000
0010
0000
0001
0000
,
0100
0000
0001
0000
1000
0000
0000
0001
0000
0000
0010
0000
0100
0000
1000
0000
,
0010
0000
0100
0000
0001
0000
0000
1000
0000
0000
0000
0001
1000
0000
0010
0000
,
0100
0000
0001
0000
0010
0000
0000
0100
0000
0000
0010
0000
0001
0000
1000
0000
,
0010
0000
1000
0000
0100
0000
0000
1000
0000
0000
0001
0000
0010
0000
0100
0000
,
1000
0000
0010
0000
0100
0000
0000
0010
0000
0000
1000
0000
0001
0000
1000
0000
,
0100
0000
0010
0000
0001
0000
0000
0100
0000
0000
0010
0000
1000
0000
0100
0000
,
1000
0100
0001
0100
0010
0001
0100
0010
,
0001
0010
1000
0100
1000
0001
0100
0000
,
0010
1000
0001
0010
0100
1000
0010
0100
,
0001
0010
0001
1000
0010
1000
0100
0000
,
1000
0001
1000
0010
0100
0001
0010
0100
,
1000
0010
1000
0100
0001
0100
1000
0001
,
0011
0000
0000
1000
1010
0000
0000
0001
,
0101
0000
1100
0000
0010
0001
1000
0001
,
0200
0000
1000
0000
0001
0001
0301
0000
,
0010
0010
0100
0100
1000
1000
0001
0010
,
0200
0000
0001
0000
1000
1000
1300
0001
,
0010
0000
0001
0000
0100
0000
0010
0000
1000
0000
0000
0001
1000
0000
0100
0000
,
0020
0000
1000
0000
0001
0001
0031
0000
,
0100
0010
1000
0100
1000
0001
0100
0010
,
1000
0100
0010
1000
0010
0001
1000
0001
,
0100
0010
1000
0100
0010
0000
0000
0000
,
0200
1000
1300
0000
0020
0100
0130
0000
,
0001
0001
1000
1000
0010
0010
1000
0010
,
0200
0001
0301
0000
0020
0100
0130
1000
,
0001
0000
1000
0000
0010
0000
0100
0000
0001
0000
0000
1000
0100
0000
0010
0000
,
0002
0100
0103
0000
2000
0100
3100
0000
,
0001
0010
0100
1000
0010
1000
0100
1000
,
0001
0010
0100
0001
0100
1000
0010
1000
,
0100
0010
0001
0100
0010
0000
0000
0000
,
2001
0100
0001
3100
,
0010
0001
0100
1000
,
1002
0100
1000
0103
,
0010
1000
0100
0001
,
0010
0100
1000
0010
0100
0001
0010
0100
,
0010
0001
0100
1000
,
0010
0100
0001
0010
0100
1000
0010
0100
,
0010
1000
0100
0001
,
0020
0000
0000
0030
;
#NOTES:
     dance-single:
     :
     Challenge:
     9:
     :
0000
0000
0000
0000
,
0000
0000
0000
0000
,
0000
0000
0000
0000
,
0000
0000
0000
0000
,
1000
0000
0001
0100
0000
0001
0100
0000
0001
0100
0000
0001
0100
0000
0010
0000
,
1000
0000
0100
0010
0000
0100
0010
0000
0100
0010
0000
0100
0010
0000
0001
0000
,
0100
0000
0010
1000
0000
0001
1000
0000
0010
0100
0000
0001
0100
0000
0010
0000
,
0100
0000
0001
0010
0000
0100
0010
0000
0001
1000
0000
0100
1000
0000
0010
0000
,
1000
0000
0001
0000
0100
0000
0010
0000
0100
0001
1000
0000
0100
0000
1000
0001
,
1000
0000
0010
0000
0100
0000
0001
1000
0001
0000
0010
0000
0100
0000
1000
0000
,
0001
0000
0100
0000
0001
0000
0010
0001
0010
0000
0100
0000
1000
0000
0010
1000
,
0010
0000
1000
0000
0100
0000
1000
0001
1000
0000
0001
0000
0100
0000
1000
0000
,
0100
0000
0010
0000
1000
0000
0100
0000
1000
0010
0100
0000
0001
0000
0010
0000
,
0100
0000
0001
0000
0100
0000
0010
0000
0001
0000
1000
0001
1000
0000
0001
0000
,
0100
0100
0010
0010
1000
0001
1000
0100
,
0010
0001
1000
0000
0010
0000
1000
0000
0100
0000
0001
0000
0100
0000
1000
0000
,
1010
0000
0000
0000
0101
0000
0000
0000
0010
0000
0100
1000
0000
0000
0000
0000
,
0001
0000
1000
0001
0000
0010
0000
0002
0000
0000
1000
0000
1000
0000
1003
0000
,
1001
0000
0000
0000
1100
0000
0000
0000
0100
0000
0010
0001
0000
0000
0100
0000
,
1000
0100
0010
1000
0001
0010
1000
0010
,
0011
0000
0000
0000
1100
0000
0000
0000
0010
0000
0100
0001
0000
0000
0000
0000
,
1000
0000
0100
0010
0000
0001
0000
2000
0000
0000
0001
0000
0001
0000
3001
0000
,
1000
0000
0010
0000
0100
0000
0010
0000
1000
0000
0001
0010
0000
0000
0001
0000
,
1000
0000
0001
0100
0000
0000
0010
0000
0100
0000
0001
1000
0001
1000
0001
1000
,
0100
0000
0010
0000
0001
0000
1000
0010
0000
0010
0100
0000
0001
0000
0010
0000
,
0001
0000
0100
0000
0001
0000
1000
0100
0000
0100
0010
0000
0001
0000
0100
0000
,
1000
0000
0100
0000
0010
0000
1000
0001
0000
0001
0010
0000
1000
0000
0010
0000
,
0001
0000
0100
0000
0001
0000
0010
0001
0000
0001
0100
0000
0010
0000
1000
0000
,
0001
0000
1000
0000
0100
0000
0010
0001
0000
0001
1000
0000
0010
0000
0100
0000
,
0001
0000
0010
0000
1000
0000
0010
0001
0000
0001
1000
0000
0100
0000
0010
0000
,
0100
0000
1000
0000
0010
0000
0100
0010
0000
0010
1000
0000
0001
0000
1000
0000
,
0100
0000
0010
0000
0001
0000
1000
0000
0001
0000
0100
0010
0100
0010
0100
0010
,
1000
0000
0001
1000
0000
0000
0001
0010
0100
0000
1000
0001
0000
0000
0100
0000
,
0001
0000
1000
0100
1000
0000
0010
0100
0010
0000
1000
0001
0000
0000
1000
0000
,
0001
0000
0010
0000
0100
0000
1000
0010
0100
0000
0001
0000
1000
0000
0001
1000
,
0001
0000
0010
0000
0100
0000
0010
0001
0010
0000
0001
0000
1000
0000
0001
0000
,
0100
0000
0001
0000
0010
0000
1000
0000
0010
0000
0001
1000
0000
0000
0010
1000
,
0100
1000
0100
0000
0010
0000
0001
1000
0001
0000
1000
0100
0000
0000
0010
0000
,
0001
0100
0001
0010
0100
1000
0010
1000
,
0001
1000
0100
0000
0001
0000
0100
0000
0010
0000
0001
0000
0100
0000
0001
0000
,
0011
0000
0000
0000
1100
0000
0000
0000
0010
0000
0001
0100
0000
0000
0000
0000
,
0001
0000
1000
0001
0000
0010
0000
0200
0000
0000
1000
0000
1000
0000
1300
0000
,
1100
0000
0000
0000
0101
0000
0000
0000
0001
0000
0010
0100
0000
0000
0010
0000
,
0001
0100
1000
0100
0010
1000
0001
1000
,
1010
0000
0000
0000
0101
0000
0000
0000
0010
0000
1000
0100
0000
0000
0000
0000
,
1000
0000
0001
1000
0000
0010
0000
0200
0000
0000
0001
0000
0001
0000
0301
0000
,
0100
0000
0010
0000
1000
0000
0001
0000
0100
0000
0001
0010
0000
0000
0100
0000
,
1000
0000
0001
0100
0000
0000
0010
0000
0100
0000
0001
0000
1000
0000
0100
0000
,
0110
0000
0000
0000
0011
0000
0000
0000
0100
0000
1000
0001
0000
0000
0000
0000
,
0100
0000
0010
1000
0000
0001
0000
0020
0000
0000
0100
0000
0100
0000
0130
0000
,
1100
0000
0000
0000
1001
0000
0000
0000
0001
0000
1000
0010
0000
0000
0100
0000
,
0001
0010
0100
0001
0100
1000
0001
0100
,
0110
0000
0000
0000
1010
0000
0000
0000
0100
0000
0001
1000
0000
0000
0000
0000
,
0100
0000
0010
0001
0000
1000
0000
0020
0000
0000
0100
0000
0100
0000
0130
0000
,
0010
0000
1000
0000
0100
0000
0001
0000
0100
0000
1000
0001
0000
0000
0100
0000
,
0010
0000
1000
0000
0001
0000
0010
0000
0100
0000
1000
0001
1000
0001
1000
0001
,
0100
0010
0100
0000
0001
1000
0001
0000
,
0020
0032
0203
2300
,
3010
0100
0010
0000
1000
0001
1000
0000
,
0020
2030
3200
0302
,
0013
0000
0100
0000
1000
0000
0010
0100
0000
0100
0001
0000
1000
0000
0100
0000
,
0010
0000
0001
0000
0100
0000
1000
0100
0000
0100
0001
0000
1000
0000
0100
0000
,
0010
0000
0001
0000
1000
0000
0010
0100
0000
0100
0001
0000
1000
0000
0100
0000
,
0010
0000
1000
0000
0010
0000
0001
0000
1000
0100
1000
0001
0100
0001
0010
0100
,
2000
0000
0000
3000
;
#NOTES:
     dance-double:
     :
     Beginner:
     1:
     :
00000000
00000000
00000000
00000000
,
00000000
00000000
00000000
00000000
,
00000000
00000000
00000000
00000000
,
00000000
00000000
00000000
00000000
,
00100000
00000000
00000000
00000000
,
10000000
00000000
00000000
00000000
,
01000000
00000000
00000000
00000000
,
00010000
00000000
00000000
00000000
,
00001000
00001000
00000000
00000000
,
00010000
00010000
00000000
00000000
,
00000100
00000100
00000000
00000000
,
00000010
00000010
00000000
00000000
,
00000001
00000001
00000000
00000000
,
00000100
00000100
00000000
00000000
,
00001000
00001000
00000000
00000000
,
00010000
00010000
00000000
00000000
,
00001000
00000000
00000000
00000000
,
00100000
00000000
00000000
00000000
,
00010000
00000000
00000000
00000000
,
01000000
00000000
00000000
00000000
,
00100000
00000000
00000000
00000000
,
10000000
00000000
00000000
00000000
,
01000000
00000000
00000000
00000000
,
00100000
00000000
00000000
00000000
,
00001000
00000000
00010000
00000000
,
00001000
00000000
00000000
00000000
,
00010000
00000000
00001000
00000000
,
00010000
00000000
00000000
00000000
,
00000100
00000000
00000010
00000000
,
00000100
00000000
00000000
00000000
,
00001000
00000000
00000001
00000000
,
00001000
00000000
00000000
00000000
,
00000001
00000001
00000000
00000000
,
00000010
00000010
00000000
00000000
,
00000100
00000100
00000000
00000000
,
00010000
00010000
00000000
00000000
,
00001000
00001000
00000000
00000000
,
01000000
01000000
00000000
00000000
,
00100000
00100000
00000000
00000000
,
10000000
10000000
00000000
00000000
,
00010000
00000000
00000000
00000000
,
10000000
00000000
00000000
00000000
,
00100000
00000000
00000000
00000000
,
00010000
00000000
00000000
00000000
,
00001000
00000000
00000000
00000000
,
01000000
00000000
00000000
00000000
,
00100000
00000000
00000000
00000000
,
10000000
00000000
00000000
00000000
,
01000000
00000000
00100000
00000000
,
01000000
00000000
00000000
00000000
,
00010000
00000000
00001000
00000000
,
00010000
00000000
00000000
00000000
,
00001000
00000000
00010000
00000000
,
00001000
00000000
00000000
00000000
,
00000100
00000000
00000010
00000000
,
00000100
00000000
00000000
00000000
,
00000002
00000000
00000000
00000003
,
00000001
00000000
00000000
00000000
,
00000020
00000000
00000000
00000030
,
00000010
00000000
00000000
00000000
,
00000100
00000000
00001000
00000000
,
00000100
00000000
00000000
00000000
,
00010000
00000000
00001000
00000000
,
00010000
00000000
00001000
00000000
,
00022000
00000000
00000000
00033000
;
#NOTES:
     dance-double:
     :
     Easy:
     4:
     :
00000000
00000000
00000000
00000000
,
00000000
00000000
00000000
00000000
,
00000000
00000000
00000000
00000000
,
00000000
00000000
00000000
00000000
,
00000100
00000000
00000001
00000000
,
00000010
00000000
00001000
00000000
,
00010000
00000000
00100000
00000000
,
10000000
00000000
01000000
00000000
,
10000000
00100000
10000000
00000000
,
00010000
10000000
00010000
00000000
,
00100000
01000000
00100000
00000000
,
00001000
00010000
00001000
00000000
,
00010000
00001000
00010000
00000000
,
00000010
00001000
00000010
00000000
,
00002000
00003000
00000002
00000003
,
00000010
00000010
00000100
00000100
,
00001001
00000000
00001001
00000000
,
00000001
00000100
00001000
00010000
,
00011000
00000000
00011000
00000000
,
00001000
00010000
01000000
10000000
,
10010000
00000000
10010000
00000000
,
00010000
00100000
01000000
10000000
,
00100000
00010000
00001000
00000000
,
00010000
00001000
00000010
00000000
,
00000002
00000003
00002000
00003000
,
00000010
00000100
00000010
00000100
,
00000002
00000003
00000020
00000030
,
00001000
00010000
00001000
00010000
,
00200000
00300000
20000000
30000000
,
01000000
00100000
01000000
00100000
,
00002000
00003000
00020000
00030000
,
00000100
00000010
00000100
00000010
,
00000001
00001000
00000001
00000000
,
00001000
00000100
00001000
00000000
,
00000010
00010000
00000010
00000000
,
00010000
00001000
00010000
00000000
,
00001000
00100000
00001000
01000000
,
00100000
01000000
00000000
00000000
,
00020000
00030000
20000000
30000000
,
01000000
01000000
00100000
00100000
,
10010000
00000000
10010000
00000000
,
10000000
00100000
00010000
00001000
,
00011000
00000000
00011000
00000000
,
00010000
00001000
00000010
00000001
,
00001001
00000000
00001001
00000000
,
00001000
00000010
00000100
00000001
,
00000010
00000100
00010000
00000000
,
00001000
01000000
00100000
00000000
,
10010000
00000000
01100000
00000000
,
10000000
01000000
00010000
00001000
,
00011000
00000000
00011000
00000000
,
00010000
00001000
00000100
00000001
,
00001001
00000000
00000110
00000000
,
00000001
00000010
00001000
00010000
,
00001000
00100000
01000000
00000000
,
10000000
00100000
01000000
00000000
,
00100000
00000000
10000000
00000000
,
01000000
00000000
00010000
00000000
,
00001000
00000000
00000100
00000000
,
00000001
00000000
00000010
00000000
,
00000002
00000003
00002000
00003000
,
00000001
00000010
00000100
00001000
,
00000002
00000003
00002000
00003000
,
00000001
00000100
00001000
00010000
,
00022000
00000000
00000000
00033000
;
#NOTES:
     dance-double:
     :
     Medium:
     6:
     :
00000000
00000000
00000000
00000000
,
00000000
00000000
00000000
00000000
,
00000000
00000000
00000000
00000000
,
00000000
00000000
00000000
00000000
,
00000001
00000000
00000010
00000000
00000001
00000000
00000100
00000010
,
00000100
00000000
00000001
00000000
00000010
00000000
00001000
00010000
,
00001000
00000000
00010000
00000000
00000100
00000000
00001000
00000010
,
00001000
00000000
00000100
00000000
00010000
00000000
00001000
01000000
,
00001000
00000000
01000000
00000000
00100000
10000000
01000000
00000000
,
00100000
00000000
00001000
00000000
00010000
01000000
10000000
00000000
,
00100000
00000000
01000000
00000000
00010000
00100000
00001000
00000000
,
00100000
00000000
00001000
00000000
00010000
00000010
00001000
00000000
,
00000100
00000000
00000010
00000000
00000001
00000100
00001000
00000000
,
00010000
00000000
00000100
00000000
00000010
00000001
00000100
00000000
,
00001001
00000000
00000000
00000001
00000101
00000000
00000000
00000010
,
00001010
00010100
00022000
00033000
,
01001000
00000000
01010000
00000000
00100000
10000000
01000000
00000000
,
10000000
00010000
00100000
01000000
,
11000000
00000000
10010000
00000000
00100000
00001000
00010000
00000000
,
00001000
00000100
00000002
00000003
,
00000011
00000000
00000110
00000000
00000001
00000100
00000010
00000000
,
00001000
00000100
00000010
00000100
,
00010000
00001000
01000000
00100000
,
01000000
00010000
10000000
00000000
,
01000000
00100000
01000000
00000000
10000000
00100000
10000000
00000000
,
02000000
03020000
00032000
00003200
,
00000301
00001000
00000001
00000000
00000010
00000100
00000010
00000000
,
00000002
00000203
00000320
00002030
,
00003001
00000010
00000001
00000000
00001000
00000001
00001000
00000000
,
00000200
00020300
00032000
02003000
,
03100000
10000000
00100000
00000000
10000000
00010000
10000000
00000000
,
00200000
00320000
00032000
00003020
,
00000031
00000000
00000100
00000000
00000010
00000100
00000001
00000000
,
00000010
00000000
00000100
00000000
00010000
00001000
01000000
00000000
,
00100000
00000000
00010000
00000000
00001000
00100000
01000000
00000000
,
00010000
00000000
00100000
00000000
01000000
00100000
00010000
00000000
,
01000000
00000000
00100000
00000000
10000000
01000000
00010000
00000000
,
00001000
00000000
00100000
00000000
00010000
01000000
00100000
00000000
,
10010000
00000000
00000000
10000000
11000000
00000000
00000000
00100000
,
00110000
01001000
00022000
00033000
,
00010100
00000000
00001100
00000000
00000010
00000001
00000100
00000000
,
00000001
00000010
00000100
00001000
,
00001010
00000000
00010010
00000000
00001000
00100000
01000000
00000000
,
10000000
00010000
00200000
00300000
,
00101000
00000000
00011000
00000000
01000000
00100000
10000000
00000000
,
01000000
00010000
00001000
00000100
,
00000001
00000010
00000100
00001000
,
00000001
00000100
00000010
00000000
,
00001010
00000000
00000101
00000000
00000010
00000100
00001000
00000000
,
00010000
00001000
00010000
00000000
00001000
00010000
00001000
00000000
,
00110000
00000000
11000000
00000000
00100000
00001000
00010000
00000000
,
00000010
00001000
00000010
00000000
00000200
00000000
00000300
00000000
,
00001001
00000000
00000110
00000000
00000001
00000100
00001000
00000000
,
00010000
00001000
00010000
00000000
00001000
00010000
00001000
00000000
,
00100000
01000000
10000000
00100000
,
01000000
00001000
01000000
00000000
,
00010000
10000000
00010000
10000000
,
00200000
20300000
32000000
03020000
,
00031000
00010000
00001000
00010000
,
00002000
00003200
00000302
00000023
,
00000130
00010000
00000100
00000000
00001000
00000001
00001000
00000000
,
00000002
00000023
00002030
00023000
,
00031000
01000000
00001000
00000000
00100000
01000000
00100000
00000000
,
02000000
23000000
30200000
00320000
,
00032000
00000000
00000000
00003000
;
#NOTES:
     dance-double:
     :
     Hard:
     8:
     :
00000000
00000000
00000000
00000000
,
00000000
00000000
00000000
00000000
,
00000000
00000000
00000000
00000000
,
00000000
00000000
00000000
00000000
,
00000010
00000000
00000000
00000001
00000000
00000000
00000100
00000000
00000000
00000010
00000000
00000000
00010000
00000000
00001000
00000000
,
00010000
00000000
00000000
00000100
00000000
00000000
00000010
00000000
00000000
00000001
00000000
00000000
00000100
00000000
00000010
00000000
,
00000100
00000000
00000000
00001000
00000000
00000000
00010000
00000000
00000000
01000000
00000000
00000000
10000000
00000000
00010000
00000000
,
10000000
00000000
00000000
00100000
00000000
00000000
01000000
00000000
00000000
00001000
00000000
00000000
00100000
00000000
00010000
00000000
,
00100000
01000000
10000000
00100000
01000000
00001000
01000000
00100000
,
00010000
00001000
00100000
00001000
00010000
00000010
00010000
00000000
,
00000100
00000010
00000001
00000100
00001000
00010000
00000100
00000010
,
00000001
00000100
00000010
00010000
00001000
00000010
00000001
00000000
,
00000100
00000010
00010000
00001000
00100000
01000000
10000000
00100000
,
00010000
00001000
00100000
01000000
10000000
00100000
01000000
00010000
,
20010000
00000000
00000000
30100000
10200000
00000000
00000000
01300000
,
01010000
00000000
11000000
00000000
00100000
10000000
01000000
00010000
,
00002000
00000000
00010000
00000000
00000100
00000100
00003100
00000000
,
00000001
00000001
00000010
00000010
00000100
00000100
00010000
00001000
,
00020000
00000000
00001000
00000000
01000000
01000000
01030000
10000000
,
00100000
00000000
01000000
00000000
00100000
00000000
10000000
00000000
01000000
00000000
00000000
10000000
00010000
00000000
00100000
00000000
,
00002000
00000000
00010000
00000000
00000010
00000010
00003010
00000000
,
00000001
00000100
00001000
00000100
00000010
00001000
00000100
00000010
,
00000001
00000100
00000010
00010000
00000100
00001000
00000010
00010000
,
00001000
00100000
01000000
10000000
00100000
00000000
00000000
00000000
,
10000000
00010000
01000000
00000000
00100000
10000000
01000000
00100000
,
00001000
00010000
00001000
00000000
01000000
00100000
01000000
00001000
,
00010000
01000000
10000000
00000000
00100000
01000000
00001000
00010000
,
00000100
00000000
00000010
00000000
00000001
00000000
00000000
00000000
00001000
00000000
00000000
00000001
00000100
00000000
00000010
00000000
,
00001000
00000100
00000010
00000000
00000100
00010000
00000010
00001000
,
00000100
00010000
00001000
00000000
01000000
00100000
10000000
00010000
,
00100000
01000000
10000000
00000000
01000000
10000000
00100000
00010000
,
00001000
01000000
00010000
00000000
00100000
10000000
01000000
00100000
,
01000000
10000000
00100000
00010000
00001000
00000010
00000001
00000100
,
00000010
00001000
00000100
00001000
00000001
00001000
00000010
00000000
,
00000100
00000001
00000010
00000100
00010000
00001000
00000100
00000001
,
00000010
00000100
00010000
00001000
00000010
00000001
00000100
00000000
,
00000010
00000001
00000010
00001000
00000100
00010000
00000010
00001000
,
00000010
00010000
00000100
00001000
00000010
00010000
00000100
00000010
,
00000012
00000000
00000000
00000103
00000201
00000000
00000000
00000310
,
00001010
00000000
00000011
00000000
00000100
00000001
00000010
00001000
,
00020000
00000000
00100000
00000000
00001000
00001000
00031000
00000000
,
00100000
00100000
00010000
00010000
10000000
10000000
00100000
00010000
,
00002000
00000000
00010000
00000000
00000010
00000010
00003010
00000001
,
00000100
00000000
00001000
00000000
00000100
00000000
00000010
00000000
00010000
00000000
00000000
00000100
00001000
00000000
00000010
00000000
,
00020000
00000000
00001000
00000000
01000000
01000000
01030000
00000000
,
10000000
00100000
10000000
01000000
00100000
00001000
00010000
00000010
,
00000100
00000001
00000010
00000001
00001000
00000010
00010000
00000100
,
00001000
00000010
00000100
00000001
00000010
00000000
00000000
00000000
,
00000200
00000000
00000001
00000000
00001000
00001000
00001300
00000000
,
00000001
00000001
00000010
00000010
00001000
00001000
00010000
00000100
,
00000020
00000000
00001000
00000000
00000001
00000001
00000031
00000100
,
00001000
00000000
00010000
00000000
00000100
00000000
00010000
00000000
00001000
00000000
00000000
00100000
01000000
00000000
10000000
00000000
,
00200000
00000000
00010000
00000000
10000000
10000000
10300000
00000000
,
01000000
00100000
01000000
10000000
00100000
00010000
00001000
00100000
,
01000000
00100000
00001000
01000000
00100000
10000000
01000000
00100000
,
00001000
00010000
00000010
00010000
00000100
00000000
00000000
00000000
,
00001002
00000100
00001000
00000103
,
00001000
00010000
01000000
10000000
,
20010000
01000000
00010000
31000000
,
00010000
00001000
00000100
00000001
,
00000010
00000100
00000010
00000001
00001000
00000100
00010000
00000010
,
00000200
00000302
00000023
00002030
,
00013000
00000010
00001000
00000100
00000010
00000100
00010000
00000100
,
00000020
00000032
00000203
00002300
,
00023000
00000000
00000000
00030000
;
#NOTES:
     dance-double:
     :
     Challenge:
     9:
     :
00000000
00000000
00000000
00000000
,
00000000
00000000
00000000
00000000
,
00000000
00000000
00000000
00000000
,
00000000
00000000
00000000
00000000
,
00000010
00000000
00000001
00000100
00000000
00000100
00000010
00000000
00000010
00010000
00000000
00010000
00001000
00000000
00100000
00000000
,
01000000
00000000
10000000
00100000
00000000
00100000
01000000
00000000
01000000
00001000
00000000
00001000
00100000
00000000
00010000
00000000
,
01000000
00000000
00100000
10000000
00000000
10000000
01000000
00000000
01000000
00010000
00000000
00010000
00001000
00000000
01000000
00000000
,
00100000
00000000
00010000
00001000
00000000
00001000
00000010
00000000
00000010
00000001
00000000
00000001
00000100
00000000
00000010
00000000
,
00010000
00001000
00000010
00001000
00100000
00010000
01000000
00100000
,
01000000
00001000
00010000
00100000
10000000
01000000
00100000
00010000
,
01000000
00100000
01000000
00001000
00100000
01000000
00100000
00001000
,
00010000
00000010
00001000
00000100
00000001
00000100
00010000
00000010
,
00000100
00010000
00000100
00000010
00001000
00000001
00000010
00000100
,
00010000
00001000
00000010
00000001
00000100
00000010
00010000
00001000
,
00101000
00100000
00010000
01000000
01100000
00100000
10000000
01000000
,
10000000
00000000
00010000
00000000
10000000
00000000
00010000
00000000
01000000
00100000
01000000
00100000
10000000
00010000
10000000
00010000
,
01000000
00000000
00000000
00000000
00100000
00000000
00000000
00000000
10000000
00000000
01000000
00100000
00000000
00000000
00000000
00000000
,
00001000
00000000
00010000
00001000
00000000
00000010
00000000
00000001
00000000
00000000
00000100
00000000
00000010
00000000
00000100
00000000
,
00000001
00000000
00000000
00000000
00001000
00000000
00000000
00000000
00000010
00000000
00000100
00000001
00000000
00000000
00000010
00000000
,
00000001
00000000
00000100
00000000
00001000
00000000
00010000
00000000
01000000
00000000
00000000
10000000
00010000
00000000
01000000
00000000
,
00100000
00000000
00000000
00000000
10000000
00000000
00000000
00000000
01000000
00000000
00100000
00001000
00000000
00000000
00000000
00000000
,
00010000
00000000
00100000
10000000
00000000
00010000
00000000
00100000
00000000
00000000
00001000
00000000
00010000
00000000
00001000
00000000
,
00100000
00000000
00010000
00000000
01000000
00000000
10000000
00000000
01000000
00000000
00010000
10000000
00000000
00000000
01000000
00000000
,
00100000
00000000
00001000
00010000
00000000
00000000
00000010
00000000
00000100
00000000
00000001
00001000
00000001
00001000
00000001
00001000
,
00000100
00000000
00000010
00000000
00000001
00000000
00000100
00000010
00000000
00000010
00010000
00000000
00000100
00000000
00000010
00000000
,
00000001
00000100
00001000
00010000
01000000
10000000
00100000
00010000
,
00001000
00000000
00100000
00000000
01000000
00000000
10000000
00100000
00000000
00100000
01000000
00000000
00010000
00000000
01000000
00000000
,
00100000
10000000
01000000
00010000
00001000
00000100
00000001
00000010
,
00000100
00000000
00010000
00000000
00001000
00000000
01000000
00100000
00000000
00100000
00010000
00000000
00001000
00000000
00100000
00000000
,
01000000
10000000
00100000
00010000
00001000
00000010
00000001
00000100
,
00001000
00000000
00010000
00000000
00000100
00000000
00000010
00000001
00000000
00000001
00001000
00000000
00000010
00000000
00001000
00000000
,
00000100
00000000
00010000
00000000
00000100
00000000
00001000
00000000
00000001
00000000
00001000
00000010
00001000
00000010
00001000
00000010
,
00000100
00000001
00000010
00000100
00010000
01000000
00010000
00000100
,
00000010
00000001
00000100
00001000
00010000
00000100
00000010
00000001
,
00000100
00001000
00010000
00001000
00100000
01000000
00010000
01000000
,
10000000
00100000
01000000
00001000
00100000
00010000
01000000
10000000
,
01000000
00001000
00100000
00001000
00000010
00000001
00000100
00001000
,
00010000
00000100
00000010
00000001
00000100
00000010
00010000
00000100
,
00001100
00001000
00000010
00010000
00011000
00001000
00100000
01000000
,
10000000
00000000
00010000
00000000
10000000
00000000
00010000
00000000
10000000
00100000
10000000
00100000
01000000
00010000
01000000
00010000
,
00100000
00000000
00000000
00000000
01000000
00000000
00000000
00000000
10000000
00000000
00010000
01000000
00000000
00000000
00000000
00000000
,
00100000
00000000
10000000
01000000
00000000
00100000
00000000
00001000
00000000
00000000
00010000
00000000
00100000
00000000
10000000
00000000
,
01000000
00000000
00000000
00000000
00010000
00000000
00000000
00000000
00001000
00000000
01000000
00010000
00000000
00000000
00100000
00000000
,
00001000
00000000
00010000
00000000
00000010
00000000
00001000
00000000
00000100
00000000
00000000
00000001
00000100
00000000
00001000
00000000
,
00000001
00000000
00000000
00000000
00000100
00000000
00000000
00000000
00000010
00000000
00010000
00001000
00000000
00000000
00000000
00000000
,
00100000
00000000
00001000
01000000
00000000
00100000
00000000
01000000
00000000
00000000
00010000
00000000
01000000
00000000
00100000
00000000
,
10000000
00000000
01000000
00000000
00100000
00000000
00001000
00000000
01000000
00000000
00100000
10000000
00000000
00000000
01000000
00000000
,
00100000
00000000
00001000
00010000
00000000
00000000
00000010
00000000
00000100
00000000
00000001
00001000
00000001
00001000
00000010
00000100
,
00000010
00000000
00000000
00000000
00000100
00000000
00000000
00000000
00001001
00000000
00000001
00000100
00000000
00000000
00000000
00000000
,
00000010
00000000
00010000
00001000
00000000
00010000
00000000
00000100
00000000
00000000
00000010
00000000
00000001
00000000
00000100
00000000
,
00000010
00000000
00000000
00000000
00000100
00000000
00000000
00000000
00010010
00000000
00000010
00001000
00000000
00000000
00000100
00000000
,
00010000
00000000
00001000
00000000
01000000
00000000
00100000
00000000
10000000
00000000
00000000
01000000
00100000
00000000
00001000
00000000
,
00010000
00000000
00000000
00000000
00100000
00000000
00000000
00000000
10010000
00000000
10000000
01000000
00000000
00000000
00000000
00000000
,
00100000
00000000
00001000
00010000
00000000
00000010
00000000
00001000
00000000
00000000
00000100
00000000
00000010
00000000
00000100
00000000
,
00010000
00000000
00000010
00000000
00001000
00000000
00000100
00000000
00000010
00000000
00000001
00001000
00000000
00000000
00000001
00000000
,
00000100
00000000
00000010
00010000
00000000
00000000
00001000
00000000
00100000
00000000
01000000
10000000
01000000
10000000
00010000
10000000
,
00010000
01000000
00100000
10000000
01000000
00100000
00001000
00100000
,
02000000
23000000
30200000
00320000
,
00031000
00000010
00000001
00000100
00000010
00001000
00000001
00000010
,
00002000
00023000
00230000
20300000
,
31000000
00000000
00100000
00000000
00010000
00000000
01000000
00100000
00000000
00100000
10000000
00000000
00010000
00000000
00100000
00000000
,
01000000
10000000
00100000
00010000
00001000
00000010
00000001
00000100
,
00000010
00000000
00010000
00000000
00000100
00000000
00000010
00000001
00000000
00000001
00001000
00000000
00000100
00000000
00010000
00000000
,
00001000
00100000
00010000
10000000
00100000
01000000
00001000
00010000
,
00022000
00000000
00000000
00033000
;
