
//----- song ID: ove2 -----
#TITLE:Over;
#ARTIST:Mark Hill Presents Kelly Marie;
#BANNER:Over.png;
#BACKGROUND:Over-bg.png;
#CDTITLE:./CDTitles/DDR UNIVERSE3.png;
#MUSIC:Over.ogg;
#OFFSET:-0.001;
#SAMPLESTART:38.399;
#SAMPLELENGTH:15;
#BPMS:0=125;
#NOTES:
     dance-single:
     :
     Beginner:
     1:
     :
0000
0000
0000
0000
,
0000
0000
0000
0000
,
0000
0000
0000
0000
,
0000
0000
0000
0000
,
1000
0000
0000
0000
,
0001
0000
0000
0000
,
0100
0000
0000
0000
,
0010
0000
0000
0000
,
1000
0000
0000
0000
,
0100
0000
0000
0000
,
0001
0000
0000
0000
,
0100
0000
0000
0000
,
1000
0000
0010
0000
,
0010
0000
0000
0000
,
0000
0000
0000
0000
,
1000
0000
0000
0000
,
0001
0000
0100
0000
,
0100
0000
0000
0000
,
0000
0000
0000
0000
,
0100
0000
0001
0000
,
1000
0000
0000
0000
,
0001
0000
0000
0000
,
0100
0000
0000
0000
,
0010
0000
0000
0000
,
1000
0000
0000
0000
,
0010
0000
0000
0000
,
0001
0000
0000
0000
,
0010
0000
0000
0000
,
1000
0000
0000
0000
,
0000
0000
0000
0000
,
0001
0000
0000
0000
,
0000
0000
0000
0000
,
1000
0000
0000
0000
,
0000
0000
0000
0000
,
0001
0000
0000
0000
,
1000
0000
0001
0000
,
1000
0000
0000
0000
,
1001
0000
0000
0000
,
0100
0000
0000
0000
,
0010
0000
0000
0000
,
0100
0000
0000
0000
,
0110
0000
0000
0000
,
0010
0000
0000
0000
,
1000
0000
0000
0000
,
0001
0000
0000
0000
,
1001
0000
0000
0000
,
0010
0000
0000
0000
,
0100
0000
0000
0000
,
0010
0000
0000
0000
,
0110
0000
0000
0000
,
0100
0000
0000
0000
,
1000
0000
0001
0000
,
1001
0000
0000
0000
;
#NOTES:
     dance-single:
     :
     Easy:
     2:
     :
0000
0000
0000
0000
,
0000
0000
0000
0000
,
0000
0000
0000
0000
,
0000
0000
0000
0000
,
1000
0100
1000
0000
,
0001
0000
0000
0000
,
0001
0010
0001
0000
,
1000
0000
0000
0000
,
0010
1000
0010
0000
,
0100
0000
0000
0000
,
0100
0010
0100
0000
,
0001
0000
0000
0000
,
1000
0000
0100
0000
,
0002
0000
0003
0000
,
0200
0000
0300
0000
,
2000
0000
3000
0000
,
0001
0000
0100
0000
,
2000
0000
3000
0000
,
0200
0000
0300
0000
,
0001
0000
0000
0000
,
1000
0000
0001
0000
,
2000
0000
3000
0000
,
0001
0000
1000
0000
,
0002
0000
0003
0000
,
0010
0000
0100
0000
,
0020
0000
0030
0000
,
0200
0000
0300
0000
,
0220
0000
0330
0000
,
1000
0000
0000
0000
,
0001
0000
0000
0000
,
0100
0000
0000
0000
,
0010
0000
0000
0000
,
1000
0000
0000
0000
,
0100
0000
0000
0000
,
0010
0000
0001
0000
,
1000
0001
1000
0001
,
1000
0000
0001
0000
,
2002
0000
3003
0000
,
0001
0000
1000
0000
,
2002
0000
3003
0000
,
0100
0000
0010
0000
,
0220
0000
0330
0000
,
0020
0000
0030
0000
,
2000
0000
3000
0000
,
0001
0000
1000
0000
,
2002
0000
3003
0000
,
0010
0000
0100
0000
,
0220
0000
0330
0000
,
1000
0000
0001
0000
,
2002
0000
3003
0000
,
0200
0000
0300
0000
,
0110
0000
1000
0001
,
1001
0000
0000
0000
;
#NOTES:
     dance-single:
     :
     Medium:
     4:
     :
0000
0000
0000
0000
,
0000
0000
0000
0000
,
0000
0000
0000
0000
,
0000
0000
0000
0000
,
1000
0100
0010
0001
,
0000
1000
0001
0000
0000
0001
1000
0000
,
0001
0100
0010
1000
,
0000
0001
0100
0000
0000
0100
0001
0000
,
0100
0010
1000
0001
,
0000
1000
0010
0000
0000
0010
1000
0000
,
0010
1000
0001
0010
,
0000
0001
1000
0000
0000
1000
0001
0000
,
1100
0000
0101
0000
,
2002
0000
0000
3003
,
1000
0000
1000
0000
1000
0000
1000
0100
,
0001
0001
0001
0001
,
0110
0000
0011
0000
,
2020
0000
0000
3030
,
1000
1000
0001
0001
,
0100
0010
1000
0001
,
0010
0000
0001
0000
,
2000
0000
0000
0000
3000
0000
0001
0100
,
0010
0000
1000
0000
,
0200
0000
0000
0000
0300
0000
1000
0010
,
0100
0000
0001
0000
,
0020
0000
0030
0001
,
2000
0000
3000
1000
,
0002
0000
0003
0000
,
1000
0000
0100
0000
,
0001
0000
0100
0000
,
1000
0000
0001
0000
,
0100
0000
1000
0000
,
0100
0000
0001
0000
,
1000
0000
0001
0000
,
0010
0010
0100
0100
,
1000
0001
0100
0010
,
1000
0000
0001
0000
,
2002
0000
0000
0000
3003
0000
1000
0100
,
0010
0000
0100
0000
,
0220
0000
0000
0000
0330
0000
0010
0001
,
1000
0000
0010
0000
,
2020
0000
3030
0010
,
0200
0000
0300
0100
,
0020
0000
0000
0000
0030
0000
1000
0100
,
0010
0000
0001
0000
,
0202
0000
0000
0000
0303
0000
0001
0100
,
0010
0000
1000
0000
,
2200
0000
0000
0000
3300
0000
1000
0001
,
0010
0000
0001
0000
,
0022
0000
0033
1000
,
0020
0000
0030
0010
,
1000
0100
0010
0001
,
1001
0000
0000
0000
;
#NOTES:
     dance-single:
     :
     Hard:
     7:
     :
0000
0000
0000
0000
,
0000
0000
0000
0000
,
0000
0000
0000
0000
,
0000
0000
0000
0000
,
1000
0100
0010
0001
0100
0000
0001
0000
,
0010
0001
0100
0010
0100
0010
1000
0000
,
0001
0100
0010
1000
0001
0000
1000
0000
,
0010
1000
0100
0001
0100
0001
0100
0000
,
0010
1000
0001
0010
0100
0000
0010
0000
,
0001
1000
0100
1000
0100
1000
0001
0000
,
0100
0010
1000
0001
0010
0000
0100
0000
,
0010
0001
1000
0001
1000
0001
0100
0000
,
0010
1000
0100
1000
0010
0000
0100
0000
,
0101
0000
0011
0000
1010
0000
1000
0100
,
0001
0000
0100
0000
1001
0000
0001
0100
,
1000
0100
1001
0110
,
0010
0001
0100
0001
0010
0000
0100
0000
,
1100
0000
1010
0000
0011
0000
0001
0010
,
1000
0110
1000
0001
,
1000
0100
0010
0001
0100
0001
1000
0010
,
0200
1000
0001
1300
,
0001
0000
1000
0000
0100
0010
0001
0000
,
2000
0100
0010
3100
,
0010
0000
0100
0000
0001
1000
0100
0000
,
0020
1000
0001
1030
,
0001
0000
0100
0000
0010
1000
0100
0000
,
0020
0030
0002
0003
,
0100
0001
1000
0010
1000
0100
0010
0001
,
1000
0100
0001
0100
,
1000
0000
0001
0000
0010
0000
0100
1000
,
0001
0100
1000
0100
,
0001
0000
1000
0000
0010
0000
0100
0001
,
1000
0100
0001
0010
,
1000
0000
0001
0000
0100
0000
0010
0100
,
0001
0100
0010
1000
0001
0100
0010
1000
,
0100
0010
0001
1000
0100
0010
0001
1000
,
0002
0100
1000
0103
,
1000
0000
0100
0000
0011
0000
0100
0010
,
2000
0010
0001
3010
,
0001
0000
1000
0000
0110
0000
0001
0100
,
0020
0100
1000
0130
,
1000
0000
0010
0000
0101
0000
0010
1000
,
0200
0300
2000
3000
,
0001
0000
0011
0000
0110
0000
0100
1000
,
0002
0010
1000
0103
,
1000
0000
1001
0000
0101
0000
0001
1000
,
0200
1000
0010
0301
,
0010
0000
0011
0000
1001
0000
0001
1000
,
0020
0001
1000
0130
,
1000
0000
0110
0000
1001
0000
0001
0100
,
2000
3000
0200
0300
,
0001
1000
0100
0010
0001
0100
0010
1000
,
0100
0000
0000
0000
;
#NOTES:
     dance-double:
     :
     Beginner:
     1:
     :
00000000
00000000
00000000
00000000
,
00000000
00000000
00000000
00000000
,
00000000
00000000
00000000
00000000
,
00000000
00000000
00000000
00000000
,
10000000
00000000
00000000
00000000
,
00010000
00000000
00000000
00000000
,
01000000
00000000
00000000
00000000
,
00001000
00000000
00000000
00000000
,
00010000
00000000
00000000
00000000
,
00000100
00000000
00000000
00000000
,
00001000
00000000
00000000
00000000
,
00000001
00000000
00000000
00000000
,
00000010
00000000
00000100
00000000
,
00000100
00000000
00000000
00000000
,
00000000
00000000
00000000
00000000
,
00010000
00000000
00000000
00000000
,
00001000
00000000
01000000
00000000
,
01000000
00000000
00000000
00000000
,
00000000
00000000
00000000
00000000
,
00100000
00000000
10000000
00000000
,
00010000
00000000
00000000
00000000
,
10000000
00000000
00000000
00000000
,
01000000
00000000
00000000
00000000
,
00100000
00000000
00000000
00000000
,
00001000
00000000
00000000
00000000
,
00010000
00000000
00000000
00000000
,
00000010
00000000
00000000
00000000
,
00001000
00000000
00000000
00000000
,
00000001
00000000
00000000
00000000
,
00000000
00000000
00000000
00000000
,
00000100
00000000
00000000
00000000
,
00000000
00000000
00000000
00000000
,
00001000
00000000
00000000
00000000
,
00000000
00000000
00000000
00000000
,
00010000
00000000
00000000
00000000
,
01000000
00000000
00100000
00000000
,
01000000
00000000
00000000
00000000
,
01100000
00000000
00000000
00000000
,
01000000
00000000
00000000
00000000
,
10000000
00000000
00000000
00000000
,
00010000
00000000
00000000
00000000
,
10010000
00000000
00000000
00000000
,
01000000
00000000
00000000
00000000
,
00001000
00000000
00000000
00000000
,
00010000
00000000
00000000
00000000
,
00011000
00000000
00000000
00000000
,
00010000
00000000
00000000
00000000
,
00000100
00000000
00000000
00000000
,
00000010
00000000
00000000
00000000
,
00000110
00000000
00000000
00000000
,
00000010
00000000
00000000
00000000
,
00000001
00000000
00001000
00000000
,
00001001
00000000
00000000
00000000
;
#NOTES:
     dance-double:
     :
     Easy:
     2:
     :
00000000
00000000
00000000
00000000
,
00000000
00000000
00000000
00000000
,
00000000
00000000
00000000
00000000
,
00000000
00000000
00000000
00000000
,
10000000
00010000
10000000
00000000
,
01000000
00000000
00000000
00000000
,
00100000
00001000
00100000
00000000
,
00001000
00000000
00000000
00000000
,
00010000
00000100
00010000
00000000
,
00000010
00000000
00000000
00000000
,
00001000
00000001
00001000
00000000
,
00000100
00000000
00000000
00000000
,
00001000
00000000
00000010
00000000
,
00020000
00000000
00030000
00000000
,
00002000
00000000
00003000
00000000
,
02000000
00000000
03000000
00000000
,
00010000
00000000
10000000
00000000
,
02000000
00000000
03000000
00000000
,
00020000
00000000
00030000
00000000
,
00001000
00000000
00000000
00000000
,
00010000
00000000
00001000
00000000
,
00000200
00000000
00000300
00000000
,
00000001
00000000
00000010
00000000
,
00000002
00000000
00000003
00000000
,
00000100
00000000
00001000
00000000
,
00020000
00000000
00030000
00000000
,
00002000
00000000
00003000
00000000
,
00022000
00000000
00033000
00000000
,
00010000
00000000
00000000
00000000
,
00001000
00000000
00000000
00000000
,
01000000
00000000
00000000
00000000
,
00100000
00000000
00000000
00000000
,
10000000
00000000
00000000
00000000
,
00010000
00000000
00000000
00000000
,
01000000
00000000
00001000
00000000
,
00010000
00001000
00010000
00001000
,
00010000
00000000
00000100
00000000
,
00000020
00000000
00000030
00000000
,
00000001
00000000
00001000
00000000
,
00000200
00000000
00000300
00000000
,
00010000
00000000
00001000
00000000
,
00022000
00000000
00033000
00000000
,
00200000
00000000
00300000
00000000
,
02000000
00000000
03000000
00000000
,
10000000
00000000
00010000
00000000
,
20020000
00000000
30030000
00000000
,
00100000
00000000
01000000
00000000
,
02200000
00000000
03300000
00000000
,
00001000
00000000
00010000
00000000
,
00022000
00000000
00033000
00000000
,
00000200
00000000
00000300
00000000
,
00000110
00000000
00000001
00001000
,
00001001
00000000
00000000
00000000
;
#NOTES:
     dance-double:
     :
     Medium:
     4:
     :
00000000
00000000
00000000
00000000
,
00000000
00000000
00000000
00000000
,
00000000
00000000
00000000
00000000
,
00000000
00000000
00000000
00000000
,
00100000
10000000
01000000
00010000
,
00000000
00001000
00010000
00000000
00000000
00001000
00010000
00000000
,
00001000
00000100
00000001
00000010
,
00000000
00000001
00001000
00000000
00000000
00000001
00001000
00000000
,
00000010
00001000
00000100
00010000
,
00000000
00001000
00010000
00000000
00000000
00001000
00010000
00000000
,
00001000
01000000
00100000
10000000
,
00000000
00010000
10000000
00000000
00000000
00010000
10000000
00000000
,
11000000
00000000
01010000
00000000
,
00022000
00000000
00000000
00033000
,
00010000
00000000
00010000
00000000
00001000
00000000
00001000
00000100
,
00000001
00000001
00000010
00000010
,
00000011
00000000
00001010
00000000
,
00022000
00000000
00000000
00033000
,
00010000
00010000
00001000
00001000
,
01000000
00100000
10000000
00010000
,
00100000
00000000
01000000
00000000
,
20000000
00000000
00000000
00000000
30000000
00000000
01000000
00010000
,
00001000
00000000
00010000
00000000
,
00000020
00000000
00000000
00000000
00000030
00000000
00001000
00000010
,
00000100
00000000
00000001
00000000
,
00002000
00000000
00003000
00000001
,
00000200
00000000
00000300
00001000
,
00020000
00000000
00030000
00000000
,
00001000
00000000
00010000
00000000
,
01000000
00000000
10000000
00000000
,
00100000
00000000
10000000
00000000
,
01000000
00000000
00010000
00000000
,
00001000
00000000
00000010
00000000
,
00000001
00000000
00000100
00000000
,
00000001
00000001
00001000
00001000
,
00000100
00010000
00000010
00001000
,
00000100
00000000
00010000
00000000
,
00022000
00000000
00000000
00000000
00033000
00000000
00001000
01000000
,
00100000
00000000
10000000
00000000
,
20020000
00000000
00000000
00000000
30030000
00000000
00100000
10000000
,
01000000
00000000
00010000
00000000
,
00022000
00000000
00033000
00001000
,
00020000
00000000
00030000
00000100
,
00002000
00000000
00000000
00000000
00003000
00000000
00000010
00001000
,
00000100
00000000
00000010
00000000
,
00002002
00000000
00000000
00000000
00003003
00000000
00000100
00010000
,
00001000
00000000
00010000
00000000
,
00022000
00000000
00000000
00000000
00033000
00000000
00010000
00001000
,
00100000
00000000
00010000
00000000
,
20020000
00000000
30030000
10000000
,
00200000
00000000
00300000
01000000
,
00010000
00100000
00001000
00010000
,
00011000
00000000
00000000
00000000
;
#NOTES:
     dance-double:
     :
     Hard:
     7:
     :
00000000
00000000
00000000
00000000
,
00000000
00000000
00000000
00000000
,
00000000
00000000
00000000
00000000
,
00000000
00000000
00000000
00000000
,
10000000
01000000
00100000
00010000
01000000
00000000
00001000
00000000
,
00010000
00001000
00000100
00000010
00000100
00000010
00001000
00000000
,
00000001
00000100
00000010
00001000
00000100
00000000
00010000
00000000
,
00001000
00100000
00010000
01000000
00010000
01000000
00100000
00000000
,
10000000
00010000
00100000
01000000
10000000
00000000
00010000
00000000
,
00100000
00001000
00010000
00001000
00001000
00010000
00000100
00000000
,
00001000
00000010
00000100
00000001
00001000
00000000
00000001
00000000
,
00000010
00000001
00000100
00000001
00000001
00001000
00000100
00000000
,
00010000
00001000
01000000
00001000
00010000
00000000
00001000
00000000
,
01001000
00000000
01010000
00000000
10010000
00000000
10000000
01000000
,
00010000
00000000
00001000
00000000
00010000
00000000
00001000
00000100
,
00000001
00000010
00000100
00001001
,
00000010
00001000
00000100
00001000
00000010
00000000
00010000
00000000
,
00011000
00000000
00101000
00000000
00110000
00000000
00010000
00100000
,
10000000
00100000
00010000
01000000
,
00100000
10000000
01000000
00010000
00001000
00000100
00000001
00000010
,
00000002
00000100
00001000
00000103
,
00001000
00000000
00000100
00000000
00000010
00000001
00000100
00000000
,
00002000
00000100
00010000
00003100
,
00010000
00000000
00001000
00000000
00010000
01000000
00100000
00000000
,
00020000
00100000
10000000
00130000
,
10000000
00000000
00100000
00000000
10000000
01000000
00010000
00000000
,
00002000
00003000
00020000
00030000
,
00001000
00000100
00000001
00000010
00000100
00001000
00000010
00000100
,
00000001
00001000
00000001
00000100
,
00000010
00000000
00001000
00000000
00000100
00000000
00010000
00001000
,
00010000
00001000
01000000
00100000
,
10000000
00000000
00010000
00000000
00100000
00000000
01000000
00100000
,
01000000
10000000
01000000
00100000
,
00001000
00000000
00010000
00000000
00000010
00000000
00001000
00000100
,
00000010
00000001
00000100
00001000
00010000
01000000
10000000
00100000
,
10000000
01000000
10000000
00100000
00010000
00001000
00000010
00000001
,
00002000
00000100
00000001
00003100
,
00000001
00000000
00000100
00000000
00001010
00000000
00000010
00010000
,
00002000
00100000
00010000
00103000
,
00010000
00000000
00001000
00000000
00110000
00000000
00010000
01000000
,
00020000
01000000
10000000
01030000
,
10000000
00000000
00100000
00000000
01010000
00000000
01000000
00010000
,
00200000
00300000
00002000
00003000
,
00010000
00000000
00011000
00000000
00001100
00000000
00000100
00000010
,
00000200
00000001
00000010
00001300
,
00001000
00000000
00001001
00000000
00000101
00000000
00000001
00001000
,
00000200
00000010
00001000
00010300
,
00010000
00000000
00011000
00000000
00101000
00000000
00100000
00010000
,
00200000
10000000
01000000
00310000
,
00010000
00000000
10010000
00000000
11000000
00000000
01000000
10000000
,
00200000
00300000
02000000
03000000
,
00010000
10000000
01000000
00010000
00001000
00000100
00000001
00001000
,
00000100
00000000
00000000
00000000
;
