
//----- song ID: trop -----
#TITLE:ONCE UPON A TIME (Jertz mix);
#ARTIST:Mitsu-O! Summer2008;
#BANNER:ONCE UPON A TIME (Jertz mix).png;
#BACKGROUND:ONCE UPON A TIME (Jertz mix)-bg.png;
#CDTITLE:./CDTitles/DDR UNIVERSE3.png;
#MUSIC:ONCE UPON A TIME (Jertz mix).ogg;
#OFFSET:1.222;
#SAMPLESTART:7.664;
#SAMPLELENGTH:15;
#BPMS:0=67.5;
#NOTES:
     dance-single:
     :
     Beginner:
     1:
     :
0000
0000
0000
0000
,
0000
0000
0000
0000
,
0000
0000
0010
0000
,
0000
0000
1000
0000
,
0000
0000
0001
0000
,
0000
0000
0100
0000
,
0000
0000
0001
0000
,
0000
0000
1000
0000
,
0000
0000
0100
0000
,
0010
0000
0100
0000
,
0010
0000
0001
0000
,
0000
0000
1000
0000
,
0000
0000
0010
0000
,
0000
0000
0100
0000
,
0000
0000
0010
0000
,
0000
0000
1000
0000
,
0000
0000
0001
0000
,
0010
0000
0100
0000
,
1000
0000
0010
0000
,
0000
0000
0100
0000
,
0000
0000
0001
0000
,
0000
0000
1000
0000
,
0100
0000
0001
0000
,
0000
0000
0010
0000
,
0000
0000
0100
0000
,
0000
0000
1000
0000
,
0010
0000
0001
0000
,
1000
0000
0001
0000
,
0010
0000
0100
0000
;
#NOTES:
     dance-single:
     :
     Easy:
     2:
     :
0000
0000
0000
0000
,
0000
0000
0000
0000
,
0000
0000
0010
0000
,
1000
0000
0010
0000
,
0100
0000
0001
0000
,
0001
0000
1000
0000
,
0100
0000
0010
0000
,
0010
0000
1001
0000
,
1001
0000
0100
0000
,
0100
0000
0010
0000
,
0100
0000
0010
0000
,
0001
0000
0010
0000
,
0100
0000
1000
0000
,
1000
0000
0001
0000
,
0100
0000
0010
0000
,
0010
0000
1001
0000
,
1001
0000
0100
0000
,
0100
0000
0010
0000
,
0100
0000
0010
0010
,
1000
0000
0001
0001
,
0010
0000
0100
0100
,
1000
0000
0002
0003
,
2000
3000
0010
0010
,
0100
0000
0001
0001
,
1000
0000
0100
0100
,
0010
0000
0002
0003
,
2000
3000
0010
0000
,
1000
0000
0100
0000
,
0001
0000
1001
0000
;
#NOTES:
     dance-single:
     :
     Medium:
     4:
     :
0000
0000
0000
0000
,
0000
0000
0000
0000
,
0000
0000
1000
0001
,
0100
0000
0010
1000
,
0100
0000
0010
0010
,
0001
1000
0010
0100
,
0100
0000
0001
0010
,
0100
0000
1000
0000
1020
0000
0100
0200
,
0000
0330
0001
0010
,
0001
0000
1000
0000
0010
0000
0100
0001
,
1000
0001
0100
0010
,
1000
0000
0010
1000
,
0001
0000
0010
0010
,
0100
1000
0001
0100
,
0100
0000
0001
1000
,
0010
0000
0100
0000
0102
0000
1000
2000
,
0000
3003
0100
0010
,
0001
0000
0100
0000
0010
0000
1000
0001
,
0010
0100
1000
0010
,
0110
0101
0001
1000
,
1100
0110
0010
0001
,
1000
0010
0100
0000
,
0001
0000
0100
0100
0010
0000
1000
0000
,
0101
1010
0001
0010
,
1100
0011
1000
0010
,
0100
0001
1000
0000
,
0001
0000
0010
0010
0100
0000
1000
0000
,
0010
1000
0100
0010
,
0001
0000
1001
0000
;
#NOTES:
     dance-single:
     :
     Hard:
     5:
     :
0000
0000
0000
0000
,
0000
0000
0000
0000
,
0000
0000
0000
0000
0001
0100
0001
0010
,
0100
1000
0000
0010
1000
0001
0100
1000
,
0100
0001
0000
1000
0100
0010
0001
0000
,
1000
0010
1000
0001
0010
0001
0000
0100
,
0000
0010
0000
1000
0001
1000
0000
0010
,
1000
0100
0000
0010
1000
0010
0001
1000
,
0000
0001
0000
0100
0010
0100
0000
0001
,
0000
1000
0000
0100
0010
0100
1000
0001
,
0000
0010
0000
0001
0100
0001
1000
0001
,
0010
0100
0000
1000
0010
1000
0100
0010
,
0001
0010
0000
0001
0100
0010
1000
0000
,
0010
1000
0100
0001
0100
1000
0000
0001
,
0000
0100
0000
0010
1000
0100
0000
0010
,
0001
0100
0000
0001
1000
0100
0010
0001
,
0000
0100
0000
0001
0010
0001
0000
1000
,
0000
0010
0000
1000
0100
0010
0001
0100
,
0000
0010
0000
1000
0001
0010
0001
1000
,
0100
0001
0100
0000
0010
0001
1000
0001
,
0100
1000
0100
0000
0010
1000
0001
0010
,
0100
1000
0001
0010
0001
0000
0000
0000
,
0010
0100
1000
0001
0100
0010
0001
0010
,
1000
0001
0010
0000
0001
0100
0010
1000
,
0010
0100
0001
0000
0010
0001
0100
1000
,
0100
0001
0010
0100
1000
0000
0000
0000
,
0001
1000
0001
0100
0010
0100
0000
0001
,
0000
0010
0000
0100
0000
1000
0000
0001
,
1000
0010
1000
0001
0100
0000
0000
0000
;
#NOTES:
     dance-double:
     :
     Beginner:
     1:
     :
00000000
00000000
00000000
00000000
,
00000000
00000000
00000000
00000000
,
00000000
00000000
10000000
00000000
,
00000000
00000000
01000000
00000000
,
00000000
00000000
00100000
00000000
,
00000000
00000000
00001000
00000000
,
00000000
00000000
00010000
00000000
,
00000000
00000000
00000100
00000000
,
00000000
00000000
00000010
00000000
,
00000001
00000000
00001000
00000000
,
00001000
00000000
00000001
00000000
,
00000000
00000000
00000100
00000000
,
00000000
00000000
00000010
00000000
,
00000000
00000000
00010000
00000000
,
00000000
00000000
00001000
00000000
,
00000000
00000000
01000000
00000000
,
00000000
00000000
00100000
00000000
,
10000000
00000000
00010000
00000000
,
00010000
00000000
00100000
00000000
,
00000000
00000000
00001000
00000000
,
00000000
00000000
00010000
00000000
,
00000000
00000000
00000010
00000000
,
00000100
00000000
00000010
00000000
,
00000000
00000000
00010000
00000000
,
00000000
00000000
00001000
00000000
,
00000000
00000000
00100000
00000000
,
01000000
00000000
10000000
00000000
,
00100000
00000000
00010000
00000000
,
00001000
00000000
00010000
00000000
;
#NOTES:
     dance-double:
     :
     Easy:
     2:
     :
00000000
00000000
00000000
00000000
,
00000000
00000000
00000000
00000000
,
00000000
00000000
00000100
00000000
,
00000010
00000000
00000100
00000000
,
00000010
00000000
00000001
00000000
,
00000100
00000000
00001000
00000000
,
00010000
00000000
01000000
00000000
,
10000000
00000000
10010000
00000000
,
10010000
00000000
00010000
00000000
,
10000000
00000000
00010000
00000000
,
00010000
00000000
01000000
00000000
,
00100000
00000000
01000000
00000000
,
00100000
00000000
10000000
00000000
,
01000000
00000000
00010000
00000000
,
00001000
00000000
00000100
00000000
,
00000001
00000000
00001001
00000000
,
00001001
00000000
00001000
00000000
,
00000001
00000000
00001000
00000000
,
00001000
00000000
00000100
00000010
,
00000001
00000000
00000100
00000010
,
00010000
00000000
00001000
00100000
,
01000000
00000000
20000000
30000000
,
00020000
00030000
01000000
00100000
,
10000000
00000000
01000000
00100000
,
00001000
00000000
00010000
00000010
,
00000100
00000000
00000002
00000003
,
00002000
00003000
00000001
00000000
,
00000100
00000000
00010000
00000000
,
00001000
00000000
00011000
00000000
;
#NOTES:
     dance-double:
     :
     Medium:
     4:
     :
00000000
00000000
00000000
00000000
,
00000000
00000000
00000000
00000000
,
00000000
00000000
00001000
00000001
,
00001000
00000000
00000100
00010000
,
00000100
00000000
00001000
00000010
,
00000100
00000001
00000010
00000100
,
00010000
00000000
00001000
00100000
,
00010000
00000000
01000000
00000000
01002000
00000000
00010000
00020000
,
00000000
00033000
00100000
10000000
,
01000000
00000000
00010000
00000000
00001000
00000000
00000100
00000001
,
00001000
00000100
00000010
00000001
,
00001000
00000000
00000001
00000010
,
00000100
00000000
00010000
00001000
,
01000000
00100000
10000000
01000000
,
00010000
00000000
00001000
00000100
,
00000001
00000000
00000010
00000000
00002010
00000000
00010000
00020000
,
00000000
00033000
00100000
10000000
,
00010000
00000000
00100000
00000000
00001000
00000000
01000000
00010000
,
00100000
01000000
10000000
00100000
,
01100000
01001000
00001000
00010000
,
00010010
00000110
00000100
00000001
,
00000010
00001000
00010000
00000000
,
00000100
00000000
00000010
00000001
00001000
00000000
00000100
00000000
,
00010100
01001000
01000000
00100000
,
10100000
00110000
00100000
01000000
,
10000000
00100000
00010000
00000000
,
00001000
00000000
00100000
00010000
01000000
00000000
00001000
00000000
,
00010000
00000100
00000010
00000001
,
00000100
00000000
00001001
00000000
;
#NOTES:
     dance-double:
     :
     Hard:
     6:
     :
00000000
00000000
00000000
00000000
,
00000000
00000000
00000000
00000000
,
00000000
00000000
00000000
00000000
00100000
10000000
01000000
00100000
,
00001000
01000000
00000000
00001000
00010000
00000100
00000010
00000001
,
00001000
00000010
00000000
00001000
00000100
00000010
00000001
00000000
,
00000100
00001000
00010000
01000000
10000000
00010000
00000000
00100000
,
00000000
00001000
00000000
01000000
00100000
10000000
00000000
01000000
,
00100000
00001000
00010000
00000010
00001010
00000101
00000011
00002200
,
00000000
00003300
00000000
00000001
00000010
00001000
00000000
00010000
,
00100000
10000000
00000000
01000000
00100000
00010000
10000000
00100000
,
00000000
01000000
00000000
00001000
01000000
00010000
00100000
00001000
,
01000000
00100000
00000000
10000000
00100000
00010000
00001000
00000010
,
00000001
00000100
00000000
00000001
00000010
00000100
00001000
00000000
,
00000010
00010000
00000100
00010000
00001000
01000000
00000000
00001000
,
00000000
00010000
00000000
01000000
00010000
00001000
00000000
00010000
,
00001000
01000000
00100000
10000000
11000000
00110000
01010000
20200000
,
00000000
30300000
00000000
00010000
10000000
00100000
00000000
00010000
,
00001000
00000010
00000000
00001000
00010000
00100000
00010000
00001000
,
00000000
01000000
00000000
00001000
00010000
00000010
00001000
00000100
,
00000001
00000100
00010000
00000000
00000010
00000100
00000001
00000010
,
00000100
00010000
00001000
00000000
00000100
00000010
00010000
00001000
,
00010000
00000000
01000000
00000000
10000000
00000000
00010000
00000000
10000000
00000000
00000000
00000000
00000000
00100000
10000000
01000000
,
00010000
00001000
00000100
00000001
00000010
00000100
00000010
00000001
,
00001000
00000001
00000100
00000000
00001000
00010000
00000100
00000010
,
00000100
00010000
00001000
00000000
01000000
00100000
01000000
10000000
,
01000000
00000000
00010000
00000000
10000000
00000000
01000000
00000000
00010000
00000000
00000000
00000000
00000000
00001000
00000100
00000001
,
00000010
00000100
00010000
00001000
01000000
00100000
00000000
10000000
,
10000000
00000000
01000000
00000000
00000000
00000000
00010000
00000000
00010000
00000000
00001000
00000000
00000000
00000000
00000100
00000010
,
00000100
00000001
00000010
00001000
00010000
00000000
00000000
00000000
;
