
//----- song ID: nrgs -----
#TITLE:NRG Surge;
#ARTIST:oo39.com;
#BANNER:NRG Surge.png;
#BACKGROUND:NRG Surge-bg.png;
#CDTITLE:./CDTitles/DDR UNIVERSE3.png;
#MUSIC:NRG Surge.ogg;
#OFFSET:-0.001;
#SAMPLESTART:60.819;
#SAMPLELENGTH:15;
#BPMS:0=146;
#NOTES:
     dance-single:
     :
     Beginner:
     1:
     :
0000
0000
0000
0000
,
0000
0000
0000
0000
,
0000
0000
0000
0000
,
0000
0000
0000
0000
,
1000
0000
0000
0000
,
0001
0000
0000
0000
,
1000
0000
0000
0000
,
0001
0000
0000
0000
,
0020
0000
0000
0030
,
0010
0000
0000
0000
,
0001
0000
0000
0000
,
0100
0000
0000
0000
,
1000
0000
0000
0000
,
0010
0000
0000
0000
,
1000
0000
0000
0000
,
0100
0000
0000
0000
,
0001
0000
0000
0000
,
0010
0000
0010
0000
,
0010
0000
0010
0000
,
0100
0000
0100
0000
,
0100
0000
0100
0000
,
1000
0000
1000
0000
,
1000
0000
1000
0000
,
0001
0000
0001
0000
,
0001
0000
0001
0000
,
0010
0000
0000
0000
,
0001
0000
0000
0000
,
0100
0000
0100
0000
,
0100
0000
0000
0000
,
0010
0000
0000
0000
,
1000
0000
0000
0000
,
0100
0000
0100
0000
,
0100
0000
0000
0000
,
1000
0000
0000
0000
,
0010
0000
0000
0000
,
0001
0000
0000
0000
,
0200
0000
0000
0300
,
0100
0000
0000
0000
,
0001
0000
0000
0000
,
1000
0000
0000
0000
,
0100
0000
0000
0000
,
0010
0010
0010
0000
,
0010
0000
0010
0000
,
0001
0000
0000
0000
,
1000
0000
0000
0000
,
0010
0010
0010
0000
,
0010
0000
0010
0000
,
1000
0000
0000
0000
,
0001
0000
0000
0000
,
1001
0000
0000
0000
,
1000
0000
0000
0000
,
0100
0000
0000
0000
,
0001
0000
0000
0000
,
0100
0100
0100
0100
;
#NOTES:
     dance-single:
     :
     Easy:
     3:
     :
0000
0000
0000
0000
,
0000
0000
0000
0000
,
0000
0000
0000
0000
,
0000
0000
0000
0000
,
1000
0100
1000
0000
,
0001
0100
0001
0000
,
1000
0010
1000
0000
,
0001
0010
0001
0000
,
0200
0000
0000
0300
,
0001
0000
0010
0000
,
0001
0100
1000
0100
,
0001
0010
1000
0010
,
0001
0000
0001
0000
,
1000
0000
0010
0000
,
1000
0100
0001
0100
,
1000
0010
0001
0010
,
1000
0000
1000
0000
,
0001
0000
0010
0001
,
0100
0000
0010
1000
,
0100
0000
0010
0001
,
0100
0000
0001
0000
,
1000
0000
0010
1000
,
0100
0000
0010
0001
,
0100
0000
0010
1000
,
0100
0000
1000
0000
,
0001
0000
0010
0000
,
0100
1000
0001
0000
,
0100
0000
0010
0000
,
1000
0000
0001
0000
,
0010
0000
0010
0000
,
0010
0000
0010
0000
,
0001
0000
1000
0000
,
0010
0000
0100
0000
,
0002
0000
0003
0000
,
2000
0000
3000
0000
,
0002
0000
0003
0000
,
2000
0000
3000
0000
,
0001
0100
0001
0000
,
1000
0100
1000
0000
,
0001
0010
0001
0000
,
1000
0010
1000
0000
,
0001
0000
0100
0000
,
0001
0010
1000
0010
,
0001
0100
1000
0100
,
0001
0000
0001
0000
,
1000
0000
0100
0000
,
1000
0010
0001
0010
,
1000
0100
0001
0100
,
1000
0000
1000
0000
,
2002
0000
3003
0000
,
0001
0010
0100
0000
,
1000
0010
0100
0100
,
0001
0100
0010
0000
,
1000
0100
0010
0010
;
#NOTES:
     dance-single:
     :
     Medium:
     5:
     :
0000
0000
0000
0000
,
0000
0000
0000
0000
,
0000
0000
0000
0000
,
0000
0000
0000
0000
,
1000
0000
0010
0000
0100
0000
0001
1000
,
0100
0000
1000
0000
0010
0000
0100
0001
,
0010
0000
0001
0000
1000
0000
0010
0100
,
0001
0000
0010
0000
0100
0000
1000
0001
,
0000
0000
0000
0000
,
1000
0001
0100
0010
,
0100
0001
0010
0100
,
1000
0010
1000
0001
,
0010
0100
0010
0000
0001
1000
0001
0000
,
0100
0010
0100
0001
,
0010
0100
1000
0010
,
1000
0100
1000
0001
,
2002
0000
0000
3003
,
1100
0000
0010
0001
,
0101
0000
0010
0100
,
1010
0000
0100
0001
,
0011
0000
0100
1000
,
1010
0000
0100
0001
,
1001
0000
0100
0010
,
1100
0000
1000
0010
,
0110
0000
0001
0010
,
0100
0000
1000
0010
1000
0000
0001
0010
,
0001
0100
0010
1000
,
0010
0000
1000
0100
1000
0000
0001
0100
,
0001
0010
0100
1000
,
0101
1100
0101
1100
,
0101
1100
0101
1100
,
0010
0000
0001
1000
0010
0000
1000
0001
,
0010
0100
1000
0001
,
2000
0000
0000
3000
,
0002
0000
0000
0003
,
0200
0000
0000
0000
,
0000
0000
0000
0300
,
0001
0000
1000
0000
0100
0000
0010
0001
,
1000
0000
0010
0000
0100
0000
0010
1000
,
0100
0000
1000
0000
0001
0000
0100
0010
,
1000
0000
0001
0000
0010
0000
0100
1000
,
0001
0100
1000
0100
,
0001
0100
1000
0100
,
0001
0010
0100
1000
,
0001
0010
0100
0000
1000
0001
0001
0000
,
1000
0100
0001
0100
,
1000
0100
0001
0100
,
1000
0010
0100
0001
,
1000
0010
0100
0000
0001
1000
1000
0000
,
0100
0000
0000
0000
,
0010
0000
0001
0000
1000
0000
0010
1000
,
0100
0000
0010
0000
0100
0000
1000
0001
,
0100
0000
0010
0000
1000
0000
0001
0010
,
0100
0000
1000
0000
0010
0000
0100
0001
;
#NOTES:
     dance-single:
     :
     Hard:
     8:
     :
0000
0000
0000
0000
,
0000
0000
0000
0000
,
0000
0000
0000
0000
,
0000
0000
0000
0000
,
1000
0000
0100
0000
1000
0000
0000
0010
0000
0100
0000
0000
0001
0000
0010
0000
,
0001
0000
0100
0000
0001
0000
0000
1000
0000
0100
0000
0000
0010
0000
0001
0000
,
1000
0000
0010
0000
1000
0000
0000
0100
0000
0010
0000
0000
0100
0000
1000
0000
,
0001
0000
0010
0000
0001
0000
0000
1000
0000
0010
0000
0000
0100
0000
0001
0000
,
0000
0000
0000
0000
0000
0000
0000
0010
0000
0100
0000
0000
1000
0000
0001
0000
,
0000
0010
0001
0100
0010
0100
0001
0000
,
1000
0100
0010
0001
,
0100
0010
1000
0001
,
0010
0100
0100
0000
1000
0001
0001
0000
,
0000
0100
0010
1000
0001
1000
0100
0000
,
0010
0001
1000
0010
,
0100
0001
1000
0100
,
1000
0001
1000
0001
,
0100
0000
0000
0010
0000
0000
1000
0000
0100
0000
0000
0010
0000
0000
0001
0000
,
0100
0000
0000
0010
0000
0000
0100
0000
0001
0000
0000
0010
0000
0000
0001
0000
,
1000
0000
0000
0010
0000
0000
1000
0000
0100
0000
0000
0010
0000
0000
0001
0000
,
0100
0000
0000
1000
0000
0000
0100
0000
0001
0000
0000
0010
0000
0000
0100
0000
,
1000
0000
0000
0001
0000
0000
0010
0000
0001
0000
0000
1000
0000
0000
0010
0000
,
0001
0000
0000
0010
0000
0000
1000
0000
0100
0000
0000
0010
0000
0000
0001
0000
,
1000
0000
0000
0100
0000
0000
1000
0000
0010
0000
0000
0100
0000
0000
0001
0000
,
0010
0000
0000
0001
0000
0000
0100
0000
0010
0000
0000
1000
0000
0000
0100
0000
,
0010
0001
0100
0001
1000
0100
0010
0000
,
0100
1000
0010
0001
0010
1000
0001
0000
,
0010
0100
0010
0001
1000
0001
0100
0000
,
1000
0100
0001
0010
0100
1000
0001
0000
,
0010
0010
0001
0001
1000
1000
0100
0100
,
1000
1000
0010
0010
0100
0100
0001
0001
,
1000
0100
0010
0100
,
1000
0001
0010
0001
,
2000
0010
0001
3100
,
0002
0010
1000
0103
,
2002
0000
0000
0000
,
0000
0000
0000
3003
,
0100
0000
0010
0000
0001
0000
0000
1000
0000
0010
0000
0000
1000
0000
0100
0000
,
0010
0000
0100
0000
1000
0000
0000
0010
0000
0100
0000
0000
0001
0000
0100
0000
,
0010
0000
0100
0000
0001
0000
0000
1000
0000
0001
0000
0000
0010
0000
0100
0000
,
0010
0000
0001
0000
1000
0000
0000
0001
0000
0100
0000
0000
0001
0000
0010
0000
,
0000
0001
1000
0100
1000
0010
0100
0000
,
0001
0010
0001
1000
,
0010
0100
0001
0010
,
0001
1000
1000
0000
0010
0100
0100
0000
,
0000
0010
1000
0001
0010
0100
1000
0000
,
0001
0010
0100
1000
,
0010
0100
0001
1000
,
0001
0010
0100
1000
0100
0010
0001
1000
,
0020
0000
0030
0000
,
0001
0000
0010
0000
0100
0000
0000
1000
0000
0001
0000
0000
0100
0000
0010
0000
,
1000
0000
0100
0000
1000
0000
0000
0001
0000
0100
0000
0000
0010
0000
0100
0000
,
0001
0000
0010
0000
0001
0000
0000
1000
0000
0010
0000
0000
0100
0000
1000
0000
,
0100
0000
0001
0000
1000
0000
0000
0100
0000
0010
0000
0000
0001
0000
1000
0000
;
#NOTES:
     dance-single:
     :
     Challenge:
     9:
     :
0000
0000
0000
0000
,
0000
0000
0000
0000
,
0000
0000
0000
0000
,
0000
0000
0000
0000
,
0001
0000
0010
0000
0001
1000
0000
0010
0000
0100
0000
0001
0010
0000
0100
0000
,
1000
0000
0010
0000
0100
0001
0000
1000
0000
0001
0000
0010
0100
0000
0001
0000
,
0100
0000
1000
0000
0010
0100
0000
0001
0000
1000
0000
0001
0100
0000
1000
0000
,
0100
0000
0010
0000
1000
0100
0000
0010
0000
0001
0000
1000
0010
0000
0200
0000
,
0000
0000
0000
0000
0000
0000
0000
0301
0000
0010
0000
0100
1000
0000
0001
0000
,
0000
1000
0100
0010
0001
0100
0010
0100
,
0001
0000
1000
0001
0010
1000
0001
0100
,
1000
0000
0010
0100
0001
0010
0001
1000
,
0010
0000
0100
0000
0001
1000
0000
0010
0000
1000
0000
0001
0010
0000
0100
0000
,
0000
0010
0100
1000
0010
1000
0001
0100
,
0010
0000
1000
0001
0100
1000
0001
0010
,
1000
0000
0100
0010
0020
0000
0000
0000
,
0000
0000
0000
0200
0000
0000
0330
0000
,
1000
0000
0000
0001
0000
0100
0010
0000
1000
0000
0000
0100
0000
0000
0010
0000
,
0001
0000
0000
0100
0000
0010
1000
0000
0001
0000
0000
0100
0000
0000
1000
0000
,
0100
0000
0000
0001
0000
0010
0100
0000
1000
0000
0000
0010
0000
0000
1000
0000
,
0100
0000
0000
0010
0000
0001
1000
0000
0010
0000
0000
1000
0000
0000
0001
0000
,
0100
0000
0000
1000
0000
0100
0001
0000
0010
0000
0000
0100
0000
0000
1000
0000
,
0010
0000
0000
1000
0000
0100
0010
0000
0001
0000
0000
0100
0000
0000
0010
0000
,
0100
0000
0000
0001
0000
1000
0100
0000
0010
0000
0000
0100
0000
0000
1000
0000
,
0010
0000
0000
0001
0000
0010
1000
0000
0001
0000
0000
0010
0000
0000
0100
0000
,
1000
0000
0000
0001
0000
0000
1000
0000
0100
0000
0000
0010
0000
0000
0001
0000
,
0100
0000
0000
0001
0000
0000
1000
0000
0000
0000
0001
0000
0010
0000
0100
0000
,
1000
0010
0100
0001
1000
0100
0010
0001
,
0100
0010
1000
0001
0100
0010
0100
0001
,
1000
0010
0001
0010
1000
0010
0001
0010
,
1000
0010
0001
0010
1000
0010
0100
0001
,
0010
0000
0000
0001
0000
0000
0100
0000
0010
0000
0000
0100
0000
0000
0001
0000
,
1000
0000
0000
0010
0000
0000
0100
0000
0001
0000
0000
0010
0000
0000
0100
0000
,
0000
1000
0001
1000
0001
0010
0000
0001
,
0000
1000
0010
0100
,
0002
0010
1000
0103
,
1010
0000
0000
0000
,
0100
0000
0010
0000
0001
1000
0000
0010
0000
1000
0000
0100
0010
0000
0001
0000
,
0100
0000
0010
0000
1000
0100
0000
0010
0000
0001
0000
0100
0010
0000
1000
0000
,
0100
0000
0001
0000
0100
1000
0000
0001
0000
0100
0000
0010
1000
0000
0001
0000
,
0100
0000
1000
0000
0100
0001
0000
0010
0000
0100
0000
1000
0001
0000
0100
0000
,
0000
0010
1000
0010
0100
0001
0010
0100
,
1000
0000
0001
0010
0100
0010
0001
1000
,
0010
0000
1000
0100
0001
1000
0010
0001
,
0100
0000
0010
0000
0100
0001
0000
1000
0000
0100
0000
0010
0001
0000
1000
0000
,
0000
0010
1000
0001
1000
0100
0010
0100
,
1000
0000
0010
1000
0100
0001
0100
1000
,
0010
0000
1000
0100
0001
1000
0010
0001
,
0100
0010
0100
0001
1000
0001
1000
0010
,
0200
0000
0300
0000
,
0001
0000
0010
0000
0001
1000
0000
0010
0000
0100
0000
0001
0010
0000
0100
0000
,
0010
0000
0001
0000
1000
0010
0000
0100
0000
0010
0000
1000
0001
0000
0100
0000
,
1000
0000
0100
0000
0010
1000
0000
0100
0000
0001
0000
0100
1000
0000
0010
0000
,
0100
0000
0001
0000
0010
0100
0000
1000
0000
0010
0000
0100
0001
0000
1000
0000
;
#NOTES:
     dance-double:
     :
     Beginner:
     1:
     :
00000000
00000000
00000000
00000000
,
00000000
00000000
00000000
00000000
,
00000000
00000000
00000000
00000000
,
00000000
00000000
00000000
00000000
,
00000001
00000000
00000000
00000000
,
00000100
00000000
00000000
00000000
,
00001000
00000000
00000000
00000000
,
00010000
00000000
00000000
00000000
,
00002000
00000000
00000000
00003000
,
00001000
00000000
00000000
00000000
,
00010000
00000000
00000000
00000000
,
01000000
00000000
00000000
00000000
,
10000000
00000000
00000000
00000000
,
00100000
00000000
00000000
00000000
,
01000000
00000000
00000000
00000000
,
00010000
00000000
00000000
00000000
,
10000000
00000000
00000000
00000000
,
00100000
00000000
01000000
00000000
,
00100000
00000000
01000000
00000000
,
00100000
00000000
01000000
00000000
,
00100000
00000000
01000000
00000000
,
00001000
00000000
00001000
00000000
,
00010000
00000000
00001000
00000000
,
01000000
00000000
01000000
00000000
,
00100000
00000000
01000000
00000000
,
00001000
00000000
00000000
00000000
,
00010000
00000000
00000000
00000000
,
00000100
00000000
00000100
00000000
,
00000100
00000000
00000000
00000000
,
00000010
00000000
00000000
00000000
,
00000001
00000000
00000000
00000000
,
00001000
00000000
00000001
00000000
,
00001000
00000000
00000000
00000000
,
00000001
00000000
00000000
00000000
,
00000010
00000000
00000000
00000000
,
00001000
00000000
00000000
00000000
,
00020000
00000000
00000000
00030000
,
00010000
00000000
00000000
00000000
,
00001000
00000000
00000000
00000000
,
00010000
00000000
00000000
00000000
,
00100000
00000000
00000000
00000000
,
10000000
10000000
10000000
00000000
,
01000000
00000000
00100000
00000000
,
01000000
00000000
00000000
00000000
,
00100000
00000000
00000000
00000000
,
00001000
00001000
00001000
00000000
,
00010000
00000000
00001000
00000000
,
00010000
00000000
00000000
00000000
,
00000100
00000000
00000000
00000000
,
00000110
00000000
00000000
00000000
,
00000010
00000000
00000000
00000000
,
00000001
00000000
00000000
00000000
,
00000100
00000000
00000000
00000000
,
00000010
00000010
00000010
00000010
;
#NOTES:
     dance-double:
     :
     Easy:
     4:
     :
00000000
00000000
00000000
00000000
,
00000000
00000000
00000000
00000000
,
00000000
00000000
00000000
00000000
,
00000000
00000000
00000000
00000000
,
00000001
00000100
00000001
00000000
,
00000010
00000100
00010000
00000000
,
00001000
01000000
00100000
00000000
,
10000000
01000000
10000000
00000000
,
00200000
00000000
00000000
00300000
,
00010000
00000000
00001000
00000000
,
00010000
00001000
00000010
00001000
,
00010000
00100000
00010000
00001000
,
01000000
00000000
01000000
00000000
,
00001000
00000000
00010000
00000000
,
00001000
00010000
00100000
00010000
,
00001000
00000010
00001000
00010000
,
00000100
00000000
00000100
00000000
,
00000010
00000000
00000001
00000100
,
00001000
00000000
00010000
01000000
,
10000000
00000000
00100000
00010000
,
00001000
00000000
01000000
00000000
,
00100000
00000000
10000000
01000000
,
00010000
00000000
00001000
00000100
,
00000001
00000000
00000010
00001000
,
00010000
00000000
00000100
00000000
,
00000010
00000000
00000001
00000000
,
00000100
00000000
00001000
00000000
,
00010000
00000000
01000000
00000000
,
10000000
00000000
00100000
00000000
,
00010000
00000000
00001000
00000000
,
00010000
00000000
00001000
00000000
,
01000000
00000000
00100000
00000000
,
10000000
00000000
01000000
00000000
,
00020000
00000000
00030000
00000000
,
00002000
00000000
00003000
00000000
,
00020000
00000000
00030000
00000000
,
00002000
00000000
00003000
00000000
,
00010000
00001000
00010000
00000000
,
00001000
01000000
00001000
00000000
,
00010000
00000100
00010000
00000000
,
00001000
00010000
00001000
00000000
,
00010000
00000000
00001000
00000000
,
00010000
00001000
00000100
00001000
,
00010000
01000000
00010000
00001000
,
01000000
00000000
01000000
00000000
,
00001000
00000000
00010000
00000000
,
00001000
00010000
01000000
00010000
,
00001000
00000100
00001000
00010000
,
00000100
00000000
00000100
00000000
,
00002002
00000000
00003003
00000000
,
00000001
00000010
00000100
00000000
,
00010000
00001000
00010000
00010000
,
00001000
00010000
01000000
00000000
,
10000000
00100000
01000000
01000000
;
#NOTES:
     dance-double:
     :
     Medium:
     6:
     :
00000000
00000000
00000000
00000000
,
00000000
00000000
00000000
00000000
,
00000000
00000000
00000000
00000000
,
00000000
00000000
00000000
00000000
,
00100000
00000000
01000000
00000000
00100000
00000000
10000000
01000000
,
00010000
00000000
00001000
00000000
00010000
00000000
00001000
00000100
,
00000001
00000000
00001000
00000000
00000001
00000000
00000100
00000010
,
00010000
00000000
00001000
00000000
00000010
00000000
00000001
00001000
,
00000000
00000000
00000000
00000000
,
00000001
00000010
00001000
00010000
,
00100000
10000000
00010000
10000000
,
01000000
00100000
00001000
00010000
,
00100000
10000000
00100000
00000000
10000000
01000000
10000000
00000000
,
01000000
00100000
00001000
00010000
,
00000100
00010000
00001000
01000000
,
00100000
10000000
01000000
00010000
,
00022000
00000000
00000000
00033000
,
00011000
00000000
00000010
00000001
,
00001010
00000000
00000100
00000010
,
00011000
00000000
00100000
01000000
,
10100000
00000000
01000000
00010000
,
01100000
00000000
10000000
01000000
,
00110000
00000000
00001000
00010000
,
00001100
00000000
00000010
00000100
,
00001001
00000000
00000001
00000010
,
00000001
00000000
00001000
00000100
00001000
00000000
00000100
00010000
,
00000100
00001000
00000001
00000010
,
00001000
00000000
00010000
00001000
00010000
00000000
00001000
00100000
,
00001000
01000000
00010000
10000000
,
10100000
11000000
01010000
00011000
,
00001100
00000101
00000011
00001001
,
00001000
00000000
00000001
00000100
00000001
00000000
00001000
00000100
,
00001000
00000010
00010000
00001000
,
00020000
01000000
00000000
01030000
,
02000000
10000000
00000000
13000000
,
20000000
00000000
00000000
00000000
,
00000000
00000000
00000000
30000000
,
00100000
00000000
10000000
00000000
01000000
00000000
00100000
00001000
,
00010000
00000000
00001000
00000000
00010000
00000000
00000010
00001000
,
00000001
00000000
00000100
00000000
00000001
00000000
00000010
00000100
,
00010000
00000000
00001000
00000000
01000000
00000000
00100000
10000000
,
00010000
01000000
00001000
00010000
,
00000100
00010000
00001000
00100000
,
00001000
00010000
00000010
00001000
,
00000001
00000010
00000100
00000000
00010000
00001000
00010000
00000000
,
00001000
01000000
00001000
00010000
,
00000100
00010000
00001000
00100000
,
00001000
00010000
00000010
00010000
,
00001000
00100000
01000000
00000000
10000000
00010000
10000000
00000000
,
10010000
00000000
00000000
00000000
,
01000000
00000000
00100000
00000000
00001000
00000000
00010000
00001000
,
00010000
00000000
00000100
00000000
00000010
00000000
00000001
00001000
,
00000001
00000000
00000100
00000000
00000010
00000000
00010000
00001000
,
00010000
00000000
00000100
00000000
00000010
00000000
00000001
00001000
;
#NOTES:
     dance-double:
     :
     Hard:
     8:
     :
00000000
00000000
00000000
00000000
,
00000000
00000000
00000000
00000000
,
00000000
00000000
00000000
00000000
,
00000000
00000000
00000000
00000000
,
00000010
00000001
00001000
00000001
00000100
00001000
00010000
00000000
,
00000100
00000010
00000001
00000010
00001000
00010000
00001000
00000000
,
00100000
00010000
01000000
10000000
01000000
00010000
10000000
00000000
,
01000000
00010000
01000000
00100000
00001000
00010000
00001000
01000000
,
00000000
00000000
00010000
10000000
,
00100000
00000000
10000000
00000000
01000000
00010000
00001000
00000000
,
01000000
00000000
00100000
00000000
00010000
00001000
00100000
00000000
,
00001000
00000000
00010000
00000000
00001000
00000100
00000001
00000000
,
00000010
00000001
00000100
00000000
00000010
00001000
00000100
00000000
,
00001000
00000000
00000001
00000000
00000100
00000010
00010000
00000000
,
00000100
00000000
00010000
00000000
00001000
01000000
00100000
00000000
,
10000000
00000000
00010000
00000000
10000000
01000000
00100000
00000000
,
00010000
00100000
01000000
10000000
,
00100000
00000000
00000000
10000000
00000000
00000000
01000000
00000000
00010000
00000000
00000000
01000000
00000000
00000000
00100000
00000000
,
00001000
00000000
00000000
01000000
00000000
00000000
00001000
00000000
00010000
00000000
00000000
00100000
00000000
00000000
10000000
00000000
,
01000000
00000000
00000000
00100000
00000000
00000000
00001000
00000000
00010000
00000000
00000000
00000010
00000000
00000000
00000100
00000000
,
00000001
00000000
00000000
00000010
00000000
00000000
00000001
00000000
00001000
00000000
00000000
00000001
00000000
00000000
00000100
00000000
,
00001000
00000000
00000000
00000100
00000000
00000000
00000010
00000000
00010000
00000000
00000000
00001000
00000000
00000000
00100000
00000000
,
01000000
00000000
00000000
00100000
00000000
00000000
00001000
00000000
01000000
00000000
00000000
00010000
00000000
00000000
10000000
00000000
,
00100000
00000000
00000000
01000000
00000000
00000000
00001000
00000000
00100000
00000000
00000000
01000000
00000000
00000000
10000000
00000000
,
00010000
00000000
00000000
10000000
00000000
00000000
00100000
00000000
00010000
00000000
00000000
00001000
00000000
00000000
01000000
00000000
,
00100000
10000000
01000000
00010000
01000000
10000000
00010000
00000000
,
01000000
10000000
01000000
00010000
00100000
00001000
00010000
00000000
,
00001000
00000010
00000001
00001000
00000001
00000100
00000010
00000000
,
00001000
00000010
00000100
00000001
00000010
00000100
00010000
00000000
,
00001000
00001000
00010000
00010000
00000100
00000100
00000010
00000010
,
00000001
00000001
00000100
00000100
00000010
00000010
00010000
00010000
,
00001000
01000000
00100000
10000000
,
01000000
00100000
00001000
00010000
,
00002000
00000100
00010000
00003100
,
00020000
01000000
00001000
01030000
,
20020000
00000000
00000000
00000000
,
00000000
00000000
00000000
30030000
,
00100000
10000000
01000000
10000000
00100000
01000000
00001000
00000000
,
00010000
00000010
00001000
00000010
00010000
00001000
00000100
00000000
,
00000001
00000010
00000100
00000001
00000100
00001000
00000001
00000000
,
00000100
00000001
00000010
00001000
00010000
00001000
00100000
00000000
,
00010000
00000000
10000000
00000000
01000000
00100000
00001000
00000000
,
00010000
00000000
00001000
00000000
01000000
00100000
10000000
00000000
,
01000000
00000000
00010000
00000000
00001000
00010000
00100000
00000000
,
10000000
01000000
00010000
00000000
00001000
00000100
00000001
00000000
,
00000010
00000000
00000100
00000000
00001000
00000001
00000100
00000000
,
00001000
00000000
00000100
00000000
00000010
00010000
00001000
00000000
,
00000010
00000000
00000001
00000000
00000100
00001000
00010000
00000000
,
00001000
01000000
00001000
00010000
00000100
00010000
00001000
00100000
,
02000000
00000000
03000000
00000000
,
10000000
01000000
10000000
00010000
01000000
00100000
00010000
00000000
,
00100000
10000000
01000000
00100000
00001000
00010000
00100000
00000000
,
10000000
01000000
00010000
00001000
00000100
00000001
00000010
00000000
,
00000001
00000100
00000010
00000100
00001000
00010000
00001000
00010000
;
#NOTES:
     dance-double:
     :
     Challenge:
     9:
     :
00000000
00000000
00000000
00000000
,
00000000
00000000
00000000
00000000
,
00000000
00000000
00000000
00000000
,
00000000
00000000
00000000
00000000
,
00000010
00000000
00000001
00000000
00000100
00000010
00000000
00010000
00000000
00001000
00000000
00000100
00000010
00000000
00010000
00000000
,
00001000
00000000
00100000
00000000
00001000
01000000
00000000
00010000
00000000
00100000
00000000
00001000
01000000
00000000
00100000
00000000
,
10000000
00000000
01000000
00000000
00010000
00001000
00000000
01000000
00000000
00100000
00000000
01000000
00010000
00000000
10000000
00000000
,
01000000
00000000
00100000
00000000
00001000
00010000
00000000
00000010
00000000
00001000
00000000
00000100
00000010
00000000
00000002
00000000
,
00000000
00000000
00000000
00000000
00000000
00000000
00000000
00000013
00000000
00000100
00000000
00001000
00000001
00000000
00000100
00000000
,
00000010
00010000
00001000
00000100
00000001
00000010
00000100
00010000
,
00001000
01000000
00100000
00010000
00001000
00100000
01000000
10000000
,
00100000
01000000
00001000
00010000
,
00100000
00000000
10000000
00000000
01000000
00100000
00000000
00010000
00000000
10000000
00000000
00010000
01000000
00000000
00001000
00000000
,
00010000
00000100
00000010
00000001
00000100
00001000
00010000
00000010
,
00010000
00000100
00001000
00000010
00010000
00000100
00000010
00000100
,
00010000
00001000
00010000
00100000
,
10000000
00010000
00100000
00100000
,
00010000
00000000
00000000
10000000
00000000
00010000
01000000
00000000
10000000
00000000
00000000
01000000
00000000
00000000
00001000
00000000
,
00010000
00000000
00000000
00000100
00000000
00000010
00000001
00000000
00001000
00000000
00000000
00000001
00000000
00000000
00000100
00000000
,
00001000
00000000
00000000
00010000
00000000
00000100
00000010
00000000
00001000
00000000
00000000
00010000
00000000
00000000
00001000
00000000
,
01000000
00000000
00000000
00010000
00000000
00100000
01000000
00000000
10000000
00000000
00000000
00100000
00000000
00000000
01000000
00000000
,
00001000
00000000
00000000
00010000
00000000
00001000
01000000
00000000
00100000
00000000
00000000
10000000
00000000
00000000
01000000
00000000
,
00010000
00000000
00000000
00001000
00000000
00010000
00000100
00000000
00001000
00000000
00000000
00000001
00000000
00000000
00000100
00000000
,
00001000
00000000
00000000
00000100
00000000
00000001
00000010
00000000
00000100
00000000
00000000
00010000
00000000
00000000
00001000
00000000
,
00000010
00000000
00000000
00000001
00000000
00000100
00000010
00000000
00010000
00000000
00000000
00001000
00000000
00000000
00100000
00000000
,
00010000
01000000
10000000
01000000
00100000
10000000
01000000
00100000
,
00001000
01000000
00001000
00010000
00000100
00000010
00000001
00001000
,
00000010
00010000
00001000
00000100
00000001
00000010
00000100
00010000
,
00001000
01000000
00100000
10000000
00010000
00100000
01000000
10000000
,
00100000
10000000
01000000
00010000
00001000
00000100
00000001
00000010
,
00001000
00010000
00100000
10000000
01000000
00010000
00001000
00000100
,
00000001
00000010
00000100
00010000
00000010
00000100
00000001
00000010
,
00000100
00001000
00000010
00010000
00000100
00010000
00001000
00000000
,
00000000
01000000
00100000
01000000
00100000
01000000
00000000
00001000
,
00000000
00010000
01000000
10000000
,
00200000
10000000
01000000
00310000
,
00011000
00000000
00000000
00000000
,
00000010
00000000
00000001
00000000
00001000
00000010
00000000
00010000
00000000
00000100
00000000
00001000
00000010
00000000
00010000
00000000
,
00001000
00000000
00100000
00000000
00010000
01000000
00000000
00001000
00000000
00010000
00000000
00001000
00100000
00000000
00010000
00000000
,
01000000
00000000
00100000
00000000
10000000
01000000
00000000
00100000
00000000
01000000
00000000
10000000
00010000
00000000
01000000
00000000
,
00001000
00000000
00010000
00000000
00000100
00000010
00000000
00000001
00000000
00001000
00000000
00000010
00000100
00000000
00000001
00000000
,
00000010
00001000
00010000
00100000
10000000
01000000
00100000
00001000
,
00010000
00001000
01000000
00100000
10000000
01000000
00100000
00001000
,
01000000
00001000
00010000
00000100
,
00000010
00000000
00000001
00000000
00001000
00000010
00000000
00000100
00000000
00000010
00000000
00010000
00001000
00000000
01000000
00000000
,
00100000
01000000
00010000
10000000
00100000
01000000
00100000
10000000
,
01000000
00010000
00001000
01000000
00100000
00010000
00001000
00100000
,
01000000
10000000
00100000
00010000
,
00001000
00000000
00000010
00000000
00000001
00000000
00000100
00001000
,
00020000
00000000
00030000
00000000
,
00001000
00000000
01000000
00000000
00010000
00100000
00000000
10000000
00000000
00100000
00000000
00001000
00010000
00000000
00000010
00000000
,
00001000
00000000
00000100
00000000
00000010
00000001
00000000
00000100
00000000
00001000
00000000
00010000
00000100
00000000
00000010
00000000
,
00000100
00000000
00010000
00000000
00001000
01000000
00000000
00100000
00000000
10000000
00000000
00010000
00100000
00000000
01000000
00000000
,
10000000
00000000
00100000
00000000
01000000
00001000
00000000
00100000
00000000
00001000
00000000
00010000
00000010
00000000
00000100
00000000
;
