
//----- song ID: lest -----
#TITLE:Less Than Three (Ricardo Autobahn Remix);
#ARTIST:Becky;
#BANNER:Less Than Three (Ricardo Autobahn Remix).png;
#BACKGROUND:Less Than Three (Ricardo Autobahn Remix)-bg.png;
#CDTITLE:./CDTitles/DDR UNIVERSE3.png;
#MUSIC:Less Than Three (Ricardo Autobahn Remix).ogg;
#OFFSET:-0.001;
#SAMPLESTART:35.997;
#SAMPLELENGTH:15;
#BPMS:0=160;
#NOTES:
     dance-single:
     :
     Beginner:
     2:
     :
0000
0000
0000
0000
,
0000
0000
0000
0000
,
0000
0000
0000
0000
,
0000
0000
0000
0000
,
0001
0000
1000
0000
,
0010
0000
0100
0000
,
0001
0000
1000
0000
,
0100
0010
0100
0000
,
2000
0000
0000
3000
,
0000
0000
0000
0000
,
0002
0000
0000
0003
,
0000
0000
0000
0000
,
0200
0000
0000
0300
,
0000
0000
0000
0000
,
0020
0000
0000
0030
,
0000
0000
0000
0000
,
1000
0000
0010
0000
,
1000
0000
0010
0000
,
0100
0000
0010
0000
,
0100
0000
0010
0000
,
0100
0000
0001
0000
,
0100
0000
0001
0000
,
1000
0000
0001
0000
,
0010
0100
0010
0000
,
0110
0000
0000
0000
,
1001
0000
0000
0000
,
0001
0000
0100
0000
,
0010
1000
0010
0000
,
1001
0000
0000
0000
,
0110
0000
0000
0000
,
1000
0000
0100
0000
,
0010
0001
0010
0000
,
1001
0000
0000
0000
,
0010
0000
0100
0000
,
1000
0000
0001
0000
,
0100
0000
0010
0000
,
1000
0001
1000
0000
,
0001
0000
1000
0000
,
0010
0000
1000
0000
,
0100
0000
0010
0000
,
0001
1000
0001
0000
,
0100
0000
0100
0000
,
0010
0000
1000
0000
,
0100
0000
0100
0000
,
0010
0000
0001
0000
,
1000
0000
1000
0000
,
0010
0000
0100
0000
,
0001
0000
0001
0000
,
1001
0000
0000
0000
,
0100
0000
0010
0000
,
1000
0000
1000
0000
,
0100
0000
0010
0000
,
0001
0000
0001
0000
,
0100
0000
0010
0000
,
1000
0000
1000
0000
,
0100
0000
0010
0000
,
0001
1000
0001
0000
,
1000
0000
1000
0000
,
0001
0000
0001
0000
,
0100
0000
0100
0000
,
0110
0000
0000
0000
,
1000
0000
1000
0000
,
0100
0000
0100
0000
,
0010
0000
0010
0000
,
0100
0000
0000
0000
,
2002
0000
0000
3003
;
#NOTES:
     dance-single:
     :
     Easy:
     4:
     :
0000
0000
0000
0000
,
0000
0000
0000
0000
,
0000
0000
0000
0000
,
0000
0000
0000
0000
,
1000
0000
0001
0010
,
0100
0000
1000
0100
,
0010
0000
0001
0100
,
0010
1000
0001
0000
,
1000
0000
0010
0000
,
0100
0001
0100
0000
,
0010
0000
1000
0000
,
0100
0010
0100
0000
,
0010
0000
0001
0000
,
1000
0001
0100
0010
,
1000
0000
0100
0000
,
0010
0001
1000
0010
,
0100
0100
0001
0001
,
1000
0000
0010
0000
,
0100
0100
0010
0010
,
1000
0000
0100
0000
,
0010
0010
0001
0001
,
0010
0100
1000
0000
,
0001
1000
0001
1000
,
0010
0100
0010
0100
,
0001
0001
1000
0000
,
1000
1000
0100
0000
,
0010
0001
0010
0100
,
1000
1000
0001
0000
,
0010
0010
0100
0000
,
0100
0100
1000
0000
,
0010
0100
0001
1000
,
0100
0100
0010
0000
,
1001
0000
0000
0000
,
0110
0000
0010
0000
,
0100
0010
1000
0000
,
1001
0000
0010
0000
,
0100
0100
1000
0000
,
0110
0000
0001
0000
,
0010
0100
1000
0000
,
1001
0000
0010
0000
,
0100
0100
0001
0001
,
1000
0100
1000
0000
,
0001
0100
0010
0000
,
1000
0001
1000
0000
,
0100
0010
0001
0000
,
0100
0010
0100
0000
,
0010
1000
0001
0010
,
0100
1000
0100
0010
,
0002
0000
0000
0003
,
1000
0010
0100
0001
,
0010
0010
0100
0000
,
0100
0010
0001
0010
,
0100
0100
1000
0000
,
0001
0100
0010
0010
,
1000
0100
0010
0000
,
0001
1000
0001
1000
,
0010
0100
0010
0100
,
0001
0001
1000
1000
,
0100
0010
0001
0000
,
0100
0010
1000
0001
,
0010
0100
0100
0000
,
1000
1000
0010
0010
,
0100
0001
0010
0000
,
0100
1000
0001
0100
,
0010
0010
0010
0100
,
2002
0000
0000
3003
;
#NOTES:
     dance-single:
     :
     Medium:
     6:
     :
0000
0000
0000
0000
,
0000
0000
0000
0000
,
0000
0000
0000
0000
,
0000
0000
0000
0000
,
0001
1000
0010
0100
,
0001
0010
0100
1000
,
0001
0100
0001
0000
1000
0010
1000
0000
,
0001
1000
0001
1000
0001
0000
0010
0000
,
0100
1000
0001
0100
,
0010
1000
0100
0000
,
0001
0010
0100
1000
,
0100
0010
0001
0000
,
1000
0001
0100
0001
,
1000
0001
0010
0100
,
1000
0010
0100
0001
,
1000
0010
1000
0000
0001
1000
0001
0000
,
1001
1000
1001
0001
,
0100
0010
1000
0000
,
1010
0010
1010
1000
,
0001
0010
0100
0000
,
1100
0100
1100
1000
,
0100
0000
0010
0100
0010
0000
0001
0000
,
0010
0100
1000
0001
,
0110
1001
0110
1001
,
0001
0100
0001
0000
0100
0001
1000
0000
,
0100
0000
0010
0000
0001
0010
0100
0000
,
1000
0000
0001
0000
0100
0010
1000
0000
,
0001
0100
0001
0100
0001
0000
1001
0000
,
1000
0100
1000
0000
0100
1000
0001
0000
,
0100
0000
0010
0000
1000
0010
0100
0000
,
0001
0000
1000
0000
0100
0010
0100
0000
,
0010
0001
0010
0001
0010
0000
0100
0000
,
1001
0000
0000
0000
,
0001
1000
0010
0100
,
0001
0010
0100
1000
,
0001
0100
0001
0000
1000
0010
1000
0000
,
0001
0000
0010
0100
1000
0000
0000
0000
,
0001
0100
0010
1000
,
0001
0010
0100
1000
,
0001
0100
0001
0000
1000
0010
0100
0000
,
0001
0000
0010
0100
1000
0000
0001
0000
,
0100
0000
0010
0000
1000
0001
1000
0000
,
0100
0000
0010
0001
0010
0000
0000
0000
,
0010
0100
1000
0000
0001
0100
0010
0000
,
1000
0000
0001
1000
0001
0000
0000
0000
,
0100
0010
0100
0000
0001
1000
0001
0000
,
0010
0000
0100
1000
0100
0000
1000
0000
,
0010
0000
0100
0000
0001
1000
0000
0001
,
0000
1000
0001
0000
1000
0000
0010
0000
,
0101
0100
0101
0001
,
0100
0001
1000
0000
,
1010
0010
1010
1000
,
0001
0010
0100
0000
,
1001
1000
1001
0001
,
0100
0000
0010
1000
0010
0000
0100
0000
,
0001
1000
0100
0010
,
0011
1100
0011
1100
,
1000
0100
1000
0000
0100
1000
0001
0000
,
0100
0000
0010
0000
1000
0001
0100
0000
,
0010
0000
1000
0000
0100
0010
0001
0000
,
1000
0001
1000
0001
1000
0000
1001
0000
,
0001
0100
0001
0000
0100
0001
1000
0000
,
0100
0000
0010
0000
0001
1000
0100
0000
,
0010
0000
0001
0000
1000
0010
0100
0000
,
0001
1000
0001
1000
0001
0000
0010
0000
,
2002
0000
0000
3003
;
#NOTES:
     dance-single:
     :
     Hard:
     8:
     :
0000
0000
0000
0000
,
0000
0000
0000
0000
,
0000
0000
0000
0000
,
0000
0000
0000
0000
,
1000
0000
0001
0001
0100
0010
0000
0010
,
0000
0010
1000
0000
0001
0010
0000
0010
,
0000
0010
0100
0000
1000
0010
0000
0010
,
0000
0010
0100
0000
1001
0000
0000
0000
,
0001
0000
0001
0000
0001
1000
0000
0010
,
0000
0100
0000
0001
0000
0000
0000
1000
,
0001
1000
0000
0100
0000
0010
0000
0001
,
0000
0010
0000
0100
0000
0000
0000
0010
,
0001
1000
0000
0001
0000
0010
0000
0001
,
0000
1000
0000
0010
0000
0000
0100
0000
,
0001
0000
1000
0000
0100
0010
0000
0100
,
1000
0001
1000
0001
0100
0010
1000
0100
,
1100
0100
0101
0100
,
0001
0100
0000
1000
0000
0001
0100
0000
,
1010
0010
0011
0010
,
1000
0010
0000
0001
0000
0010
1000
0000
,
1001
0000
0010
0000
0100
0001
0000
0000
,
0010
0000
0100
0000
0000
0000
1100
0000
0000
0000
1000
0001
1000
0000
0000
0000
,
1001
0101
1100
1010
,
0011
0001
0010
0100
1000
0100
0010
0001
,
1000
0100
0001
0000
0100
1000
0010
0000
,
0100
0001
0010
0001
0100
1000
0100
0000
,
0010
1000
0100
0010
0001
1000
0001
0000
,
0100
0010
0100
0010
1000
0001
1001
0000
,
0001
0100
1000
0000
0100
0001
0010
0000
,
0100
1000
0010
0100
0010
0001
0010
0000
,
0100
0001
0010
0100
1000
0001
1000
0000
,
0010
0000
0100
0000
0010
0000
0100
0000
0001
0000
1000
0001
1000
0000
0000
0000
,
0220
0000
0000
0330
,
0001
0000
1000
1000
0001
0010
0000
0010
,
0000
0010
0100
0000
1000
0001
0000
0001
,
0000
0001
0100
0000
0010
1000
0000
1000
,
0000
0000
1000
0000
0001
0000
0000
0000
0010
0000
0100
0010
0100
0000
0000
0000
,
1000
0000
0010
0010
0100
0001
0000
0001
,
0000
0001
0010
0000
0100
1000
0000
1000
,
0000
1000
0001
0000
0100
0010
0000
0010
,
0000
0010
1000
0000
0001
0000
1000
0000
,
1100
0000
0101
0000
0010
1000
0000
0001
,
0000
0100
0000
0020
0000
0000
0030
0000
,
1000
0100
0000
1000
0000
0001
0000
0100
,
0000
0001
0000
0020
0000
0000
0030
0000
,
0100
1000
0000
0001
0000
1000
0000
0010
,
0000
0100
0000
0002
0000
0000
1003
0000
,
1010
0000
0100
0000
0001
0010
0000
1000
,
0000
1000
1000
0000
1000
0000
0010
0000
,
0011
0100
1001
0010
,
0100
0001
0000
1000
0000
0001
0100
0000
,
1010
0100
0011
0010
,
0001
1000
0000
0100
0000
0010
0001
0000
,
1001
0000
0100
0000
0001
0010
0000
0000
,
0100
0000
1000
0000
0000
0000
0010
0000
0000
0000
0100
0001
0100
0000
0000
0000
,
1010
0101
0011
1100
,
1001
1000
0010
0100
0001
0010
0100
1000
,
0001
0100
1000
0000
0100
0001
0010
0000
,
0100
1000
0010
0100
1000
0100
0001
0000
,
0010
0100
1000
0001
0100
0010
1000
0000
,
0001
0010
0001
0010
0100
1000
1001
0000
,
1000
0100
0001
0000
0100
1000
0010
0000
,
0100
0001
1000
0001
0100
1000
0100
0000
,
0010
1000
0001
0010
0100
0010
1000
0000
,
0010
0000
0100
0000
0010
0000
0100
0000
0010
0000
0001
1000
0001
0000
0000
0000
,
2002
0000
0000
0000
3000
1000
1003
0000
;
#NOTES:
     dance-double:
     :
     Beginner:
     1:
     :
00000000
00000000
00000000
00000000
,
00000000
00000000
00000000
00000000
,
00000000
00000000
00000000
00000000
,
00000000
00000000
00000000
00000000
,
10000000
00000000
00000000
00000000
,
00010000
00000000
00000000
00000000
,
01000000
00000000
00000000
00000000
,
00001000
00000000
00000000
00000000
,
00011000
00000000
00000000
00000000
,
00000000
00000000
00000000
00000000
,
00000110
00000000
00000000
00000000
,
00000000
00000000
00000000
00000000
,
00001001
00000000
00000000
00000000
,
00000000
00000000
00000000
00000000
,
00011000
00000000
00000000
00000000
,
00000000
00000000
00000000
00000000
,
00010000
00000000
00000000
00000000
,
10000000
00000000
00000000
00000000
,
00100000
00000000
00000000
00000000
,
01000000
00000000
00000000
00000000
,
00001000
00000000
00000000
00000000
,
00010000
00000000
00000000
00000000
,
00000100
00000000
00000000
00000000
,
00000010
00000000
00000000
00000000
,
00000001
00000000
00000000
00000000
,
00001000
00000000
00000000
00000000
,
00000010
00000000
00000000
00000000
,
00010000
00000000
00001000
00000000
,
01000000
00000000
00000000
00000000
,
00100000
00000000
00000000
00000000
,
10000000
00000000
00000000
00000000
,
01000000
00000000
00100000
00000000
,
00001000
00000000
00000000
00000000
,
00010000
00000000
00000000
00000000
,
00001000
00000000
00000000
00000000
,
00010000
00000000
00000000
00000000
,
00000010
00000000
00000010
00000000
,
00001000
00000000
00000000
00000000
,
00000001
00000000
00000000
00000000
,
00000010
00000000
00000000
00000000
,
00000100
00000000
00000100
00000000
,
00010000
00000000
00000000
00000000
,
00001000
00000000
00000000
00000000
,
01000000
00000000
00000000
00000000
,
00100000
00000000
00000000
00000000
,
10000000
00000000
00000000
00000000
,
01000000
00000000
00000000
00000000
,
01100000
00000000
00000000
00000000
,
00000000
00000000
00000000
00000000
,
00100000
00000000
00000000
00000000
,
00001000
00000000
00000000
00000000
,
00010000
00000000
00000000
00000000
,
00000010
00000000
00000000
00000000
,
00001000
00000000
00000000
00000000
,
00000001
00000000
00000000
00000000
,
00000010
00000000
00000010
00000000
,
00000100
00000000
00000100
00000000
,
00010000
00000000
00000000
00000000
,
00001000
00000000
00000000
00000000
,
01000000
00000000
00000000
00000000
,
00100000
00000000
00000000
00000000
,
10000000
00000000
00000000
00000000
,
01000000
00000000
00000000
00000000
,
00100000
00000000
00000000
00000000
,
00010000
00000000
00000000
00000000
,
20020000
00000000
00000000
30030000
;
#NOTES:
     dance-double:
     :
     Easy:
     3:
     :
00000000
00000000
00000000
00000000
,
00000000
00000000
00000000
00000000
,
00000000
00000000
00000000
00000000
,
00000000
00000000
00000000
00000000
,
10000000
00000000
01000000
00000000
,
00100000
00000000
00001000
00000000
,
00010000
00000000
00000010
00000000
,
00000100
00000001
00000100
00000000
,
00001001
00000000
00000000
00000000
,
00000010
00000000
00010000
00000000
,
00001000
00000000
00000000
00000000
,
00100000
00000000
01000000
00000000
,
10000000
00000000
00000000
00000000
,
00010000
00000000
01000000
00000000
,
00001000
00000000
00010000
00000000
,
00000010
00000000
00000100
00000100
,
00000001
00000010
00000100
00000000
,
00010000
00000000
00001000
00000000
,
01000000
00010000
00100000
00000000
,
01000000
00000000
10000000
00000000
,
00100000
01000000
00010000
00000000
,
00100000
00000000
00001000
00000000
,
00010000
00001000
00010000
00001000
,
00010000
00000000
00000010
00000000
,
00000100
00000000
00000001
00000000
,
00000010
00000100
00000010
00000000
,
00000100
00000000
00010000
00000000
,
00001000
00001000
01000000
00000000
,
00100000
00000000
10000000
00000000
,
01000000
00100000
01000000
00000000
,
00100000
00000000
00001000
00000000
,
00010000
00010000
00001000
00000000
,
00011000
00000000
00000000
00000000
,
00000010
00000000
00000100
00000000
,
00000001
00000000
00000010
00000000
,
00000100
00000000
00010000
00000000
,
00001000
00010000
00001000
00000000
,
00100000
00000000
00010000
00000000
,
01000000
00000000
00100000
00000000
,
10000000
00000000
01000000
00000000
,
00100000
01000000
00100000
01000000
,
00100000
00000000
00001000
00000000
,
00010000
00000010
00010000
00000000
,
00000010
00000000
00000100
00000000
,
00000001
00001000
00000001
00000000
,
00000010
00000000
00000100
00000000
,
00010000
00001000
00010000
00000000
,
00001000
00000000
00010000
00000000
,
00022000
00000000
00000000
00033000
,
00001000
00000000
01000000
00000000
,
00100000
10000000
00100000
00000000
,
01000000
00000000
00001000
00000000
,
00010000
00000010
00010000
00000000
,
00001000
00000000
00010000
00000000
,
00000010
00001000
00000100
00000000
,
00000010
00000000
00000100
00000000
,
00001000
00000001
00001000
00000001
,
00001000
00000000
00000010
00000000
,
00010000
00001000
01000000
00000000
,
00100000
00000000
10000000
00000000
,
01000000
01000000
00100000
00000000
,
00001000
00000000
00010000
00000000
,
00000010
00001000
00000100
00000000
,
00000010
00000000
00000001
00000000
,
00000100
00000100
00000010
00000000
,
00002002
00000000
00000000
00003003
;
#NOTES:
     dance-double:
     :
     Medium:
     5:
     :
00000000
00000000
00000000
00000000
,
00000000
00000000
00000000
00000000
,
00000000
00000000
00000000
00000000
,
00000000
00000000
00000000
00000000
,
00000001
00000000
00000100
00000000
00000010
00000000
00000000
00010000
,
00000000
00000000
00001000
00000000
00100000
00000000
00000000
01000000
,
00000000
00000000
10000000
00000000
00100000
00000000
00000000
01000000
,
00000000
00010000
00100000
00000000
,
01000000
00000000
10000000
00000000
00010000
00000000
00000000
00100000
,
00000000
00001000
00000000
00010000
00000000
00000000
00000000
00000010
,
00000000
00000010
00000000
00001000
00000000
00000100
00000000
00000010
,
00000000
00000001
00000000
00001000
00000000
00000000
00000000
00000010
,
00000000
00000010
00000000
00010000
00000000
00001000
00000000
00010000
,
00000000
00001000
00000000
00100000
00000000
00000000
00010000
00000000
,
01000000
00100000
10000000
01000000
,
00100000
00000000
00100000
00000000
00010000
00100000
00010000
00100000
,
00001000
00010000
00000010
00010000
,
00001000
00010000
00000000
00000100
00000000
00000000
00000000
00000000
,
00000010
00000001
00000100
00000010
,
00010000
00001000
00000000
00010000
00000000
00000000
00000000
00000000
,
00001000
00000000
00100000
00000000
00001000
01000000
00000000
00000000
,
00010000
10000000
00000000
00010000
00000000
00000000
00000000
00000000
,
10000000
01000000
00100000
00010000
,
00110000
00011000
00001010
00011000
,
00010000
00001000
00010000
00000000
00000010
00001000
00000010
00000000
,
00000100
00000000
00000001
00000000
00000010
00000100
00000010
00000000
,
00000100
00000000
00010000
00000000
00001000
01000000
00001000
00000000
,
01000000
00010000
01000000
00010000
01000000
00000000
10100000
00000000
,
10000000
00100000
10000000
00000000
01000000
10000000
01000000
00000000
,
00100000
00000000
00010000
00000000
00100000
00001000
00100000
00000000
,
00001000
00000000
00010000
00000000
00000010
00001000
00000010
00000000
,
00001000
00000001
00001000
00000001
00001000
00000000
00000010
00000000
,
00001002
00000000
00000000
00001003
,
00000100
00000000
00010000
00001000
00010000
00000000
00001000
00000000
,
00100000
00010000
01000000
00100000
,
10000000
00000000
00010000
00000000
10000000
00100000
10000000
00000000
,
00010000
00000000
00100000
01000000
10000000
00000000
00000000
00000000
,
01000000
00000000
00100000
00001000
00100000
00000000
00001000
00000000
,
00010000
00000100
00000010
00000001
,
00000010
00000000
00000100
00000000
00001000
00000100
00000010
00000000
,
00000100
00010000
00001000
00000000
01000000
00000000
00100000
00000000
,
10000000
00000000
01000000
00000000
10000000
01000000
00000000
00100000
,
00000000
00010000
00000000
00100000
00000000
00000000
00000000
00000000
,
00001000
00010000
00000000
00000010
00000000
00001000
00000000
00000001
,
00000000
00000010
00000000
00000100
00000000
00000000
00000000
00000000
,
00001000
00000100
00000000
00010000
00000000
00001000
00000000
01000000
,
00000000
00100000
00000000
10000000
00000000
00000000
00100000
00000000
,
01000000
00000000
00010000
00000000
00100000
00001000
00000000
00010000
,
00000000
00001000
00010000
00000000
00000010
00000000
00001000
00000000
,
00000001
00000010
00000100
00010000
,
00001000
00100000
00000000
00010000
00000000
00000000
00000000
00000000
,
00100000
00010000
01000000
00100000
,
10000000
01000000
00000000
00010000
00000000
00000000
00000000
00000000
,
00001000
00000000
00010000
00000000
00000010
00001000
00000000
00000000
,
00000001
00000010
00000000
00001000
00000000
00000000
00000010
00000000
,
00000001
00000100
00000010
00001000
,
00001010
00011000
00110000
00011000
,
00010000
00001000
00010000
00000000
00001000
00100000
00001000
00000000
,
00100000
00000000
01000000
00000000
10000000
01000000
00100000
00000000
,
00001000
00000000
00010000
00000000
00000010
00001000
00000100
00000000
,
00000010
00000001
00000010
00000001
00000010
00000000
00000110
00000000
,
00000100
00001000
00000100
00000000
00010000
00000100
00010000
00000000
,
00001000
00000000
01000000
00000000
00100000
10000000
01000000
00000000
,
00010000
00000000
00001000
00000000
00010000
00001000
00010000
00000000
,
00000010
00010000
00000010
00010000
00000010
00000000
00000100
00000000
,
00002002
00000000
00000000
00003003
;
#NOTES:
     dance-double:
     :
     Hard:
     8:
     :
00000000
00000000
00000000
00000000
,
00000000
00000000
00000000
00000000
,
00000000
00000000
00000000
00000000
,
00000000
00000000
00000000
00000000
,
10000000
00000000
01000000
00100000
01000000
00100000
00000000
00010000
,
00000000
00010000
00100000
00000000
00001000
00010000
00000000
00000100
,
00000000
00000100
00000010
00000000
00000001
00000100
00000000
00000010
,
00000000
00000010
00001000
00000000
00001001
00000000
00000000
00000000
,
00000001
00000000
00000001
00000000
00000010
00001000
00000000
00100000
,
00000000
00010000
00000000
10000000
00000000
00000000
00000000
00010000
,
10000000
00010000
00000000
01000000
00000000
00100000
00000000
00010000
,
00000000
00000010
00000000
00001000
00000000
00000000
00000000
00000001
,
00001000
00000100
00000000
00010000
00000000
00001000
00000000
01000000
,
00000000
10000000
00000000
01000000
00000000
00000000
00100000
00000000
,
10000000
00000000
01000000
00000000
00010000
01000000
00000000
00100000
,
00001000
00010000
00001000
00010000
00000010
00001000
00000100
00000010
,
00000001
00000000
00001000
00000000
00000010
00001000
00000100
00000000
,
00010000
00001000
00000000
01000000
00000000
00100000
10000000
00000000
,
00100000
00000000
10000000
00000000
01000000
00100000
00001000
00000000
,
00010000
00000010
00000000
00001000
00000000
00000100
00000001
00000000
,
00000100
00000000
00010000
00000000
00001000
00100000
00000000
00000000
,
00010000
01000000
00000000
00100000
00000000
10000000
10000000
00000000
,
10010000
01010000
01001000
00011000
,
00010010
00011000
00101000
00011000
,
00001000
00010000
00000100
00000000
00001000
00000010
00000001
00000000
,
00000010
00000100
00000010
00010000
00001000
00100000
00010000
00000000
,
00100000
00010000
10000000
01000000
00100000
00001000
00010000
00000000
,
00001000
00010000
00001000
00010000
00001000
00000000
00010010
00000000
,
00001000
00000001
00000100
00000000
00000010
00010000
00001000
00000000
,
00010000
00001000
00100000
01000000
00100000
00010000
00100000
00000000
,
01000000
10000000
00100000
01000000
00010000
00100000
00001000
00000000
,
00010000
00001000
00010000
00001000
00010000
00000000
00101000
00000000
,
00022000
00000000
00000000
00033000
,
00000010
00000000
00001000
00000100
00001000
00000100
00000000
00000010
,
00000000
00000010
00000001
00000000
00000100
00000010
00000000
00010000
,
00000000
00010000
00001000
00000000
00100000
01000000
00000000
10000000
,
00000000
10000000
00010000
00000000
01000000
00100000
00100000
00000000
,
10000000
00000000
00100000
01000000
00100000
01000000
00000000
00010000
,
00000000
00010000
00100000
00000000
00001000
00010000
00000000
00000100
,
00000000
00000100
00000010
00000000
00000001
00001000
00000000
00000100
,
00000000
00000100
00010000
00000000
00001000
00000000
00100000
00000000
,
01000000
00000000
10000000
00000000
01000000
00010000
00000000
00001000
,
00000000
01000000
00000000
00001000
00000000
00000000
00010000
00000000
,
00000010
00001000
00000000
00000100
00000000
00000010
00000000
00000100
,
00000000
00001000
00000000
00000010
00000000
00000000
00001000
00000000
,
00000001
00000010
00000000
00000100
00000000
00010000
00000000
00001000
,
00000000
01000000
00000000
00100000
00000000
00000000
10000000
00000000
,
00100000
00000000
01000000
00000000
00010000
00100000
00000000
10000000
,
00000000
10000000
10000000
00000000
10000000
00000000
00100000
00000000
,
00001000
00010000
00000010
00001000
,
00000100
00000001
00000000
00000100
00000000
00000100
00010000
00000000
,
00001000
01000000
10000000
01000000
,
00010000
00100000
00000000
01000000
00000000
01000000
10000000
00000000
,
01000000
00000000
00010000
00000000
00001000
00000100
00000000
00000000
,
00001000
00010000
00000000
00000010
00000000
00001000
00001000
00000000
,
00001001
00000101
00000110
00001010
,
00011000
00101000
00011000
00010010
,
00010000
00001000
00100000
00000000
01000000
10000000
00100000
00000000
,
01000000
00010000
01000000
10000000
01000000
00010000
00100000
00000000
,
00001000
00010000
00000010
00001000
00000001
00000100
00001000
00000000
,
00000100
00000010
00000100
00000010
00000100
00000000
00001001
00000000
,
00000001
00000100
00001000
00000000
00010000
01000000
10000000
00000000
,
01000000
10000000
00100000
01000000
00010000
00100000
00001000
00000000
,
00010000
00000010
00001000
00000001
00000010
00000100
00010000
00000000
,
00001000
00010000
00001000
00010000
00001000
00000000
00100000
00000000
,
20020000
00000000
00000000
30030000
;
