#TITLE:Lady Be Good To Me;
#ARTIST:In Geer;
#BANNER:Lady Be Good To Me.png;
#BACKGROUND:Lady Be Good To Me-bg.png;
#LYRICSPATH:Lady Be Good To Me.lrc;
#CDTITLE:./CDTITLES/DanceDanceRevolution UNIVERSE3.png;
#MUSIC:Lady Be Good To Me.ogg;
#SAMPLESTART:36.335;
#SAMPLELENGTH:15;
#BPMS:0=161;

//---------------dance-single - ----------------
#NOTES:
     dance-single:
     :
     Beginner:
     1:
     :
0000
0000
0000
0000
,
0000
0000
0000
0000
,
0000
0000
0000
0000
,
0000
0000
0000
0000
,
0000
0000
0000
0000
,
1000
0000
0000
0000
,
0001
0000
0000
0000
,
0010
0000
0000
0000
,
0100
0000
0000
0000
,
1000
0000
0000
0000
,
0001
0000
0000
0000
,
0010
0000
0000
0000
,
0001
0000
0000
0000
,
2000
0000
0000
3000
,
0000
0000
0000
0000
,
0002
0000
0000
0003
,
0000
0000
0000
0000
,
0010
0000
0000
0000
,
0100
0000
0000
0000
,
1000
0000
0000
0000
,
0001
0000
0000
0000
,
0020
0000
0000
0030
,
0000
0000
0000
0000
,
0200
0000
0000
0300
,
0000
0000
0000
0000
,
0110
0000
0000
0000
,
0010
0000
0000
0000
,
0001
0000
0000
0000
,
1000
0000
0000
0000
,
1001
0000
0000
0000
,
0100
0000
0000
0000
,
0010
0000
0000
0000
,
0100
0000
0000
0000
,
0001
0000
0001
0000
,
1000
0000
0000
0000
,
0100
0000
0000
0000
,
0010
0000
0000
0000
,
0002
0000
0000
0003
,
0000
0000
0000
0000
,
2000
0000
0000
3000
,
0000
0000
0000
0000
,
0010
0000
0010
0000
,
0100
0000
0000
0000
,
0001
0000
0000
0000
,
1000
0000
0000
0000
,
0002
0000
0000
0003
,
0000
0000
0000
0000
,
2000
0000
0000
3000
,
0000
0000
0000
0000
,
1001
0000
0000
0000
,
0001
0000
0000
0000
,
0010
0000
0000
0000
,
0100
0000
0000
0000
,
0110
0000
0000
0000
,
0010
0000
0000
0000
,
0001
0000
0000
0000
,
1000
0000
0000
0000
,
1001
0000
0000
0000
,
0001
0000
0000
0000
,
0100
0000
0000
0000
,
0010
0000
0000
0000
,
0110
0000
0000
0000
,
0100
0000
0000
0000
,
0001
0000
0000
0000
,
1000
0000
0000
0000
,
1001
0000
0000
0000
;

//---------------dance-single - ----------------
#NOTES:
     dance-single:
     :
     Easy:
     3:
     :
0000
0000
0000
0000
,
0000
0000
0000
0000
,
0000
0000
0000
0000
,
0000
0000
0000
0000
,
0000
0000
0000
0000
,
1000
0000
0001
0000
,
0001
0000
1000
0000
,
0010
0000
0100
0000
,
0100
0000
0010
0000
,
0000
1001
0000
0000
,
0000
1000
0001
1000
,
0000
1001
0000
0000
,
0000
0100
0010
0100
,
0000
0010
0100
0000
,
0100
0000
1001
0000
,
0000
0100
0010
0000
,
0010
0000
1001
0000
,
0000
0110
0000
0000
,
0000
1000
0100
0001
,
0000
0110
0000
0000
,
0000
0001
0100
1000
,
0000
0001
1000
0000
,
1000
0000
1001
0000
,
0110
0000
0000
0000
,
1001
0000
0100
0100
,
0000
0001
0100
0000
,
0000
1000
0100
0000
,
0000
0010
1000
0000
,
1000
0010
1000
0000
,
0000
0001
0010
0000
,
0000
1000
0010
0000
,
0000
1000
0001
0000
,
0001
1000
0001
0000
,
0000
1001
0000
0000
,
0000
0100
0010
0100
,
0000
0110
0000
0000
,
0000
0001
1000
0001
,
0000
0100
0001
0000
,
0001
0000
0110
0000
,
0000
0001
0100
0000
,
0100
0000
1001
0000
,
0000
0110
0000
0000
,
0000
1000
0100
0010
,
0000
1001
0000
0000
,
0000
0001
0100
0010
,
0000
1000
0010
0000
,
0010
0000
1001
0000
,
0110
0000
0000
0000
,
1001
0000
0010
0010
,
0000
0100
0001
0000
,
0000
0100
1000
0000
,
0000
0100
0001
0000
,
0001
0100
0001
0000
,
0000
1000
0001
0000
,
0000
0100
0010
0000
,
0000
0010
1000
0000
,
1000
0010
1000
0000
,
0000
0001
0010
0000
,
0000
1000
0100
0000
,
0000
0001
0100
0000
,
0100
0001
0100
0000
,
0000
1000
0100
0000
,
0000
0001
0100
0000
,
0020
0000
0000
0030
,
0000
0000
0000
0100
,
0200
0000
0000
0000
,
0000
0000
0000
0000
,
0000
0000
0000
0000
,
0300
0000
0000
0000
;

//---------------dance-single - ----------------
#NOTES:
     dance-single:
     :
     Medium:
     5:
     :
0000
0000
0000
0000
,
0000
0000
0000
0000
,
0000
0000
0000
0000
,
0000
0000
0000
0000
,
0000
0000
0000
0000
,
0010
0010
0010
0000
,
1000
0001
0000
0010
,
0100
0100
0100
0000
,
0001
1000
0000
0100
,
0000
0002
0000
2003
,
0000
3001
1000
0001
,
0100
2000
0000
3002
,
0000
1003
0000
0010
,
0001
0100
1000
0100
,
0001
1000
1000
1000
0001
0000
1000
0000
,
0010
1000
0100
0001
,
0100
1000
0000
1001
,
0000
0002
0000
2003
,
0000
3010
0100
1000
,
0001
0020
0000
0230
,
0000
1300
0010
0100
,
0001
0010
1000
0010
,
0001
1000
1000
1000
0001
0000
0100
0000
,
0010
0010
1000
0100
,
1000
0000
0000
0000
0010
0100
0010
0000
,
0010
1000
0010
0000
,
0100
0000
0100
0000
0100
0001
0100
0000
,
0000
0002
0000
2003
,
0010
3010
0100
0001
,
0100
1000
0100
0000
,
1000
0000
1000
0000
1000
0001
1000
0000
,
0000
0002
0000
2003
,
3100
0010
0001
1000
,
0000
0002
0000
2003
,
0000
3010
1000
0001
,
0100
0010
0010
0200
,
0000
0310
0000
1000
,
0100
0001
0010
1000
,
0100
0000
1000
0001
,
0100
1000
0010
0001
,
0010
0100
0000
0110
,
0000
0002
0000
2003
,
0000
3001
1000
0100
,
1000
0010
0000
0200
,
0000
0302
0000
1003
,
0001
0100
0010
1000
,
0001
1000
0000
0001
,
0010
0010
0100
0100
,
1000
0000
0000
0000
1000
0010
1000
0000
,
1000
0001
1000
0000
,
0010
0000
0010
0000
0010
1000
0010
0000
,
0000
0200
0000
0302
,
0010
0013
0100
1000
,
0100
0010
0100
0000
,
1000
0000
1000
0000
1000
0010
1000
0000
,
0000
0002
0000
0023
,
0130
0010
0100
0010
,
0100
1000
0100
0000
,
0001
0000
0001
0000
0001
0100
0001
0000
,
0000
2000
0000
3002
,
0100
0103
0010
1000
,
0010
0100
0010
0000
,
1000
0000
1000
0000
1000
0100
1000
0000
,
0001
0000
0000
1000
0000
0000
0001
0000
,
0000
0100
0000
0000
0001
0000
1000
0000
,
2002
0000
0000
0000
,
0000
0000
0000
0000
,
0000
0000
0000
0000
,
3003
0000
0000
0000
;

//---------------dance-single - ----------------
#NOTES:
     dance-single:
     :
     Hard:
     6:
     :
0000
0000
0000
0000
,
0000
0000
0000
0000
,
0000
0000
0000
0000
,
0000
0000
0000
0000
,
0000
0000
0000
0000
,
0001
0010
1000
0010
,
0000
0100
0000
0001
0010
0000
0001
0000
,
1000
0100
0010
1000
,
0000
0001
0000
1000
0100
1000
0100
0000
,
1000
1100
0001
0101
,
0001
0011
1000
1010
,
0100
0101
0001
0011
,
0010
0000
0001
1001
,
0010
1000
0001
0010
,
1000
0000
0001
0100
0001
0000
1000
0000
,
0010
0001
1000
0010
,
0100
0000
0010
0000
0000
1000
0001
0000
,
0100
0110
0010
1010
,
1000
1100
0100
0110
,
0010
1001
0100
1001
,
0010
1001
1000
1001
,
1000
0100
0010
0001
,
0100
0000
0010
0000
1000
0100
1000
0000
,
0020
0000
0000
0130
0000
0001
0000
1000
,
0100
0000
1000
0000
0010
0100
0010
0000
,
0100
0000
0001
0000
1000
0000
0100
1000
,
0000
1000
0010
0000
0100
0000
0010
0000
,
1000
0000
0100
0000
1000
0000
0010
0100
,
0000
0100
0001
0000
0010
0001
0010
0000
,
0100
0000
1000
0000
0001
0000
0100
0001
,
0000
0001
0010
0000
0100
0000
0010
0000
,
0001
0000
1000
0000
0001
0000
1000
0100
,
0000
2000
0000
0000
0000
0010
3010
0000
,
0001
0101
1000
1100
,
1000
1010
0010
0110
,
0100
0101
0001
0011
,
0010
0000
1001
0000
1000
0010
1000
0100
,
0010
0001
0100
1000
,
0100
0000
0001
0000
0010
0001
0010
0000
,
0100
0010
0001
0100
,
0010
1000
0100
0010
0100
1000
0010
0000
,
0100
0101
0001
0011
,
0010
0110
0100
1100
,
1000
1010
0010
0110
,
0100
1001
0110
1001
,
1000
0100
0001
0100
,
1000
0000
0010
0000
0100
0010
0100
0000
,
0002
0000
0000
1003
0000
0001
0000
0100
,
0001
0000
0000
0000
1000
0100
1000
0000
,
0100
0000
1000
0000
0001
0000
0100
0001
,
0000
0001
0010
0000
0100
0000
0010
0000
,
0001
0000
1000
0000
0001
0000
1000
0100
,
0000
1000
0000
0000
0010
1000
0010
0000
,
0100
0000
0001
0000
1000
0000
0100
1000
,
0000
1000
0010
0000
0100
0000
0010
0000
,
1000
0000
0001
0000
1000
0000
0001
0010
,
0000
0010
0001
0000
1000
0001
1000
0000
,
0010
0000
1000
0000
0001
0000
0010
0001
,
0000
0001
0100
0000
0010
0000
0100
0000
,
0001
0000
0010
0000
0001
0000
1000
0100
,
0000
1000
0000
0000
0001
0100
0001
0000
,
0010
0000
0001
0000
1000
0000
0010
1000
,
0000
1000
0100
0000
0010
0000
0100
0000
,
1000
0000
0001
0100
0000
0000
0001
0000
,
1000
0100
0000
0000
0010
0000
0100
1000
,
0000
0000
0000
0002
0000
0000
0000
0000
0000
0000
0000
0000
0000
0000
0000
0000
,
0000
0000
0000
0000
,
0000
0000
0000
0000
,
0003
0000
0000
0000
;

//---------------dance-double - ----------------
#NOTES:
     dance-double:
     :
     Beginner:
     1:
     :
00000000
00000000
00000000
00000000
,
00000000
00000000
00000000
00000000
,
00000000
00000000
00000000
00000000
,
00000000
00000000
00000000
00000000
,
00000000
00000000
00000000
00000000
,
10000000
00000000
00000000
00000000
,
01000000
00000000
00000000
00000000
,
00100000
00000000
00000000
00000000
,
00001000
00000000
00000000
00000000
,
00010000
00000000
00000000
00000000
,
00000100
00000000
00000000
00000000
,
00000010
00000000
00000000
00000000
,
00001000
00000000
00000000
00000000
,
00000002
00000000
00000000
00000003
,
00000000
00000000
00000000
00000000
,
00002000
00000000
00000000
00003000
,
00000000
00000000
00000000
00000000
,
00000100
00000000
00000000
00000000
,
00010000
00000000
00000000
00000000
,
00001000
00000000
00000000
00000000
,
01000000
00000000
00000000
00000000
,
00200000
00000000
00000000
00300000
,
00000000
00000000
00000000
00000000
,
20000000
00000000
00000000
30000000
,
00000000
00000000
00000000
00000000
,
10010000
00000000
00000000
00000000
,
00100000
00000000
00000000
00000000
,
00001000
00000000
00000000
00000000
,
00010000
00000000
00000000
00000000
,
00011000
00000000
00000000
00000000
,
00001000
00000000
00000000
00000000
,
00000100
00000000
00000000
00000000
,
00000010
00000000
00000000
00000000
,
00001000
00000000
00001000
00000000
,
00000100
00000000
00000000
00000000
,
00000010
00000000
00000000
00000000
,
00000001
00000000
00000000
00000000
,
00000200
00000000
00000000
00000300
,
00000000
00000000
00000000
00000000
,
00002000
00000000
00000000
00003000
,
00000000
00000000
00000000
00000000
,
00010000
00000000
00010000
00000000
,
01000000
00000000
00000000
00000000
,
00100000
00000000
00000000
00000000
,
10000000
00000000
00000000
00000000
,
02000000
00000000
00000000
03000000
,
00000000
00000000
00000000
00000000
,
00002000
00000000
00000000
00003000
,
00000000
00000000
00000000
00000000
,
00011000
00000000
00000000
00000000
,
00010000
00000000
00000000
00000000
,
00000100
00000000
00000000
00000000
,
00000010
00000000
00000000
00000000
,
00000110
00000000
00000000
00000000
,
00001000
00000000
00000000
00000000
,
00000001
00000000
00000000
00000000
,
00000100
00000000
00000000
00000000
,
00000110
00000000
00000000
00000000
,
00000010
00000000
00000000
00000000
,
00010000
00000000
00000000
00000000
,
00001000
00000000
00000000
00000000
,
00011000
00000000
00000000
00000000
,
00001000
00000000
00000000
00000000
,
01000000
00000000
00000000
00000000
,
00100000
00000000
00000000
00000000
,
10000000
00000000
00000000
00000000
;

//---------------dance-double - ----------------
#NOTES:
     dance-double:
     :
     Easy:
     4:
     :
00000000
00000000
00000000
00000000
,
00000000
00000000
00000000
00000000
,
00000000
00000000
00000000
00000000
,
00000000
00000000
00000000
00000000
,
00000000
00000000
00000000
00000000
,
00001000
00000000
00000100
00000100
,
00000020
00000000
00000030
00000000
,
00000001
00000000
00000100
00000100
,
00000002
00000000
00000003
00000000
,
00001000
00000000
00000010
00000000
,
00010000
00001000
00010000
00000000
,
00001000
00000000
00100000
00000000
,
01000000
00100000
00010000
00000000
,
01000000
01000000
02000000
00000000
,
00000000
03000000
00000000
00000000
,
00100000
00100000
00200000
00000000
,
00000000
00300000
00000000
00000000
,
10000000
00000000
01000000
00000000
,
00100000
00010000
00100000
00000000
,
00001000
00000000
00010000
00000000
,
00001000
00000100
00000010
00000000
,
00000100
00000100
00000200
00000000
,
00000000
00000300
00000000
00000000
,
00000001
00000010
00000001
00001000
,
00000010
00000000
00001000
00001000
,
00000100
00000000
00010000
00001000
,
01000000
00000000
00010000
01000000
,
00010000
00000000
10000000
01000000
,
10000000
00000000
10000000
01000000
,
00010000
00001000
00000010
00000000
,
00000100
00001000
00000010
00000000
,
00000100
00000001
00000100
00000000
,
00000010
00001000
00000010
00000000
,
00001000
00000000
00000100
00010000
,
00001000
01000000
01000000
00000000
,
00100000
00000000
01000000
00000000
,
02000000
00000000
00000000
03000000
,
01000000
00100000
10000000
00100000
,
10000000
00000000
01000000
01000000
,
00100000
00010000
00100000
00001000
,
00010000
00000000
00000000
00000000
,
00001000
00000000
00000100
00000010
,
00001000
00000100
00000100
00000000
,
00000010
00000000
00000001
00000000
,
00002000
00000000
00000000
00003000
,
00001000
00000010
00001000
00000100
,
00010000
00000000
00000000
00000000
,
00001000
00010000
00010000
00001000
,
00100000
00000000
01000000
00100000
,
01100000
01000000
10000000
00000000
,
00010000
00100000
01000000
00000000
,
00100000
00001000
00010000
00000000
,
00000010
00000000
00001000
00000001
,
00000100
00001000
00010000
00000000
,
00001000
00100000
00001000
00000000
,
01000000
00010000
10000000
00000000
,
01000000
00100000
00001000
00010000
,
00000100
00000000
00001000
00000100
,
00001000
00000000
00000010
00000000
,
00000100
00000001
00000010
00000100
,
00001000
00000000
00000100
00010000
,
00001000
00010000
00001000
00001000
,
00100000
00000000
00010000
00000000
,
10000000
00100000
00000000
01000000
,
00010000
00000000
00000000
00000000
,
02200000
00000000
00000000
00000000
,
00000000
00000000
00000000
00000000
,
00000000
00000000
00000000
00000000
,
03300000
00000000
00000000
00000000
;

//---------------dance-double - ----------------
#NOTES:
     dance-double:
     :
     Medium:
     5:
     :
00000000
00000000
00000000
00000000
,
00000000
00000000
00000000
00000000
,
00000000
00000000
00000000
00000000
,
00000000
00000000
00000000
00000000
,
00000000
00000000
00000000
00000000
,
00000100
00000100
00000100
00000000
,
00000001
00001000
00000000
00000100
,
00000010
00000010
00000010
00000000
,
00000100
00010000
00000000
00001000
,
00000000
00020000
00000000
00032000
,
00000000
01003000
00100000
10000000
,
00000000
00200000
00000000
20300000
,
00000000
31000000
00000000
10000000
,
01000000
00010000
00001000
00000010
,
00000001
00000100
00001000
00000100
00000001
00000000
00001000
00000000
,
00000100
00010000
01000000
00100000
,
00010000
10000000
00000000
01100000
,
00000000
00200000
00000000
00320000
,
00000000
01030000
00100000
10000000
,
00000000
02000000
00000000
23000000
,
00000000
30010000
00100000
00001000
,
00000100
00000010
00000100
00000001
,
00001000
00000010
00000001
00000010
00001000
00000000
00000100
00000000
,
00010000
00010000
00001000
00010000
,
00001000
00000000
00000000
00000000
00010000
00001000
00010000
00000000
,
02000000
10000000
13000000
00000000
,
00100000
00000000
00100000
00000000
01000000
00010000
01000000
00000000
,
00000000
00020000
00000000
00230000
,
00001000
00301000
00010000
00001000
,
00000200
00000010
00000310
00000000
,
00001000
00000000
00001000
00000000
00000001
00000010
00000001
00000000
,
00000000
00000200
00000000
00000310
,
00000100
00000000
00001000
00000000
00000000
00000010
00000100
00000000
,
00000000
00002000
00000000
00023000
,
00000000
00130000
10000000
01000000
,
00010000
10000000
00100000
00010000
,
00000000
01100000
00000000
00100000
,
10000000
01000000
00010000
00001000
,
00000100
00000001
00001000
00001000
,
00000001
00000100
00001000
00010000
,
01000000
10000000
00000000
10010000
,
00000000
00200000
00000000
20300000
,
00000000
31000000
00100000
00010000
,
00100000
01000000
00000000
00200000
,
00000000
00302000
00000000
00013000
,
00000100
00001000
00000010
00001000
,
00000100
00000001
00000000
00000100
,
00000010
00000010
00000100
00000100
,
00001000
00000000
00000000
00000000
00000001
00001000
00000001
00000000
,
00000200
00000010
00000310
00000000
,
00001000
00000000
00001000
00000000
00000100
00010000
00000100
00000000
,
00000000
00020000
00000000
00032000
,
00100000
00103000
00010000
01000000
,
20000000
01000000
31000000
00000000
,
00100000
00000000
00100000
00000000
01000000
00010000
01000000
00000000
,
00000000
00020000
00000000
00130000
,
00001000
00000000
00010000
00000000
00000000
00001000
00010000
00000000
,
00001000
00011000
00011000
00000000
,
00000100
00000000
00000100
00000000
00000010
00000001
00000010
00000000
,
00000000
00000002
00000000
00002003
,
00000010
00003010
00000100
00000001
,
00001000
00001001
00001001
00000000
,
00000100
00000000
00000100
00000000
00010000
00001000
00010000
00000000
,
00001000
00000000
00000000
01000000
00000000
00000000
00100000
00000000
,
00000000
10000000
00000000
00000000
01000000
00000000
00100000
00000000
,
02200000
00000000
00000000
00000000
,
00000000
00000000
00000000
00000000
,
00000000
00000000
00000000
00000000
,
03300000
00000000
00000000
00000000
;

//---------------dance-double - ----------------
#NOTES:
     dance-double:
     :
     Hard:
     6:
     :
00000000
00000000
00000000
00000000
,
00000000
00000000
00000000
00000000
,
00000000
00000000
00000000
00000000
,
00000000
00000000
00000000
00000000
,
00000000
00000000
00000000
00000000
,
00010000
00001000
00000000
00010000
00000100
00000000
00000010
00000000
,
00000000
00000100
00000000
00001000
00000001
00000000
00000100
00000000
,
00000000
00000010
00001000
00000100
00010000
00000000
00001000
00000000
,
00000000
00010000
00000000
00001000
00100000
01000000
10000000
00000000
,
00100000
10000000
01000000
00100000
,
00010000
01000000
00001000
00010000
,
00001000
00000100
00000010
00001000
,
00000001
00000000
00000000
00000010
00000001
00000100
00001000
00000000
,
00000100
00000001
00000010
00000100
,
00010000
00000000
00001000
00010000
00001000
00000000
01000000
00000000
,
00100000
10000000
00010000
01000000
,
00100000
00000000
10000000
00000000
00000000
00010000
00100000
00000000
,
00001000
00010000
00000100
00000010
,
00000001
00001000
00000010
00000100
,
00001000
00010000
00100000
10000000
,
00010000
10000000
01000000
10000000
,
00100000
01000000
00010000
00100000
,
00001000
00000000
00010000
00000000
00000100
00000010
00000001
00000000
,
00001000
00000000
00000000
00000001
00000000
00001000
00000000
00000010
,
00000100
00000000
00000001
00000000
00000010
00000001
00000100
00000000
,
00001000
00000000
00010000
00000000
00100000
00000000
10000000
01000000
,
00000000
00100000
00010000
00000000
10000000
00000000
00100000
00000000
,
10000000
00000000
01000000
00000000
00100000
00000000
00001000
00010000
,
00000000
00010000
00001000
00000000
00010000
00001000
00010000
00000000
,
00000100
00000000
00000010
00000000
00000100
00000000
00001000
00000010
,
00000000
00001000
00000100
00000000
00000010
00000001
00000010
00000100
,
00001000
00000000
00000001
00000000
00000100
00000000
00001000
00010000
,
00000000
00100000
00000000
01000000
00000000
00010000
10000000
00000000
,
00010000
10000000
01000000
00010000
,
00001000
00000000
00000010
00000000
00000001
00000000
00001000
00000100
,
00001000
00000001
00000100
00001000
,
00010000
00000000
00100000
00000000
10000000
01000000
10000000
00100000
,
01000000
00010000
00100000
00010000
,
01000000
00000000
00010000
00000000
00100000
00000000
00001000
00010000
,
00001000
00010000
00000100
00000010
,
00000001
00000010
00000100
00001000
00000001
00000010
00000100
00000000
,
00000010
00000001
00000100
00000010
,
00010000
00001000
00100000
00010000
,
00100000
01000000
10000000
00100000
,
01000000
00010000
00110000
10100000
,
10000000
01000000
00010000
00001000
,
00000010
00000000
00000001
00000000
00001000
00000010
00001000
00000000
,
00000001
00000000
00000000
00001000
00000000
00000100
00000000
00000010
,
00000100
00000000
00010000
00000000
00001000
00010000
00001000
00000000
,
01000000
00000000
00100000
00000000
10000000
00000000
01000000
00100000
,
00000000
01000000
10000000
00000000
00100000
00000000
01000000
00000000
,
00010000
00000000
00100000
00000000
00001000
00000000
00010000
00001000
,
00000000
00001000
00010000
00000000
00000010
00000100
00000010
00000000
,
00000100
00000000
00000001
00000000
00001000
00000000
00000100
00001000
,
00000000
00000010
00000100
00000000
00000010
00000000
00001000
00000000
,
00000100
00000000
00010000
00000000
00001000
00000000
00100000
00010000
,
00000000
00100000
00000000
00000000
01000000
10000000
00100000
00000000
,
10000000
00000000
01000000
00000000
00010000
00000000
00001000
00000010
,
00000000
00000100
00000010
00000000
00000001
00000000
00001000
00000000
,
00000001
00001000
00000010
00001000
,
00000100
00000000
00010000
00000000
00001000
00010000
00001000
00000000
,
00100000
00000000
00010000
00000000
01000000
00000000
00100000
10000000
,
00000000
01000000
10000000
00000000
00100000
00000000
01000000
00000000
,
00010000
00000000
00100000
00001000
00000000
00010000
00001000
00000000
,
00010000
00000100
00000000
00001000
00000010
00000000
00000100
00000001
,
00000000
00000000
00000000
00002000
00000000
00000000
00000000
00000000
00000000
00000000
00000000
00000000
00000000
00000000
00000000
00000000
,
00000000
00000000
00000000
00000000
,
00000000
00000000
00000000
00000000
,
00003000
00000000
00000000
00000000
;
