
//----- song ID: laev -----
#TITLE:L.A. EVOLVED;
#ARTIST:NAOKI underground;
#BANNER:L.A. EVOLVED.png;
#BACKGROUND:L.A. EVOLVED-bg.png;
#CDTITLE:./CDTitles/DDR UNIVERSE3.png;
#MUSIC:L.A. EVOLVED.ogg;
#OFFSET:-0.001;
#SAMPLESTART:27.211;
#SAMPLELENGTH:15;
#BPMS:0=280;
#NOTES:
     dance-single:
     :
     Beginner:
     1:
     :
0000
0000
0000
0000
,
0000
0000
0000
0000
,
0000
0000
0000
0000
,
0000
0000
0000
0000
,
0000
0000
0000
0000
,
0000
0000
0000
0000
,
0000
0000
0000
0000
,
0000
0000
0000
0000
,
1000
0000
0000
0000
,
0010
0000
0000
0000
,
0100
0000
0000
0000
,
0001
0000
1000
0000
,
0001
0000
0000
0000
,
0010
0000
0000
0000
,
0100
0000
0000
0000
,
1000
0000
0001
0000
,
1000
0000
0000
0000
,
0010
0000
0000
0000
,
0100
0000
0000
0000
,
0001
0000
0000
0000
,
1000
0000
0000
0000
,
0100
0000
0000
0000
,
0010
0000
0000
0000
,
0010
0000
0000
0000
,
0001
0000
0000
0000
,
1000
0000
0000
0000
,
0001
0000
0000
0000
,
1000
0000
0000
0000
,
0010
0000
0000
0000
,
0100
0000
0000
0000
,
0010
0000
0000
0000
,
0100
0000
0000
0000
,
0001
0000
0000
0000
,
1000
0000
0000
0000
,
0100
0000
0000
0000
,
1000
0000
0000
0000
,
0001
0000
0000
0000
,
0100
0000
0000
0000
,
0001
0000
0000
0000
,
0000
0000
0000
0000
,
0000
0000
0000
0000
,
0100
0000
0000
0000
,
0010
0000
0000
0000
,
1000
0000
0000
0000
,
0100
0000
0000
0000
,
0010
0000
0000
0000
,
0010
0000
0000
0000
,
0001
0000
0000
0000
,
1000
0000
0000
0000
,
0010
0000
0000
0100
,
0100
0000
0000
0000
,
0000
0000
0000
0000
,
1000
0000
0000
0000
,
0001
0000
0000
0000
,
1000
0000
0000
0000
,
0001
0000
0000
0000
,
1000
0000
0000
0000
,
0010
0000
0000
0000
,
0100
0000
0000
0000
,
0001
0000
0000
0000
,
0010
0000
0000
0000
,
0100
0000
0000
0000
,
1000
0000
0000
0000
,
0100
0000
0000
0000
,
0010
0000
0000
0000
,
0001
0000
0000
0000
,
0100
0000
0000
0000
,
0010
0000
0000
0000
,
1000
0000
0000
0000
,
0001
0000
0000
0000
,
1000
0000
0000
0000
,
0100
0000
0000
0000
,
0010
0000
0000
0000
,
0100
0000
0000
0000
,
1000
0000
0000
0000
,
0001
0000
0000
0000
,
0100
0000
0000
0000
,
0010
0000
0000
0000
,
1000
0000
0000
0000
,
0001
0000
0000
0000
,
0010
0000
0000
0000
,
0100
0000
0000
0000
,
1000
0000
0000
0000
,
0001
0000
0000
0000
,
0100
0000
0000
0000
,
0100
0000
0000
0000
,
0010
0000
0000
0000
,
0010
0000
0000
0000
,
1000
0000
0000
0000
,
1000
0000
0000
0000
,
0001
0000
0000
0000
,
0001
0000
0000
0000
,
0010
0000
0000
0000
,
0100
0000
0000
0000
,
1000
0000
0000
0000
,
1000
0000
0000
0000
,
0001
0000
0000
0000
,
0100
0000
0000
0000
,
0010
0000
0000
0000
,
0010
0000
0000
0000
,
0100
0000
0000
0000
,
0100
0000
0000
0000
,
0100
0000
0000
0000
,
0100
0000
0000
0000
,
0010
0000
0000
0000
,
0010
0000
0000
0000
,
0010
0000
0000
0000
,
0010
0000
0000
0000
,
1000
0001
0000
0000
;
#NOTES:
     dance-single:
     :
     Easy:
     4:
     :
0000
0000
0000
0000
,
0000
0000
0000
0000
,
0000
0000
0000
0000
,
0000
0000
0000
0000
,
0000
0000
0000
0000
,
0000
0000
0000
0000
,
0000
0000
0000
0000
,
0000
0000
0000
0000
,
1000
0000
0000
0000
,
0001
0000
0000
0000
,
0100
0000
0010
0000
,
0100
0000
0010
0000
,
1000
0000
0000
0000
,
0001
0000
0000
0000
,
0010
0000
0000
0000
,
0100
0000
1000
0000
,
0001
0000
0000
0000
,
1000
0000
0000
0000
,
0001
0000
1000
0000
,
0001
0000
1000
0000
,
0010
0000
0000
0000
,
0100
0000
0000
0000
,
0001
0000
0000
0000
,
0010
0000
0100
0000
,
0010
0000
0000
0000
,
0001
0000
0000
0000
,
1000
0000
0000
0000
,
0010
0000
0100
0000
,
0001
0000
0000
0000
,
0010
0000
0000
0000
,
0100
0000
0000
0000
,
1000
0000
0000
0000
,
1001
0000
0000
0000
,
1000
0000
0000
0000
,
0110
0000
0000
0000
,
0100
0000
0000
0000
,
1001
0000
0000
0000
,
0010
0000
0000
0000
,
0110
0000
0000
1000
,
0000
0000
0000
0001
,
0000
0000
0000
0000
,
0100
0000
0000
0010
,
0000
1000
0000
0001
,
0000
0000
0010
0000
,
0100
0000
1000
0000
,
0000
0000
0001
0000
,
0100
0000
0010
0000
,
0000
0000
1000
0000
,
0001
0000
1000
0000
,
0000
0000
0000
0001
,
1001
0000
0000
0000
,
0000
0000
0000
0000
,
1000
0000
0010
0000
,
0100
0000
0100
0000
,
0001
0000
0010
0000
,
0100
0000
1000
0000
,
0001
0000
0100
0000
,
0010
0000
0010
0000
,
1000
0000
0010
0000
,
0100
0000
0001
0000
,
0010
0000
0100
0000
,
0010
0000
0100
0000
,
1000
0000
0001
0000
,
1000
0000
0001
0000
,
0100
0000
0100
0000
,
0010
0000
1000
0001
,
0000
0010
0000
0000
,
0100
0000
1000
0000
,
0001
0000
0100
0000
,
0010
0000
1000
0000
,
0100
0000
0000
0000
,
0010
0000
0001
0000
,
0010
0000
0010
0000
,
0100
0000
1000
0000
,
0001
0000
0001
0000
,
0100
0000
0010
0000
,
0100
0000
0001
0000
,
1000
0000
0100
0000
,
0010
0000
0100
0000
,
1000
0000
0001
0000
,
1001
0000
1000
0000
,
0010
0000
0000
0000
,
0110
0000
0100
0000
,
0001
0000
0000
0000
,
0110
0000
0000
0000
,
0010
0000
1000
0000
,
1001
0000
0000
0000
,
0010
0000
0100
0000
,
0110
0000
0000
0000
,
0010
0000
1000
0000
,
1001
0000
0000
0000
,
0001
0000
1000
0000
,
0100
0000
0100
0000
,
0010
0000
0010
0000
,
0001
0000
0001
0000
,
0010
0000
0010
0000
,
0100
0000
0000
0000
,
1000
0000
0000
0000
,
0001
0000
0000
1000
,
0000
0000
0010
0000
,
0100
0000
0100
0000
,
0001
1000
0001
0000
,
0100
0000
0010
0000
,
1000
0001
0000
1000
,
0010
0000
1000
0000
,
0100
0000
0010
0000
,
0001
0100
0001
0000
,
1000
0100
1000
0000
,
0001
1001
0000
0000
;
#NOTES:
     dance-single:
     :
     Medium:
     7:
     :
0000
0000
0000
0000
,
0000
0000
0000
0000
,
0000
0000
0000
0000
,
0000
0000
0000
0000
,
0000
0000
0000
0000
,
0000
0000
0000
0000
,
0000
0000
0000
0000
,
0000
0000
0000
0000
,
1000
0000
0000
0010
0000
0000
0100
0000
,
0000
0001
0000
0000
0010
0000
0100
0000
,
0010
0000
0000
0001
0000
0000
0100
0000
,
0000
0001
0000
0000
1000
0000
0010
0000
,
0100
0000
0000
0001
0000
0000
1000
0000
,
0000
0100
0000
0000
0010
0000
0100
0000
,
1000
0000
0000
0001
0000
0000
0100
0000
,
0000
0010
0000
0000
1000
0000
0001
0000
,
0010
0000
0000
0100
0000
0000
0010
0000
,
0000
0100
0000
0000
1000
0000
0001
0000
,
0100
0000
0000
0010
0000
0000
1000
0000
,
0000
0001
0000
0000
0010
0000
0100
0000
,
1000
0000
0000
0100
0000
0000
0010
0000
,
0000
0001
0000
0000
0100
0000
0001
0000
,
1000
0000
0000
0010
0000
0000
0100
0000
,
0000
0001
0000
0000
1000
0000
0100
0000
,
0010
0001
0100
0001
,
0010
0001
0100
0010
,
1000
0100
0010
0100
,
1000
0010
0100
0001
,
0010
0100
1000
0100
,
0010
0100
1000
0010
,
0100
0001
0010
0100
,
1000
0001
0000
0100
,
0001
0000
0000
1000
0010
0000
0000
0100
,
0001
0000
0000
0001
1000
0000
0000
1000
,
0100
0000
0000
0010
0001
0000
0000
0001
,
1000
0000
0000
1000
0010
0000
0000
0100
,
0001
0000
0000
1000
0100
0000
0000
0100
,
0010
0000
0000
0010
0001
0000
0000
0100
,
0000
0010
0000
1000
0000
0000
0100
0000
,
0010
0000
0100
0000
0000
1000
0000
0001
,
0000
0100
0000
0010
0000
1000
0000
0001
,
1000
0001
1000
0000
0001
0000
0010
0000
,
0100
1000
0010
0100
,
0000
0000
0010
0100
,
0001
1000
0100
0010
,
0000
0000
0100
0010
,
0001
1000
0100
0010
,
0000
0000
0001
0100
,
0010
1000
0001
0100
,
0000
0000
0000
0010
,
0110
0000
0000
0000
,
0000
0000
0000
0000
,
1000
0000
0001
0100
0001
0000
1000
0001
,
0000
0100
0000
0010
1000
0000
0001
0000
,
0010
0000
0100
0010
0100
0000
1000
0001
,
0000
0000
1001
0000
,
0001
0000
0100
0010
0100
0000
0010
1000
,
0000
0001
0000
1000
0010
0000
0100
0000
,
0001
0000
0010
0100
0010
0000
0100
1000
,
0000
0001
0000
1000
0001
0000
0000
0000
,
0100
0000
0010
1000
0010
0000
1000
0100
,
0000
0010
0001
0000
0010
0000
0001
0000
,
0100
0000
0010
1000
0010
0000
1000
0100
,
0000
0010
0100
0000
0010
0000
0100
0000
,
1000
0000
0001
1000
0001
0000
0100
0001
,
0000
1000
0001
0000
0100
0010
1000
0000
,
0000
0000
0000
0010
0100
0000
0000
0001
,
1000
0000
0000
0100
0010
0000
0100
0000
,
1000
0000
0000
0001
0100
0001
0000
0100
,
0010
0000
1000
0000
0000
0100
0000
0010
,
0001
0010
0000
0100
1000
0100
0000
1000
,
0001
0000
0100
0000
0010
0000
0000
1000
,
0001
1000
0000
0010
1000
0010
0000
0100
,
0001
0000
0010
0000
0100
0000
0000
1000
,
0100
1000
0000
0001
0100
0001
0000
1000
,
0010
0100
0001
1000
,
0000
0100
0000
0010
0000
0001
0000
1000
,
0000
0010
0000
0100
0001
0000
0000
0001
,
1000
0000
0000
0100
0000
0010
0000
0001
,
0000
0010
0000
0100
1000
0000
0000
0000
,
0100
0010
0000
0001
0000
0000
0010
0100
,
0000
1000
0000
0100
0000
0000
0010
0001
,
0000
1000
0000
0001
0000
0000
0100
0010
,
0000
1000
0000
0001
0000
0000
0100
0010
,
2000
0001
3010
0100
,
0002
0010
1003
0001
,
0200
0010
0301
1000
,
0200
0010
0301
0100
,
2000
0001
3010
0100
,
0002
0010
1003
0100
,
0010
0000
0001
0010
0001
0000
1000
0000
,
0001
1000
0001
0000
1000
0000
0010
1000
,
0010
0000
0000
0100
0000
0000
0001
0000
,
0010
0000
0000
0100
0000
0000
1000
0000
,
0010
0000
0000
0100
0000
0000
0001
0000
,
0010
0000
0000
0001
0000
0000
0100
0000
,
0010
0000
0000
1000
0000
0000
0001
0000
,
0100
0000
0000
0010
0000
0000
1000
0000
,
0001
1000
0000
0001
1000
0000
0010
0100
,
0000
0010
0100
0000
0001
0100
0001
0100
,
0001
1000
0000
0001
1000
0000
0001
1000
,
0000
0001
1000
0000
0010
0000
0100
0010
,
0000
0100
0010
0000
0100
0010
0000
0100
,
0010
0000
1000
0000
0000
0000
0001
1000
,
0000
0001
1000
0000
0001
1000
0000
0001
,
1000
0000
0100
0000
0010
0000
0001
0010
,
0100
0010
0001
1000
0001
0000
1000
0010
,
1000
0001
0000
0100
0010
0100
0001
1000
,
0001
1001
0000
0000
;
#NOTES:
     dance-single:
     :
     Hard:
     9:
     :
0000
0000
0000
0000
,
0000
0000
0000
0000
,
0000
0000
0000
0000
,
0000
0000
0000
0000
,
0000
0000
0000
0000
,
0000
0000
0000
0000
,
0000
0000
0000
0000
,
0000
0000
0000
0000
,
0010
0100
0001
1000
0000
0000
1100
0000
,
0000
0010
0000
0001
1000
0000
0010
1000
,
0000
0001
0010
0100
0000
0000
1000
0001
,
1000
0010
0000
0100
0001
0000
0010
0100
,
1000
0010
0100
0001
0000
0000
1010
0000
,
0000
0100
0000
0010
0001
0000
1000
0010
,
0000
0100
0001
1000
0000
0000
0100
0010
,
0000
0001
0000
1000
0010
0000
0100
0001
,
1000
0001
0010
0100
0000
0000
1001
0000
,
0000
0001
0000
0001
1000
0000
0010
0100
,
0001
0000
0100
0010
0000
0100
1000
0000
,
0100
0010
0000
0100
0001
0000
1000
0000
,
0100
0010
0001
0010
0000
0000
1001
0000
,
0000
1000
0000
1000
0010
0000
0100
0001
,
1000
0000
0100
0010
0000
0100
0001
0000
,
0100
0010
0000
0100
1000
0000
0001
1000
,
0010
0100
0000
0010
1000
0000
0001
0000
,
0010
0100
0000
0010
0001
0000
1000
0000
,
0001
0100
0000
0001
1000
0000
0010
0000
,
1000
0100
0000
1000
0001
0000
0010
0000
,
0100
1000
0000
0001
0100
0000
0010
0000
,
0100
0001
0000
1000
0100
0000
0010
0000
,
0001
0010
0000
0100
1000
0000
0001
0000
,
1000
0100
0010
0001
0000
0000
0001
0000
,
0010
0000
0100
1000
0001
0000
0100
0001
,
1000
0000
0010
1000
0001
0000
0010
0001
,
1000
0000
0001
0100
0010
0000
1000
0100
,
0010
0000
0001
1000
0100
0000
0010
0001
,
1000
0000
0001
0100
0010
0000
1000
0001
,
0010
0000
0100
1000
0010
0000
0100
0001
,
0000
0010
0000
0100
0000
0000
1000
0000
,
0001
0000
1000
0000
0000
0010
0000
0100
,
0000
0001
0000
1000
0000
0100
0000
0010
,
0001
0010
0001
0000
1000
0000
1000
0002
,
0100
0000
0010
0000
1003
0000
0100
0010
,
0000
0000
0000
0000
0001
0200
0010
0000
,
1000
0000
0310
0000
1000
0000
0001
0010
,
0000
0000
0000
0000
0100
2000
0001
0000
,
0010
0000
3100
0000
1000
0000
0001
0100
,
0000
0000
0000
0000
0100
0020
1000
0000
,
0100
0000
0031
0000
0010
0000
1000
0001
,
0000
0001
0000
0001
0000
0001
0010
0000
,
1001
0000
0000
0000
,
0000
0000
0000
0000
,
0101
0000
0001
0100
0001
0000
1000
0001
,
0000
0001
0100
0010
1000
0001
1000
0000
,
0100
0000
0010
0100
0010
0000
0100
1000
,
0000
0000
1001
0000
,
1100
0000
1000
0100
1000
0000
0001
1000
,
0000
1000
0010
0100
0001
1000
0001
0000
,
0100
0000
0010
1000
0001
0000
0010
0100
,
0000
0100
1000
0001
0100
0010
0000
0000
,
1010
0000
1000
0010
0100
0000
0001
0010
,
0000
0100
1000
0001
1000
0010
0100
0000
,
0001
0000
0100
0010
1000
0000
0001
0010
,
0000
0100
0010
0001
1000
0001
0100
0000
,
0010
0000
1000
0001
0010
0000
0100
1000
,
0000
0001
1000
0010
0100
0010
1000
0000
,
0000
0000
0000
0010
0001
0000
0010
0001
,
0100
0000
0010
1000
0001
1000
0001
0000
,
0010
0100
0000
0010
0001
1000
0000
0001
,
1000
0000
0010
0000
0000
0100
0000
0001
,
1000
0001
0000
0010
0100
0010
0000
0100
,
1000
0000
0001
0000
0100
0000
0000
0010
,
1000
0010
0000
1000
0001
1000
0000
0001
,
0010
0000
0100
0000
1000
0000
0000
0001
,
0100
0001
0000
1000
0100
1000
0000
0001
,
0010
0100
1000
0001
,
0000
0100
0000
0010
0000
1000
0000
0001
,
0000
1000
0000
0100
0010
0100
0000
1000
,
0001
1000
0000
0010
0000
0100
0000
0001
,
0000
0010
0000
0001
1000
0000
0000
0000
,
0100
0010
0000
1000
0000
0000
0010
0100
,
0000
0001
0000
0010
0000
0000
0100
1000
,
0000
0001
0000
0100
0000
0010
1000
0001
,
0000
0010
0000
0100
0000
1000
0001
0100
,
0010
1000
0001
1000
0010
0000
0100
0000
,
0001
0010
0100
0010
0001
0000
0000
0010
,
0100
1000
0100
0000
0000
0000
0010
0000
,
1000
0010
0100
0010
0001
0000
0000
0000
,
1000
0001
0100
0010
0100
0000
0010
0100
,
0010
0001
0010
0000
0100
1000
0100
1000
,
0100
0010
0100
0010
1000
0000
0001
0010
,
0100
0010
0100
0000
1000
0001
1000
0001
,
0100
0010
0000
1000
0000
0000
0001
0010
,
0000
0100
0000
0010
0001
0000
0100
0000
,
0010
1000
0000
0001
0000
0000
0100
0010
,
0000
0001
0000
0010
1000
0000
0001
0000
,
1000
0100
0000
0010
0000
0000
0100
0010
,
0000
0001
0000
1000
0010
0000
0100
0000
,
0001
0100
0000
0010
1000
0000
0001
0010
,
0000
0100
1000
0000
0010
0100
0010
0100
,
0001
0010
0000
0001
0010
0000
0001
0010
,
0000
0001
0010
0000
0010
0000
0100
0010
,
0000
0100
0010
0000
0100
0010
0000
0100
,
0010
0000
0010
0000
0000
0000
1000
0001
,
0000
1000
0001
0000
1000
0001
0000
1000
,
0001
0000
0001
0000
0100
0000
0001
1000
,
0010
1000
0001
1000
0100
0000
0010
0001
,
1000
0001
0000
0100
0010
1000
0001
0010
,
0100
1001
0000
0000
;
#NOTES:
     dance-double:
     :
     Beginner:
     1:
     :
00000000
00000000
00000000
00000000
,
00000000
00000000
00000000
00000000
,
00000000
00000000
00000000
00000000
,
00000000
00000000
00000000
00000000
,
00000000
00000000
00000000
00000000
,
00000000
00000000
00000000
00000000
,
00000000
00000000
00000000
00000000
,
00000000
00000000
00000000
00000000
,
10000000
00000000
00000000
00000000
,
01000000
00000000
00000000
00000000
,
00100000
00000000
00000000
00000000
,
00001000
00000000
00010000
00000000
,
00001000
00000000
00000000
00000000
,
00010000
00000000
00000000
00000000
,
00000100
00000000
00000000
00000000
,
00001000
00000000
00000001
00000000
,
00001000
00000000
00000000
00000000
,
00000010
00000000
00000000
00000000
,
00000100
00000000
00000000
00000000
,
00000001
00000000
00000000
00000000
,
00000010
00000000
00000000
00000000
,
00000100
00000000
00000000
00000000
,
00010000
00000000
00000000
00000000
,
00010000
00000000
00000000
00000000
,
00001000
00000000
00000000
00000000
,
00001000
00000000
00000000
00000000
,
01000000
00000000
00000000
00000000
,
00100000
00000000
01000000
00000000
,
00100000
00000000
00000000
00000000
,
00100000
00000000
00000000
00000000
,
10000000
00000000
00000000
00000000
,
00010000
00000000
00000000
00000000
,
00010000
00000000
00000000
00000000
,
00100000
00000000
00000000
00000000
,
00001000
00000000
00000000
00000000
,
00010000
00000000
00000000
00000000
,
00000100
00000000
00000000
00000000
,
00001000
00000000
00000000
00000000
,
00000001
00000000
00000000
00001000
,
00000000
00000000
00000000
00000010
,
00000000
00000000
00000000
00000000
,
00000100
00000000
00000000
00000000
,
00000010
00000000
00000000
00000000
,
00010000
00000000
00000000
00000000
,
00001000
00000000
00000000
00000000
,
00100000
00000000
00000000
00000000
,
00100000
00000000
00000000
00000000
,
00010000
00000000
00000000
00000000
,
10000000
00000000
00000000
00000000
,
00100000
00000000
00000000
01000000
,
01000000
00000000
00000000
00000000
,
00000000
00000000
00000000
00000000
,
00010000
00000000
00000000
00000000
,
00100000
00000000
00000000
00000000
,
00010000
00000000
00000000
00000000
,
01000000
00000000
00000000
00000000
,
00001000
00000000
00000000
00000000
,
00010000
00000000
00000000
00000000
,
00000100
00000000
00000000
00000000
,
00010000
00000000
00000000
00000000
,
00001000
00000000
00000000
00000000
,
00010000
00000000
00000000
00000000
,
00000010
00000000
00000000
00000000
,
00001000
00000000
00000000
00000000
,
00000001
00000000
00000000
00000000
,
00000010
00000000
00000000
00000000
,
00000100
00000000
00010000
00000000
,
00001000
00000000
00000000
00000000
,
00100000
00000000
00000000
00000000
,
00010000
00000000
10000000
00000000
,
00010000
00000000
00000000
00000000
,
01000000
00000000
00000000
00000000
,
00100000
00000000
10000000
00000000
,
00100000
00000000
00000000
00000000
,
01000000
00000000
00000000
00000000
,
00001000
00000000
00010000
00000000
,
00001000
00000000
00000000
00000000
,
00010000
00000000
00000000
00000000
,
00000100
00000000
00000000
00000000
,
00000010
00000000
00000000
00000000
,
00000001
00000000
00001000
00000000
,
00000001
00000000
00000000
00000000
,
00001000
00000000
00000100
00000000
,
00001000
00000000
00000000
00000000
,
00000100
00000000
00010000
00000000
,
00001000
00000000
00000000
00000000
,
00100000
00000000
00001000
00000000
,
00100000
00000000
00000000
00000000
,
00010000
00000000
10000000
00000000
,
00010000
00000000
00000000
00000000
,
01000000
00000000
00100000
00000000
,
01000000
00000000
00100000
00000000
,
10000000
00000000
00000000
00000000
,
01000000
00000000
00000000
00000000
,
00100000
00000000
00000000
00000000
,
00001000
00000000
00000000
00000000
,
00010000
00000000
00000000
00000000
,
00000100
00000000
00000000
00000000
,
00000010
00000000
00000000
00000000
,
00000010
00000000
00000000
00000000
,
00000100
00000000
00000000
00000000
,
00000100
00000000
00000000
00000000
,
00000100
00000000
00000000
00000000
,
00000100
00000000
00000000
00000000
,
00000010
00000000
00000000
00000000
,
00000010
00000000
00000000
00000000
,
00000010
00000000
00000000
00000000
,
00000001
00000000
00000000
00000000
,
00001000
00000001
00000000
00000000
;
#NOTES:
     dance-double:
     :
     Easy:
     3:
     :
00000000
00000000
00000000
00000000
,
00000000
00000000
00000000
00000000
,
00000000
00000000
00000000
00000000
,
00000000
00000000
00000000
00000000
,
00000000
00000000
00000000
00000000
,
00000000
00000000
00000000
00000000
,
00000000
00000000
00000000
00000000
,
00000000
00000000
00000000
00000000
,
00000001
00000000
00000000
00000000
,
00000010
00000000
00000000
00000000
,
00000100
00000000
00010000
00000000
,
00001000
00000000
00010000
00000000
,
00001000
00000000
00000000
00000000
,
00100000
00000000
00000000
00000000
,
00010000
00000000
00000000
00000000
,
01000000
00000000
00100000
00000000
,
10000000
00000000
00000000
00000000
,
00010000
00000000
00000000
00000000
,
00100000
00000000
01000000
00000000
,
00100000
00000000
01000000
00000000
,
00010000
00000000
00000000
00000000
,
00001000
00000000
00000000
00000000
,
00010000
00000000
00000000
00000000
,
00001000
00000000
00010000
00000000
,
00000100
00000000
00000100
00000000
,
00001000
00000000
00001000
00000000
,
00000010
00000000
00000010
00000000
,
00001000
00000000
00000001
00000000
,
00001000
00000000
00001000
00000000
,
00000100
00000000
00000100
00000000
,
00010000
00000000
00010000
00000000
,
00001000
00100000
00000000
00000000
,
00100000
00000000
00000000
00000000
,
00010000
00000000
00010000
00000000
,
01000000
00000000
00000000
00000000
,
00100000
00000000
00100000
00000000
,
10000000
00000000
00000000
00000000
,
00100000
00000000
00000000
00000000
,
01000000
00000000
00000000
00001000
,
00000000
00000000
00000000
00010000
,
00000000
00000000
00000000
00000000
,
00001000
00000000
00000000
00010000
,
00000000
00000100
00000000
00001000
,
00000000
00000000
00000100
00000000
,
00000010
00000000
00000001
00000000
,
00000000
00000000
00000100
00000000
,
00000010
00000000
00010000
00000000
,
00000000
00000000
00001000
00000000
,
00010000
00000000
00011000
00000000
,
00000000
00000000
00000000
00010000
,
00011000
00000000
00000000
00000000
,
00000000
00000000
00000000
00000000
,
00001000
00000000
00100000
00000000
,
00010000
00000000
00010000
00000000
,
00100000
00000000
00010000
00000000
,
01000000
00000000
00100000
00000000
,
10000000
00000000
00010000
00000000
,
10000000
00000000
10000000
00000000
,
01000000
00000000
00100000
00000000
,
00001000
00000000
00010000
00000000
,
00001000
00000000
00010000
00000000
,
00010000
00000000
00000100
00000000
,
00001000
00000000
00001000
00000000
,
00000010
00000000
00001000
00000000
,
00000100
00000000
00000100
00000000
,
00000010
00000000
00000001
00000100
,
00000000
00000010
00000000
00000000
,
00000100
00000000
00001000
00000000
,
00010000
00000000
00001000
00000000
,
00100000
00000000
00010000
00000000
,
10000000
00000000
00000000
00000000
,
00100000
00000000
01000000
00000000
,
00010000
00000000
00000000
00000000
,
00100000
00000000
00001000
00000000
,
00010000
00000000
00000000
00000000
,
00000100
00000000
00001000
00000000
,
00000010
00000000
00000100
00000000
,
00000001
00000000
00000010
00000000
,
00000100
00000000
00010000
00000000
,
00001000
00000000
00010000
00000000
,
00001000
00000000
00100000
00000000
,
00010000
00000000
00000000
00000000
,
01000000
00000000
00010000
00000000
,
10010000
00000000
00000000
00000000
,
01100000
00000000
00000000
00000000
,
00100000
00000000
00000000
00000000
,
00011000
00000000
00000000
00000000
,
00010000
00000000
00000000
00000000
,
00000110
00000000
00000000
00000000
,
00001000
00000000
00000000
00000000
,
00000110
00000000
00000000
00000000
,
00000100
00000000
00000001
00000000
,
00001000
00000000
00000000
00000000
,
00000100
00000000
00000100
00000000
,
00010000
00000000
00000000
00000000
,
00001000
00000000
01000000
00000000
,
01000000
00000000
00000000
00000000
,
00010000
00000000
00000000
00000000
,
10000000
00000000
00000000
01000000
,
00000000
00000000
00100000
00000000
,
01000000
00000000
01000000
00000000
,
00010000
00000000
00010000
00000000
,
00001000
00000000
00001000
00000000
,
00010000
00001000
00000000
00010000
,
00000100
00000000
00000100
00000000
,
00001000
00000000
00001000
00000000
,
00000010
00001000
00000010
00000000
,
00000100
00000001
00000100
00000000
,
00000001
00001001
00000000
00000000
;
#NOTES:
     dance-double:
     :
     Medium:
     8:
     :
00000000
00000000
00000000
00000000
,
00000000
00000000
00000000
00000000
,
00000000
00000000
00000000
00000000
,
00000000
00000000
00000000
00000000
,
00000000
00000000
00000000
00000000
,
00000000
00000000
00000000
00000000
,
00000000
00000000
00000000
00000000
,
00000000
00000000
00000000
00000000
,
10000000
00000000
00000000
01000000
00000000
00000000
00010000
00000000
,
00000000
01000000
00000000
00000000
00100000
00000000
00001000
00000000
,
00100000
00000000
00000000
00001000
00000000
00000000
00010000
00000000
,
00000000
00000100
00000000
00000000
00001000
00000000
00000010
00000000
,
00001000
00000000
00000000
00000001
00000000
00000000
00000100
00000000
,
00000000
00001000
00000000
00000000
00000100
00000000
00000010
00000000
,
00000100
00000000
00000000
00001000
00000000
00000000
00010000
00000000
,
00000000
01000000
00000000
00000000
10000000
00000000
00010000
00000000
,
10000000
00000000
00000000
00100000
00000000
00000000
01000000
00000000
,
00000000
00010000
00000000
00000000
00100000
00000000
00001000
00000000
,
00010000
00000000
00000000
00000100
00000000
00000000
00001000
00000000
,
00000000
00000010
00000000
00000000
00000100
00000000
00000001
00000000
,
00001000
00000000
00000000
00000100
00000000
00000000
00010000
00000000
,
00000000
00001000
00000000
00000000
00100000
00000000
00010000
00000000
,
01000000
00000000
00000000
00100000
00000000
00000000
01000000
00000000
,
00000000
10000000
00000000
00000000
01000000
00000000
00010000
00000000
,
00100000
00001000
00010000
00001000
,
00100000
00001000
00010000
00000100
,
00001000
00000010
00000100
00000010
,
00001000
00000010
00000100
00000001
,
00000010
00000100
00010000
00001000
,
00100000
00010000
01000000
00100000
,
10000000
00010000
00100000
01000000
,
10000000
01000000
00000000
00010000
,
00001000
00000000
00000000
00010000
00000010
00000000
00000000
00001000
,
00000100
00000000
00000000
00000100
00000010
00000000
00000000
00000001
,
00001000
00000000
00000000
00000100
00010000
00000000
00000000
00010000
,
00001000
00000000
00000000
01000000
00010000
00000000
00000000
00010000
,
10000000
00000000
00000000
10000000
01000000
00000000
00000000
00100000
,
01000000
00000000
00000000
00010000
00001000
00000000
00000000
00010000
,
00000000
00001000
00000000
00010000
00000000
00000000
00000100
00000000
,
00001000
00000000
00000100
00000000
00000000
00000010
00000000
00000001
,
00000000
00000010
00000000
00000100
00000000
00010000
00000000
00001000
,
00010000
00001000
00010000
00000000
00001000
00000000
01000000
00000000
,
00100000
10000000
00010000
01000000
,
00000000
00000000
00100000
01000000
,
00001000
00010000
00000100
00001000
,
00000000
00000000
00000010
00001000
,
00000100
00000001
00000100
00001000
,
00000000
00000000
00000010
00010000
,
00001000
00100000
00010000
00100000
,
00000000
00000000
00000000
00010000
,
10010000
00000000
00000000
00000000
,
00000000
00000000
00000000
00000000
,
10000000
00000000
00100000
01000000
00100000
00000000
01000000
00001000
,
00000000
00010000
00000000
00001000
00010000
00000000
00000100
00000000
,
00000010
00000000
00000100
00001000
00000100
00000000
00000010
00000001
,
00000000
00000000
00001001
00000000
,
00000001
00000000
00001000
00000010
00001000
00000000
00000100
00010000
,
00000000
00001000
00000000
00100000
00010000
00000000
10000000
00000000
,
00100000
00000000
01000000
00010000
01000000
00000000
00100000
01000000
,
00000000
00100000
00000000
00010000
00001000
00000000
00000000
00000000
,
00001000
00000000
00010000
00001000
00010000
00000000
00000100
00001000
,
00000000
00000010
00000100
00000000
00000001
00000000
00000010
00000000
,
00000100
00000000
00010000
00001000
00100000
00000000
00010000
10000000
,
00000000
10000000
00010000
00000000
00100000
00000000
01000000
00000000
,
00010000
00000000
00001000
00010000
00001000
00000000
00010000
00000100
,
00000000
00001000
00000100
00000000
00000010
00000100
00000010
00000000
,
00000000
00000000
00000000
00000001
00000100
00000000
00000000
00000100
,
00000010
00000000
00000000
00010000
00001000
00000000
00100000
00000000
,
00010000
00000000
00000000
01000000
00010000
01000000
00000000
00100000
,
10000000
00000000
00010000
00000000
00000000
00100000
00000000
00001000
,
00010000
00001000
00000000
00010000
00000100
00010000
00000000
00001000
,
00010000
00000000
00000010
00000000
00000100
00000000
00000000
00000001
,
00000100
00000001
00000000
00001000
00000100
00001000
00000000
00000100
,
00010000
00000000
00001000
00000000
00100000
00000000
00000000
00010000
,
10000000
00010000
00000000
10000000
01000000
10000000
00000000
01000000
,
00010000
00001000
00000100
00000010
,
00000000
00001000
00000000
00000001
00000000
00000010
00000000
00000100
,
00000000
00010000
00000000
00001000
00100000
00000000
00000000
00100000
,
00010000
00000000
00000000
01000000
00000000
00100000
00000000
00010000
,
00000000
00100000
00000000
10000000
00010000
00000000
00000000
00000000
,
01000000
00100000
00000000
00010000
00000000
00000000
00001000
00010000
,
00000000
00000100
00000000
00001000
00000000
00000000
00000010
00001000
,
00000000
00000001
00000000
00000010
00000000
00000000
00000100
00010000
,
00000000
00001000
00000000
00100000
00000000
00000000
01000000
00100000
,
02000000
13000000
00010000
01000000
,
00002000
00013000
00000100
00000010
,
00000200
00001300
00000001
00000100
,
00002000
00013000
00100000
01000000
,
00020000
10030000
01000000
00100000
,
02000000
03010000
00001000
00000100
,
00000010
00000000
00001000
00000001
00001000
00000000
00000100
00000000
,
00010000
00001000
00010000
00000000
00001000
00000000
00100000
00010000
,
00100000
00000000
00000000
00010000
00000000
00000000
01000000
00000000
,
00100000
00000000
00000000
10000000
00000000
00000000
00010000
00000000
,
00100000
00000000
00000000
01000000
00000000
00000000
00010000
00000000
,
00001000
00000000
00000000
00000010
00000000
00000000
00000001
00000000
,
00000100
00000000
00000000
00001000
00000000
00000000
00010000
00000000
,
01000000
00000000
00000000
10000000
00000000
00000000
00010000
00000000
,
01000000
00100000
00000000
01000000
00010000
00000000
00100000
00001000
,
00000000
00010000
00001000
00000000
00010000
00001000
00010000
00001000
,
00010000
00000100
00000000
00010000
00000100
00000000
00010000
00000100
,
00000000
00010000
00000100
00000000
00000010
00000000
00000001
00001000
,
00000000
00000001
00001000
00000000
00000001
00001000
00000000
00000001
,
00001000
00000000
00000010
00000000
00000000
00000000
00000100
00001000
,
00000000
00000100
00001000
00000000
00000100
00001000
00000000
00000100
,
00001000
00000000
00010000
00000000
00100000
00000000
01000000
00010000
,
10000000
00100000
10000000
00010000
10000000
00000000
00010000
00100000
,
00001000
00010000
00000000
00000100
00001000
00000010
00000100
00000001
,
00001000
00001001
00000000
00000000
;
#NOTES:
     dance-double:
     :
     Hard:
     9:
     :
00000000
00000000
00000000
00000000
,
00000000
00000000
00000000
00000000
,
00000000
00000000
00000000
00000000
,
00000000
00000000
00000000
00000000
,
00000000
00000000
00000000
00000000
,
00000000
00000000
00000000
00000000
,
00000000
00000000
00000000
00000000
,
00000000
00000000
00000000
00000000
,
00000001
00000000
00000100
00000010
00000000
00000000
00001000
00000000
,
00000000
00000010
00000000
00010000
00001000
00000000
00100000
00010000
,
00000000
10000000
00100000
10000000
00000000
00000000
00010000
00100000
,
01000000
00100000
00000000
00100000
00001000
00000000
00010000
00001000
,
00010000
00000000
00000100
00001000
00000000
00000000
00000010
00000000
,
00000000
00000100
00000000
00000001
00001000
00000000
00000100
00010000
,
00000000
00001000
00100000
01000000
00000000
00000000
00010000
01000000
,
00000000
10000000
00000000
00100000
01000000
00000000
00001000
00010000
,
00001000
00000000
00010000
00000010
00000000
00000000
00000100
00000000
,
00000000
00001000
00000000
00001000
00010000
00000000
00000010
00001000
,
00000010
00000000
00000100
00000001
00000000
00000100
00001000
00000000
,
00000100
00000001
00000000
00000100
00001000
00000000
00010000
00000000
,
00100000
00000000
01000000
00010000
00000000
00000000
10000000
00000000
,
00000000
01000000
00000000
00100000
01000000
00000000
00010000
00001000
,
00010000
00000000
00001000
00010000
00000000
00001000
00000100
00000000
,
00000010
00000100
00000000
00000001
00001000
00000000
00000010
00001000
,
00000100
00010000
00000000
00001000
00100000
00000000
01000000
00000000
,
10000000
00010000
00000000
00010000
10000000
00000000
00100000
00000000
,
01000000
00001000
00000000
00010000
00001000
00000000
00010000
00000000
,
00000100
00001000
00000000
00001000
00000010
00000000
00000100
00000000
,
00000001
00001000
00000000
00000100
00010000
00000000
00001000
00000000
,
01000000
00010000
00000000
00010000
01000000
00000000
00100000
00000000
,
00010000
00100000
00000000
01000000
00100000
00000000
10000000
00000000
,
00010000
01000000
00100000
00010000
00000000
00000000
00001000
00000000
,
00010000
00000000
00001000
00010000
00000100
00000000
00001000
00000010
,
00000100
00000000
00000001
00000010
00000100
00000000
00010000
00001000
,
00010000
00000000
00001000
01000000
00010000
00000000
01000000
00100000
,
10000000
00000000
00010000
10000000
01000000
00000000
00100000
00010000
,
01000000
00000000
00001000
01000000
00010000
00000000
00100000
00001000
,
00010000
00000000
00001000
00010000
00000100
00000000
00001000
00000010
,
00000000
00000100
00000000
00000001
00000000
00000000
00000100
00000000
,
00001000
00000000
00000100
00000000
00000000
00001000
00000000
00010000
,
00000000
00100000
00000000
10000000
00000000
01000000
00000000
00010000
,
00001000
00010000
00001000
00000000
00010000
00000000
00001000
00010000
,
00000100
00000000
00001000
00000000
00000100
00000000
00000010
00000001
,
00000000
00000000
00000000
00000000
00000100
00000010
00000100
00000000
,
00000010
00000000
00010000
00000000
00001000
00000000
00100000
00010000
,
00000000
00000000
00000000
00000000
00100000
01000000
10000000
00000000
,
00010000
00000000
01000000
00000000
00100000
00000000
00010000
00001000
,
00000000
00000000
00000000
00000000
00010000
00001000
00010000
00000000
,
00000010
00000000
00001000
00000000
00000100
00000000
00000010
00001000
,
00000000
00001000
00000000
00001000
00000000
00001000
00000010
00000000
,
00001001
00000000
00000000
00000000
,
00000000
00000000
00000000
00000000
,
00000011
00000000
00000010
00000100
00000010
00000000
00000100
00001000
,
00000000
00000100
00010000
00001000
00100000
00010000
00100000
00000000
,
00001000
00000000
01000000
00010000
01000000
00000000
00100000
10000000
,
00000000
00000000
01010000
00000000
,
10100000
00000000
00100000
01000000
00010000
00000000
00100000
00001000
,
00000000
00001000
00010000
00000010
00001000
00000010
00000100
00000000
,
00000001
00000000
00001000
00000100
00010000
00000000
00001000
00100000
,
00000000
00100000
00010000
10000000
01000000
00100000
00000000
00000000
,
01000000
00000000
00010000
00001000
00010000
00000000
00001000
00010000
,
00000000
00000100
00001000
00000010
00000100
00000010
00001000
00000000
,
00000001
00000000
00000010
00000100
00000001
00000000
00000100
00010000
,
00000000
00000100
00010000
00001000
00100000
00010000
01000000
00000000
,
00010000
00000000
10000000
00100000
01000000
00000000
00010000
10000000
,
00000000
01000000
00100000
00001000
00010000
00001000
00010000
00000000
,
00000000
00000000
00000000
00000010
00000100
00000000
00000001
00001000
,
00000100
00000000
00000010
00001000
00010000
00001000
00010000
00000000
,
00001000
01000000
00000000
01000000
00100000
10000000
00000000
00010000
,
10000000
00000000
01000000
00000000
00000000
00100000
00000000
00001000
,
00010000
00001000
00000000
00010000
00000100
00010000
00000000
00000100
,
00001000
00000000
00000001
00000000
00000100
00000000
00000000
00000010
,
00010000
00000010
00000000
00010000
00001000
00010000
00000000
00001000
,
00100000
00000000
00010000
00000000
10000000
00000000
00000000
01000000
,
00100000
01000000
00000000
00100000
00010000
00100000
00000000
00001000
,
00010000
00000010
00000100
00000001
,
00000000
00000100
00000000
00001000
00000000
00010000
00000000
01000000
,
00000000
10000000
00000000
00010000
10000000
00010000
00000000
00100000
,
00001000
00100000
00000000
00001000
00000000
00010000
00000000
00001000
,
00000000
00000100
00000000
00000001
00001000
00000000
00000000
00000000
,
00000010
00000100
00000000
00001000
00000000
00000000
00010000
00001000
,
00000000
00100000
00000000
00010000
00000000
00000000
10000000
01000000
,
00000000
00010000
00000000
01000000
00000000
00100000
00001000
00010000
,
00000000
00001000
00000000
00010000
00000000
00000010
00001000
00000010
,
00000100
00000001
00000010
00000100
00010000
00000000
00001000
00000000
,
00100000
00010000
01000000
00010000
10000000
00000000
00000000
00100000
,
01000000
10000000
01000000
00000000
00000000
00000000
00100000
00000000
,
00010000
00001000
00010000
00000100
00001000
00000000
00000000
00000000
,
00000010
00000100
00001000
00000100
00000010
00000000
00000100
00000001
,
00000100
00000010
00001000
00000000
00000100
00010000
00000100
00010000
,
00001000
00010000
00001000
00010000
01000000
00000000
00100000
00010000
,
10000000
01000000
10000000
00000000
00100000
01000000
00010000
01000000
,
00001000
00010000
00000000
00000100
00000000
00000000
00000010
00000001
,
00000000
00001000
00000000
00000100
00010000
00000000
00001000
00000000
,
01000000
00010000
00000000
10000000
00000000
00000000
00100000
01000000
,
00000000
00100000
00000000
00010000
00001000
00000000
00010000
00000000
,
00000100
00001000
00000000
00000010
00000000
00000000
00000100
00001000
,
00000000
00000100
00000000
00000001
00000010
00000000
00000100
00000000
,
00010000
00001000
00000000
00100000
00010000
00000000
01000000
00100000
,
00000000
10000000
00010000
00000000
10000000
01000000
10000000
01000000
,
00100000
00001000
00000000
00100000
00001000
00000000
00100000
00001000
,
00000000
00100000
00001000
00000000
00001000
00000000
00010000
00001000
,
00000000
00010000
00001000
00000000
00010000
00001000
00000000
00010000
,
00001000
00000000
00001000
00000000
00000000
00000000
00010000
00000010
,
00000000
00010000
00000010
00000000
00010000
00000010
00000000
00010000
,
00000010
00000000
00000010
00000000
00000100
00000000
00000001
00001000
,
00000100
00000010
00000100
00001000
00000001
00000000
00000100
00000010
,
00001000
00000010
00000000
00010000
00001000
00100000
00010000
10000000
,
00100000
10010000
00000000
00000000
;
