
//----- song ID: kind -----
#TITLE:Kind Lady;
#ARTIST:OKUYATOS;
#BANNER:Kind Lady.png;
#BACKGROUND:Kind Lady-bg.png;
#CDTITLE:./CDTitles/DDR EXTREME.png;
#MUSIC:Kind Lady.ogg;
#OFFSET:-0.001;
#SAMPLESTART:42.67;
#SAMPLELENGTH:15;
#BPMS:0=135;
#NOTES:
     dance-single:
     :
     Beginner:
     1:
     :
0000
0000
0000
0000
,
0000
0000
0000
0000
,
0000
0000
0000
0000
,
1000
0000
0000
0000
,
0001
0000
0001
0000
,
0010
0000
0000
0000
,
0010
0000
0010
0000
,
0100
0000
1000
0000
,
1001
0000
0000
0000
,
0001
0000
0100
0000
,
0010
0000
0000
0000
,
1000
0000
0001
0000
,
1000
0000
0000
0000
,
0100
0000
0010
0000
,
0001
0000
0000
0000
,
0010
0000
0010
0000
,
0110
0000
0000
0000
,
0100
0000
1000
0000
,
0001
0000
0000
0000
,
0100
0000
0010
0000
,
1000
0000
0000
0000
,
0001
0000
0010
0000
,
0001
0000
0000
0000
,
1000
0000
0100
0000
,
0110
0000
0000
0000
,
0010
0000
0001
0000
,
0010
0000
0100
0000
,
1000
0000
0001
0000
,
0100
0000
0000
0000
,
0010
0000
1000
0000
,
0001
0000
0010
0000
,
0100
0000
1000
0000
,
1001
0000
0001
0000
,
0100
0000
0000
0000
,
0010
0000
0010
0000
,
0100
0000
0001
0000
,
1000
0000
1000
0000
,
0100
0000
0010
0000
,
0001
0000
0010
0000
,
0100
0000
1000
0000
,
1001
0000
0000
0000
,
0001
0000
0100
0000
,
0010
0000
0000
0000
,
0010
0000
1000
0000
,
1001
0000
0000
0000
,
1000
0000
0001
0000
,
0010
0000
0000
0000
,
0100
0000
0010
0000
,
0110
0000
0000
0000
;
#NOTES:
     dance-single:
     :
     Easy:
     4:
     :
0000
0000
0000
0000
,
0000
0000
0000
0000
,
0000
0000
0000
0000
,
0010
0000
0010
0000
,
2000
0000
3010
0100
,
0002
0000
1003
0100
,
0010
0001
0100
1000
,
0010
1000
0001
0000
,
1001
0000
0100
0000
,
0010
1000
0100
0001
,
0010
1001
0100
1001
,
0010
1000
0200
0300
,
0001
0011
1000
1100
,
0010
1000
0001
0100
,
0002
0003
2000
3000
,
0002
0203
0010
0300
,
1000
0001
0100
0000
,
1000
0100
0001
0100
,
0010
0000
1000
0000
,
0010
2000
0002
3003
,
0110
0000
1000
0010
,
0100
0001
1000
0000
,
0001
0101
1000
1100
,
0010
0100
0002
0003
,
1000
0100
0010
0001
,
1000
1000
0001
0001
,
0020
0030
0002
0003
,
2000
3000
0200
0300
,
0010
0010
1000
0101
,
1000
1000
0010
1100
,
0010
1000
0100
0001
,
0010
0001
0100
1000
,
2002
0000
0000
3003
,
0010
0100
0001
1000
,
0001
0100
0020
0130
,
0002
0013
2000
3001
,
0200
0000
0310
1000
,
0200
0000
0310
0001
,
0100
1100
0010
0011
,
1000
0001
0100
0000
,
0001
0001
0100
0010
,
1000
0001
1000
0010
,
0100
0100
1000
0001
,
0100
0010
2002
3003
,
1000
1000
0001
0001
,
1000
0100
0001
0100
,
1000
1000
0010
0010
,
1000
0100
0001
0010
,
1001
0000
0000
0000
;
#NOTES:
     dance-single:
     :
     Medium:
     6:
     :
0000
0000
0000
0000
,
0000
0000
0000
0000
,
0000
0000
0000
0000
,
0020
0030
2000
3000
,
0001
0100
0010
1000
,
0002
0003
2200
3300
,
0010
0100
0002
1003
,
0100
0010
2002
3003
,
0010
0000
1000
0000
0001
0010
0100
0000
,
1000
0000
0001
0000
0100
0010
0100
0000
,
1000
0010
0100
0000
0001
0100
1000
0000
,
0010
1000
0202
0303
,
0010
1000
0001
0100
,
0020
1030
0200
0310
,
0002
0000
0103
0000
0010
1000
0001
0000
,
0100
0000
0000
0010
0000
0000
2002
0000
0000
0000
0000
0000
3003
0000
0000
0000
,
0010
1000
0100
1001
,
0002
0103
2000
3100
,
0001
1000
0100
0001
,
1000
0000
0000
0100
0000
0000
0020
0000
0000
0000
0000
0000
0030
0000
0000
0000
,
0001
0100
0010
1000
,
0002
1003
0020
0130
,
1000
0100
0010
0001
,
1000
0000
0002
0200
0000
0000
0303
0000
,
1000
0001
0100
0000
0010
0100
0010
0000
,
0001
1010
1000
0101
,
0010
1001
0100
1001
,
0100
0000
0000
0001
0000
0000
0010
0000
0000
0000
0000
0000
0100
0000
0000
0000
,
0001
0011
1000
1100
,
0001
0000
0100
0000
0001
1000
0100
0000
,
0002
0103
2000
3100
,
0001
0100
0001
1000
0001
0000
0110
0000
,
0002
1000
0000
1003
,
0200
0320
0031
1001
,
2000
0001
0000
3001
,
0200
0320
1030
1001
,
0100
0010
1000
0100
,
0010
1100
0010
0101
,
1000
0000
0010
0000
1000
0010
0100
0000
,
0001
1000
0100
0000
0010
0000
1001
0000
,
0010
0100
0001
0000
0100
0010
0100
0000
,
2000
3010
0002
0103
,
1000
0010
0100
0000
0001
1000
0100
0000
,
0001
0010
2002
3003
,
0010
1000
0100
0000
0001
1000
0001
0000
,
0200
0301
1000
0110
,
2000
3100
0002
0013
,
1000
0100
0010
1100
,
0110
0000
0000
0000
;
#NOTES:
     dance-single:
     :
     Hard:
     7:
     :
0000
0000
0000
0000
,
0000
0000
0000
0000
,
0000
0000
0000
0000
,
0010
0000
0000
1000
0000
0000
0001
0000
0200
0000
0000
0000
0301
0000
0000
0000
,
0010
0001
0100
0000
0010
1000
0100
0000
,
0002
0103
2000
3001
,
0010
0000
0000
0100
0000
0000
0001
0000
2000
0000
0000
0000
3000
0000
0000
0000
,
0100
0001
1000
0100
0010
0001
0100
0000
,
0022
0000
0033
0000
1000
0001
0100
0000
,
0010
0100
0001
1000
0001
0100
0010
0000
,
1000
0010
0100
0000
0001
1000
0100
0000
,
0010
0001
0220
0330
,
0001
1000
0100
0000
0010
0001
0100
0000
,
0020
0000
1030
0000
0001
1000
0100
0000
,
0010
0100
1000
0000
0001
0100
0010
0000
,
1000
0000
0000
0010
0000
0000
2002
0000
0000
0000
0000
0000
3003
0000
0000
0000
,
0200
0000
0300
0000
0010
0100
0010
1000
,
0002
0000
0003
0000
0100
0010
1000
0100
,
0020
0030
0011
1100
,
0001
0000
0000
0100
0000
0000
2020
0000
0000
0000
0000
0000
3030
0000
0000
0000
,
0001
1000
0100
0000
0010
0001
0100
0000
,
2000
0000
3100
0000
0010
0001
0100
0000
,
0001
1000
0100
0000
0010
0001
0100
0010
,
1000
0000
0000
0020
0000
0000
0200
0000
0000
0000
0000
0000
0330
0000
0000
0000
,
1000
0001
0100
0010
0100
0001
1000
0000
,
0002
2003
3200
0310
,
0001
0010
0100
0000
0001
1000
0100
0000
,
0020
0000
0000
1000
0030
0000
0200
0000
0000
0000
0000
0000
0300
0000
0000
0000
,
0010
0100
1000
0001
0100
0010
0100
0000
,
2000
3002
0203
0310
,
2000
0000
3010
0100
0010
1000
0001
0000
,
2000
3200
0320
0030
,
0001
0000
1000
0001
0100
0010
1000
0001
,
0100
0001
0000
1000
0000
0010
0000
0000
,
1000
0000
0100
0010
0001
0100
0001
1000
,
0020
0000
0230
0000
0301
1000
0001
0000
,
2000
0000
3020
0000
1030
0001
1000
0000
,
0200
0320
0032
1003
,
0010
0101
0110
1001
,
0010
0100
0001
0000
1000
0002
0103
0000
,
0010
0100
0010
0000
0001
2000
3100
0000
,
0010
0001
1000
0000
0100
0020
0031
0000
,
1000
0010
0100
0000
0001
2000
3010
0000
,
0100
0001
1000
0000
2020
0000
3030
0000
,
0001
2000
3100
0000
0010
0100
0010
0000
,
0001
1000
0100
0010
0002
0000
0103
0000
,
1000
0001
0100
0000
0010
0100
0010
0000
,
0011
0000
1100
0000
0001
0100
0010
0000
,
1001
0000
0000
0000
;
#NOTES:
     dance-single:
     :
     Challenge:
     9:
     :
0000
0000
0000
0000
,
0000
0000
0000
0000
,
0000
0000
0000
0000
,
0000
0000
0000
0000
,
2001
0000
0000
0010
3000
0000
0100
0000
0001
0000
0000
1000
0000
0000
0001
0010
,
0200
0000
0000
1000
0300
0000
0100
0000
0020
0000
0000
0030
0010
0000
0000
0000
,
0002
0000
0000
1000
0003
0000
0020
0000
0100
0000
0031
1000
0000
0000
0100
0000
,
1000
0001
0000
0100
0001
0100
0000
0010
1000
0001
1000
0100
0010
0000
0011
0000
,
1001
0000
0100
0000
0010
0000
1000
0001
0000
0001
0000
0010
0100
0000
0000
0000
,
0010
0000
0001
0000
1000
0010
0000
0100
0000
0001
0000
1000
0100
0001
0000
0000
,
0100
0000
0010
0001
1000
0000
0001
0100
0000
0100
0000
0010
1000
0000
0001
0000
,
0020
0000
0000
0130
0000
1000
0010
0000
0100
0000
0000
0100
0001
0100
1000
0000
,
0100
0000
0010
0000
0100
0000
0001
0000
1000
0100
0000
0100
0010
0000
0001
0000
,
0100
0010
0000
0100
0000
1000
0000
0100
0000
0010
0000
1000
0001
0010
0000
0000
,
0100
0000
1000
0000
0010
0000
0100
0000
0001
0010
0000
0010
0001
0000
0100
0000
,
0010
0000
0000
0010
1000
0000
0001
0000
0100
0001
0000
1000
0000
1000
0000
0000
,
1001
0000
0100
0001
1000
0000
0100
0010
0000
0010
0000
0001
1000
0000
0001
0000
,
0100
0000
0010
1000
0000
0001
0000
1000
0000
0001
0000
0010
0100
1000
0000
0000
,
0001
0000
0100
0010
1000
0000
0001
0010
0000
0010
0000
0001
0100
0000
0010
0000
,
2000
0000
0000
3001
0000
1000
0010
0000
0100
0000
0000
0001
0010
0100
0010
0000
,
0001
0000
0100
0000
1000
0000
0100
0000
0010
1000
0000
1000
0001
0000
0010
0000
,
0100
0010
0000
0100
0000
1000
0000
0001
0000
0100
0000
0010
1000
0001
0000
0000
,
0010
0000
0100
0000
0010
0000
0001
0000
1000
0010
0000
0100
0001
0000
1000
0000
,
0010
0000
1000
0100
0010
0000
0001
0000
1000
0000
0001
0010
0100
0000
0010
0000
,
1001
0000
0000
0010
1000
0000
0001
0000
0020
0000
0000
0130
1000
0000
0001
0000
,
0100
0000
0010
0000
1000
0010
0000
0100
0000
0001
0000
0000
0100
0000
0010
0000
,
0001
0010
0000
1000
0000
1000
0001
0000
0020
0000
0000
0130
1000
0000
0010
0000
,
0100
0000
0000
0100
0001
0000
1000
0000
0001
0000
0100
0000
0010
0000
1000
0000
,
0100
0000
0001
0100
0000
0010
0001
0000
2000
0000
0000
3001
0100
0000
0010
0000
,
1000
0001
0010
0001
1000
0001
0100
0001
,
0010
0000
0000
0001
0000
1000
0100
0000
2000
0000
0000
3010
0100
0000
0001
0000
,
1000
0100
0010
0100
0001
0100
0010
0100
,
1000
0000
0010
0000
0100
0000
0010
0100
0002
0000
0000
0013
0100
0000
1000
0000
,
0001
0000
0010
0000
0001
0000
0100
0010
1000
0000
0010
0000
0100
0000
0001
0000
,
1000
0000
0000
0100
0000
0100
0010
0000
0002
0000
0000
1003
0001
0000
1000
0000
,
0010
0100
0001
0100
1000
0100
0010
0100
,
0001
0000
0001
0000
1000
0000
0100
0000
0020
0000
0000
0031
1000
0000
0100
0000
,
1000
0010
0100
0010
0001
0010
0100
0010
,
1000
0000
0000
0001
0000
0100
0010
0000
2000
0000
0000
3001
0010
0000
0100
0000
,
1001
0010
0001
0010
0100
0010
1001
0001
,
0101
0000
0100
0000
0010
1000
0000
1000
0001
0000
0010
0000
0000
0000
0100
0000
,
1000
0000
0001
0000
0010
0001
0000
0100
0000
0010
0000
0100
0000
0002
0000
0003
,
1000
0000
0100
0000
0010
0001
0000
0001
1000
0000
0010
0000
0100
0001
0000
1000
,
0010
0000
1000
0000
0100
0010
0000
2002
0000
0000
3003
0000
0100
0000
0000
0000
,
0010
0000
1000
0000
0000
0001
0100
0000
0010
0000
1000
0000
0000
0100
0000
0100
,
0010
0000
0100
0000
0010
0001
0000
1000
0000
0010
0000
0100
0000
0001
0000
0000
,
0010
0000
0100
0000
0000
0010
0000
0010
0001
0000
1000
0000
0000
0010
0000
0100
,
0001
0000
1000
0000
0100
0010
0000
0001
0000
1000
0010
0000
0100
0000
0001
0000
,
1001
0000
0000
0000
;
#NOTES:
     dance-double:
     :
     Beginner:
     1:
     :
00000000
00000000
00000000
00000000
,
00000000
00000000
00000000
00000000
,
00000000
00000000
00000000
00000000
,
00000001
00000000
00000000
00000000
,
00001000
00000000
00001000
00000000
,
00000100
00000000
00000000
00000000
,
00010000
00000000
00010000
00000000
,
00001000
00000000
00010000
00000000
,
00011000
00000000
00000000
00000000
,
00001000
00000000
00100000
00000000
,
00010000
00000000
00000000
00000000
,
01000000
00000000
00100000
00000000
,
10000000
00000000
00000000
00000000
,
00010000
00000000
00100000
00000000
,
00001000
00000000
00000000
00000000
,
00010000
00000000
00001000
00000000
,
00011000
00000000
00000000
00000000
,
00010000
00000000
00000100
00000000
,
00001000
00000000
00000000
00000000
,
00000010
00000000
00000100
00000000
,
00000010
00000000
00000000
00000000
,
00000100
00000000
00000001
00000000
,
00001000
00000000
00000000
00000000
,
00000100
00000000
00010000
00000000
,
00011000
00000000
00000000
00000000
,
00001000
00000000
00100000
00000000
,
00010000
00000000
01000000
00000000
,
00100000
00000000
10000000
00000000
,
00010000
00000000
00000000
00000000
,
10000000
00000000
01000000
00000000
,
00010000
00000000
00001000
00000000
,
00010000
00000000
00001000
00000000
,
00011000
00000000
00010000
00000000
,
00000010
00000000
00000000
00000000
,
00001000
00000000
00000010
00000000
,
00000100
00000000
00000001
00000000
,
00000010
00000000
00000010
00000000
,
00000100
00000000
00010000
00000000
,
00001000
00000000
00100000
00000000
,
00010000
00000000
10000000
00000000
,
10010000
00000000
00000000
00000000
,
10000000
00000000
00010000
00000000
,
01000000
00000000
00000000
00000000
,
00001000
00000000
00010000
00000000
,
00011000
00000000
00000000
00000000
,
00001000
00000000
00010000
00000000
,
00000010
00000000
00000000
00000000
,
00001000
00000000
00000001
00000000
,
00001001
00000000
00000000
00000000
;
#NOTES:
     dance-double:
     :
     Easy:
     4:
     :
00000000
00000000
00000000
00000000
,
00000000
00000000
00000000
00000000
,
00000000
00000000
00000000
00000000
,
00000000
00000000
00000000
00000000
,
00020000
00030000
00002000
00003000
,
00000200
00000300
00000002
00000003
,
00002000
00000000
00000000
00003000
,
00000010
00000100
00001000
00000000
,
00011000
00000000
00010000
00000000
,
00100000
10000000
00010000
01000000
,
00100000
00000000
00010000
00000000
,
00001000
00000001
00000100
00000000
,
00000001
00001000
00000001
00000100
,
00000010
00000001
00000100
00001000
,
00010000
00000000
01000000
10000000
,
00010000
10000000
02000000
03000000
,
10010000
00000000
00100000
00000000
,
00010000
00001000
00000010
00000001
,
00000100
00000000
00000100
00000000
,
00000001
00000100
00002000
00003000
,
00010000
00100000
10000000
01000000
,
00100000
00010000
01000000
01000000
,
00100000
00010000
00001000
00000100
,
00000001
00000010
00002000
00003000
,
00010000
01000000
20000000
30000000
,
00100000
01000000
10000000
10000000
,
00020000
00030000
02000000
03000000
,
00100000
10000000
01000000
00010000
,
00000000
00001000
00000100
00000001
,
00001000
00000010
00002000
00003000
,
00000100
00001000
00010000
01000000
,
20000000
30000000
00020000
00030000
,
10010000
00000000
00000000
00000000
,
01000000
00010000
00000010
00000100
,
00000001
00001000
00000010
00000001
,
00000100
00001000
00000001
00000100
,
00001001
00000000
00000000
00000000
,
00000001
00000010
00001000
00010000
,
00010000
00100000
10000000
01000000
,
00010000
00001000
00000100
00000001
,
00001001
00000000
00000010
00000000
,
00001000
00000001
00000100
00000010
,
00001001
00000100
00000010
00001000
,
00010000
01000000
10010000
00000000
,
00100000
01000000
00100000
00001000
,
00000100
00000001
00001000
00000100
,
00000010
00001001
00000100
00001001
,
00000010
00001000
00010000
00100000
,
10010000
00000000
00000000
00000000
;
#NOTES:
     dance-double:
     :
     Medium:
     5:
     :
00000000
00000000
00000000
00000000
,
00000000
00000000
00000000
00000000
,
00000000
00000000
00000000
00000000
,
00000000
00000000
00000000
00000000
,
00100000
10000000
01000000
00010000
,
00001000
00000100
00000001
00000010
,
00001000
00010000
00100000
10000000
,
02000000
00000000
03200000
00300000
,
10010000
00000000
01000000
00000000
00100000
00010000
10000000
00000000
,
00100000
00000000
00010000
00000000
00001000
00010000
00001000
00000000
,
00000100
00000000
00000010
00000000
00001000
00000001
00001000
00000000
,
00000002
00000003
00002000
00003000
,
00000010
00000000
00001000
00000000
00010000
01000000
10000000
00000000
,
01000000
00100000
00010000
01000000
,
10000000
01000000
00010000
00001000
,
00000200
00000300
00000020
00000030
,
00001001
00000010
00000100
00001000
,
00010000
00000100
00010000
01000000
,
10000000
00100000
01000000
00010000
,
20000000
30000000
02000000
03000000
,
00010000
00000010
00000100
00000001
,
00000010
00000100
00001000
00000100
,
00000002
00000003
00000200
00000300
,
00001000
00010000
02000000
03000000
,
10010000
01000000
00010000
10000000
,
00100000
00000000
00010000
00000000
00001000
00010000
00000100
00000000
,
00000020
00000030
00000002
00000003
,
00001000
00000000
00000100
00000000
00000010
00000001
00000100
00000000
,
00000000
00000010
00000100
00001000
,
00100000
00000000
01000000
00000000
10000000
00010000
01000000
00000000
,
00200000
00300000
20000000
30000000
,
01000000
00100000
00010000
01000000
,
10010000
00000000
01000000
00000000
00100000
10000000
01000000
00000000
,
00000000
00000000
00100000
00000000
00001000
00010000
00001000
00000000
,
00000100
00000000
00010000
00000000
00001000
00010000
00000010
00000000
,
00000100
00000000
00001000
00000000
00000010
00010000
00000100
00000000
,
00000000
00001100
00001000
00010000
,
01000000
00000000
10000000
00000000
00100000
10000000
01000000
00000000
,
00100000
10000000
00010000
01000000
,
00100000
00010000
00001000
00000010
,
00001001
00000100
00001001
00000100
,
00010000
00000000
00100000
00000000
01000000
10000000
00010000
00000000
,
01100000
00010000
01100000
10000000
,
00100000
00010000
00000010
00000000
,
00000001
00000010
00000100
00001000
,
00010000
00000000
01000000
00000000
10000000
00010000
01000000
00000000
,
00100000
00100000
10000000
10000000
,
01000000
00000000
00010000
00000000
00001000
00000000
00000100
00000001
,
00001000
00000000
00000000
00000000
;
#NOTES:
     dance-double:
     :
     Hard:
     8:
     :
00000000
00000000
00000000
00000000
,
00000000
00000000
00000000
00000000
,
00000000
00000000
00000000
00000000
,
00000000
00000000
00000000
00000000
,
00000010
00000001
00000100
00000000
00000010
00001000
00000100
00000000
,
00000010
00001000
00010000
00000000
00100000
10000000
01000000
00000000
,
00100000
00010000
01000000
00000000
00010000
00000000
10000000
00000000
,
00100000
00010000
00000100
00000010
00000001
00000100
00000010
00000000
,
00001001
00000000
00000010
00000100
00010000
00000000
00000000
00000000
,
00100000
10000000
00010000
00000000
00100000
00000000
00020000
00000000
,
10030000
00000000
00100000
10000000
01000000
00000000
00010000
00000000
,
00000100
00001000
00000002
00000003
,
00000000
00000010
00000001
00000100
00000010
00001000
00000100
00000000
,
00000010
00000000
00000001
00000000
00001000
00000001
00000100
00000000
,
00001000
00000000
00010000
00000000
01000000
00000000
00100000
00010000
,
10000000
02000000
00200000
03300000
,
10010000
00000000
00100000
00010000
00001000
00000000
00000000
00000000
,
00000010
00000001
00001000
00000000
00000010
00001000
00000001
00000000
,
00000000
00000000
00000010
00000001
00000100
00000000
00001000
00000000
,
00100000
01000000
20000000
30000000
,
00000000
10000000
00010000
01000000
00100000
01000000
00010000
00000000
,
10000000
00000000
01000000
00000000
00010000
00001000
00000100
00000000
,
00000001
00000000
00001000
00000000
00000100
00000000
00000010
00000001
,
00001000
00000000
00000002
00000200
00000000
00000000
00000303
00000000
,
00000010
00010000
00100000
10000000
,
01000000
00000000
00010000
00000000
00100000
10000000
01000000
00000000
,
00100000
00000000
00010000
00000000
10000000
00010000
01000000
00000000
,
00100000
00000000
00010000
00000000
00000100
00000000
00000010
00000001
,
00000100
00001001
00000010
00000100
,
00000020
00000001
00001000
00000031
,
00001000
01000000
00100000
10000000
,
00010000
00000000
00100000
01000000
00100000
00000000
10000000
00010000
,
10000000
00000000
01000000
00000000
10000000
00010000
01000000
00000000
,
00010000
00000000
00000100
00000000
00000001
00000010
00000001
00000000
,
00000010
00000100
00001000
00000001
00000100
00001000
00010000
01000000
,
10000000
00000000
00010000
00000000
01000000
00010000
01000000
00000000
,
00100000
00000000
10000000
00000000
01000000
00010000
00001000
00000100
,
00000001
00000010
00000100
00001000
00000001
00001000
00000010
00000000
,
00000100
00000000
00000010
00000100
00000001
00001000
00000001
00000100
,
00001000
00000000
00010000
00001000
00000000
01000000
00100000
00000000
,
10000000
01000000
00100000
00000000
00010000
10000000
01000000
00000000
,
00010000
00001000
00000100
00000001
00001000
00000010
00000100
00000000
,
00000001
00001000
00000010
00000000
00001000
00000001
00000100
00000000
,
00000001
00000100
00001000
00010000
01000000
10000000
00010000
00000000
,
10000000
01000000
00000000
01000000
00010000
01000000
00000000
01000000
,
00100000
10000000
01000000
00010000
00001000
00000100
00000001
00000000
,
00000010
00000001
00000100
00000000
00001000
00000001
00000100
00000000
,
00000001
00000100
00001000
00010000
,
01000000
00000000
00000000
00000000
;
#NOTES:
     dance-double:
     :
     Challenge:
     9:
     :
00000000
00000000
00000000
00000000
,
00000000
00000000
00000000
00000000
,
00000000
00000000
00000000
00000000
,
00000000
00000000
00000000
00000000
,
10010000
00000000
00000000
10000000
00000000
00000000
00100000
00000000
01000000
00000000
00000000
00001000
00000000
00000000
00010000
00001000
,
00010000
00000000
00000000
00000100
00000000
00000000
00000010
00000000
00001000
00000000
00000000
00000000
00001000
00000000
00000000
00000000
,
00000010
00000000
00000000
00000001
00000000
00000000
00000100
00000000
00001000
00000000
00010000
00001000
00000000
00000000
00100000
00000000
,
00010000
10000000
00000000
01000000
00100000
01000000
00000000
00100000
00010000
00100000
00001000
00010000
00001000
00000000
00010000
00000000
,
00011000
00000000
00001000
00000000
00010000
00000000
00000100
00001000
00000000
00001000
00000000
00000010
00001000
00000000
00000000
00000000
,
00000001
00000000
00000010
00000000
00000100
00010000
00000000
00001000
00000000
00100000
00000000
00010000
01000000
00100000
00000000
00000000
,
10000000
00000000
00100000
01000000
00010000
00000000
00100000
00001000
00000000
00001000
00000000
00010000
00000100
00000000
00001000
00000000
,
00000010
00000000
00000000
00000100
00000000
00000001
00001000
00000000
00000100
00000000
00000000
00010000
00001000
00100000
00010000
00000000
,
10000000
00000000
01000000
00000000
00010000
00000000
01000000
00000000
10000000
00100000
00000000
00100000
01000000
00000000
00001000
00000000
,
00010000
00001000
00000000
00100000
00000000
01000000
00000000
00010000
00000000
00001000
00000000
00000010
00000100
00001000
00000000
00000000
,
00000001
00000000
00000100
00000000
00001000
00000000
00000100
00000000
00000010
00010000
00000000
00010000
00001000
00000000
00100000
00000000
,
00010000
00000000
00000000
00100000
01000000
00000000
00010000
00000000
01000000
00100000
00000000
10000000
00000000
00100000
00000000
00000000
,
10010000
00000000
00010000
00100000
00010000
00000000
01000000
00100000
00000000
00100000
00000000
00010000
00001000
00000000
00000100
00000000
,
00000010
00000000
00010000
00001000
00000000
00000010
00000000
00000001
00000000
00000010
00000000
00000100
00010000
00001000
00000000
00000000
,
00010000
00000000
00001000
01000000
00010000
00000000
01000000
00100000
00000000
00100000
00000000
10000000
00010000
00000000
00100000
00000000
,
01000000
00000000
00000000
10000000
00000000
00100000
01000000
00000000
00100000
00000000
00000000
00010000
00001000
00010000
00000100
00000000
,
00001000
00000000
00000010
00000000
00000001
00000000
00000010
00000000
00001000
00000001
00000000
00000001
00000010
00000000
00000001
00000000
,
00000100
00001000
00000000
00010000
00000000
00100000
00000000
10000000
00000000
00100000
00000000
01000000
00001000
00010000
00000000
00000000
,
00001000
00000000
00010000
00000000
00000010
00000000
00001000
00000000
00000100
00000010
00000000
00000001
00001000
00000000
00000010
00000000
,
00000100
00000000
00001000
00010000
00001000
00000000
00010000
00000000
00100000
00000000
10000000
00010000
10000000
00000000
01000000
00000000
,
10010000
00000000
00000000
00100000
00001000
00000000
00010000
00000000
00000010
00000000
00000000
00000100
00001000
00000000
00000100
00000000
,
00000001
00000000
00000010
00000000
00001000
00000010
00000000
00000100
00000000
00010000
00000000
00000000
00001000
00000000
00100000
00000000
,
00010000
01000000
00000000
00100000
00000000
00100000
10000000
00000000
00100000
00000000
00000000
01000000
00100000
00000000
00010000
00000000
,
00001000
00000000
00000000
00001000
00010000
00000000
00000100
00000000
00001000
00000000
00000100
00000000
00000010
00000000
00000100
00000000
,
00000001
00000000
00000100
00001000
00000000
00000001
00001000
00000000
00000010
00000000
00000000
00010000
00001000
00000000
00100000
00000000
,
00010000
01000000
10000000
01000000
00100000
01000000
00010000
01000000
,
00001000
00000000
00000000
00010000
00000000
00001000
00010000
00000000
00000100
00000000
00000000
00000100
00001000
00000000
00000010
00000000
,
00000100
00000010
00000001
00000010
00000100
00000010
00001000
00000010
,
00010000
00000000
00001000
00000000
00100000
00000000
00001000
00100000
00010000
00000000
00000000
01000000
00010000
00000000
10000000
00000000
,
00100000
00000000
10000000
00000000
01000000
00000000
00100000
00001000
00010000
00000000
00001000
00000000
00000010
00000000
00000100
00000000
,
00001000
00000000
00000000
00000001
00000000
00000001
00000100
00000000
00000010
00000000
00000000
00001000
00000010
00000000
00000100
00000000
,
00001000
00100000
01000000
00100000
00010000
00100000
10000000
00100000
,
00001000
00000000
00001000
00000000
00010000
00000000
00000010
00000000
00001000
00000000
00000000
00000010
00000100
00000000
00000001
00000000
,
00001000
00000001
00000100
00000001
00000010
00000001
00000100
00000010
,
00010000
00000000
00000000
00001000
00000000
00010000
00100000
00000000
01000000
00000000
00000000
00010000
10000000
00000000
01000000
00000000
,
10010000
00100000
01000000
10000000
01000000
00100000
00110000
00100000
,
00101000
00000000
00001000
00000000
00010000
00000100
00000000
00000100
00010000
00000000
00001000
00000000
00000000
00000000
00010000
00000000
,
00001000
00000000
00000100
00000000
00000010
00001000
00000000
00000001
00000000
00001000
00000000
00000100
00000000
00010000
00000000
00000000
,
00001000
00000000
01000000
00000000
00010000
00100000
00000000
00100000
00010000
00000000
10000000
00000000
00100000
00010000
00000000
00100000
,
00001000
00000000
00010000
00000000
00001000
00000100
00000000
00000220
00000000
00000000
00000330
00000000
00000100
00000000
00000000
00000000
,
00000001
00000000
00001000
00000000
00000000
00000100
00010000
00000000
00001000
00000000
00100000
00000000
00000000
00010000
00000000
00010000
,
01000000
00000000
00100000
00000000
10000000
01000000
00000000
00010000
00000000
01000000
00000000
00100000
00000000
00001000
00000000
00000000
,
00010000
00000000
00001000
00000000
00000000
00000010
00000000
00000010
00000001
00000000
00001000
00000000
00000000
00000010
00000000
00010000
,
00001000
00000000
00100000
00000000
00010000
01000000
00000000
00100000
00000000
10000000
00010000
00000000
00100000
00000000
01000000
00000000
,
10010000
00000000
00000000
00000000
;
