#TITLE:Irreplaceable;
#ARTIST:Somatone;
#BANNER:Irreplaceable.png;
#BACKGROUND:Irreplaceable-bg.png;
#LYRICSPATH:Irreplaceable.lrc;
#CDTITLE:./CDTITLES/DanceDanceRevolution UNIVERSE3.png;
#MUSIC:Irreplaceable.ogg;
#SAMPLESTART:46.363;
#SAMPLELENGTH:15;
#BPMS:0=88;

//---------------dance-single - ----------------
#NOTES:
     dance-single:
     :
     Beginner:
     1:
     :
0000
0000
0000
0000
,
0000
0000
0000
0000
,
0000
0000
0000
0000
,
0000
0000
0000
0000
,
0000
0000
0000
0000
,
0001
0000
0000
0000
,
0010
0000
0000
0000
,
0100
0000
0000
0000
,
1000
0000
0000
0000
,
0010
0000
0000
0000
,
0100
0000
0000
0000
,
0001
0000
0000
0000
,
1000
0000
0000
0000
,
0001
0000
0001
0000
,
0001
0000
0000
0000
,
1000
0000
1000
0000
,
1000
0000
0000
0000
,
0200
0000
0000
0300
,
0100
0000
0100
0000
,
0020
0000
0000
0030
,
0010
0000
0010
0000
,
0002
0000
0000
0003
,
0001
0000
0001
0000
,
2000
0000
0000
3000
,
1000
0000
1000
0000
,
0010
0000
0000
0000
,
0010
0000
0000
0000
,
0100
0000
0000
0000
,
0100
0000
0000
0000
,
0001
0000
0000
0000
,
1000
0000
0000
0000
,
0100
0000
0000
0000
,
0010
0000
0000
0000
,
0001
0000
1000
0000
,
1001
0000
0000
0000
;

//---------------dance-single - ----------------
#NOTES:
     dance-single:
     :
     Easy:
     2:
     :
0000
0000
0000
0000
,
0000
0000
0000
0000
,
0000
0000
0000
0000
,
0000
0000
0000
0000
,
0000
0000
0000
0000
,
1000
0000
0001
0000
,
1000
0000
0001
0000
,
0020
0000
0030
0000
,
0200
0000
0300
0000
,
1000
0000
0100
0000
,
0001
0000
0100
0000
,
2000
0000
3000
0000
,
0002
0000
0003
0000
,
0010
0000
0010
0000
,
0100
0000
0100
0000
,
1000
0000
0001
0000
,
1000
0000
0001
0000
,
0100
0100
0010
0000
,
1000
0001
1000
0000
,
0100
0000
0010
0000
,
0100
0000
0010
0000
,
0100
0100
0010
0000
,
0001
1000
0001
0000
,
0100
0000
0010
0000
,
0100
0000
0010
0000
,
1000
0000
1000
0000
,
1000
0100
0001
0000
,
0010
0000
0100
0000
,
0010
0000
0100
0000
,
0001
0000
0001
0000
,
0001
0100
1000
0000
,
0010
0000
0100
0000
,
0010
0000
0100
0000
,
0020
0000
0030
0000
,
1001
0000
0000
0000
;

//---------------dance-single - ----------------
#NOTES:
     dance-single:
     :
     Medium:
     4:
     :
0000
0000
0000
0000
,
0000
0000
0000
0000
,
0000
0000
0000
0000
,
0000
0000
0000
0000
,
0000
0000
0000
0000
,
0001
1000
0100
1000
,
0010
0000
0100
0000
0010
1000
0001
0000
,
0010
0100
0001
0100
,
0010
0000
1000
0000
0100
0010
0001
0000
,
1000
0001
0100
0001
,
0010
0000
0100
0000
1000
0010
0100
0000
,
0001
0010
0100
0010
,
0001
0000
0100
0000
0010
1000
0001
0000
,
0200
0000
0001
0000
0010
0000
0301
1000
,
0200
0000
1000
0000
0010
0000
1300
0001
,
0020
0000
0001
0000
0100
0000
0031
1000
,
0020
0000
0000
0000
1030
1000
0001
0001
,
0000
0010
0100
0010
0001
1000
0010
1000
,
0100
0010
0001
1000
0001
0000
0100
0000
,
0010
0000
1010
0000
1000
0001
1000
0000
,
0100
0000
0110
0000
0010
0001
0010
0000
,
0000
0001
1000
0010
1000
0100
0010
0001
,
0100
0001
1000
0001
0100
0000
0010
0000
,
1000
0000
1001
0000
0001
0100
0001
0000
,
0020
0032
2003
3200
,
0300
0010
0001
1000
0001
0010
0100
0010
,
0001
1000
0010
0100
0010
0000
1000
0000
,
0100
0000
0110
0000
0010
0001
0010
0000
,
0100
0000
1100
0000
1000
0001
1000
0000
,
0000
0001
0100
0010
1000
0001
0010
0100
,
1000
0010
0100
0001
1000
0000
0100
0000
,
0010
0000
0011
0000
0001
1000
0001
0000
,
0200
0302
2003
3020
,
0230
0000
0300
0000
0001
0010
0100
1000
,
0001
0000
0000
0000
;

//---------------dance-single - ----------------
#NOTES:
     dance-single:
     :
     Hard:
     7:
     :
0000
0000
0000
0000
,
0000
0000
0000
0000
,
0000
0000
0000
0000
,
0000
0000
0000
0000
,
0000
0000
0000
0000
0000
0020
0000
0000
,
0000
0000
0000
0000
0030
0000
0001
0001
1000
0000
0001
0001
1000
0000
0000
0000
,
1000
0010
0100
0000
0010
0000
0100
0010
1000
0000
0001
0001
1000
0000
0000
0000
,
0010
0000
1000
0100
0000
0010
0000
0000
0001
0000
1000
0000
0010
0000
0100
0000
,
0001
0010
0000
0100
0000
1000
0000
0001
1000
0000
0001
0000
0100
0000
0000
0000
,
0000
0010
0100
0000
0001
1000
0001
0000
0010
0000
0100
0000
1000
0000
0000
0010
,
0100
0010
1000
0000
0001
1000
0000
0010
0000
0100
0001
0000
1000
0000
0100
0000
,
0000
0000
0010
0100
0000
1000
0000
0010
0100
0000
0001
0000
1000
0000
0000
0100
,
1000
0100
0000
0010
0001
0000
0100
0010
0100
0000
0001
1000
0001
0000
0000
0000
,
0100
0000
0010
0000
1000
0000
0001
0010
0000
0100
0000
0000
1000
0010
1000
0000
,
0100
0000
0010
0000
0001
0000
0100
0010
0000
0000
0000
0000
1000
0001
1000
0000
,
0000
0000
0100
0010
0100
1000
0001
1000
0100
0000
0010
0001
0000
1000
0000
0002
,
0000
0000
0000
0003
0100
0001
0010
0100
,
0000
0000
1001
0000
1000
0000
0010
0000
0100
0010
0000
1000
0000
0000
1100
0000
,
0100
0000
0010
0000
0001
1000
0000
0001
0000
0000
0000
0000
0100
0010
0100
0010
,
0100
0000
0001
0010
0000
0000
0100
1000
0010
1000
0000
0000
0100
0010
0001
0000
,
1000
0000
0010
0100
0000
0000
0010
1000
0010
0100
0000
0000
0001
0000
1000
0000
,
0000
0000
0110
0000
0010
0000
1000
0000
0001
0010
0000
0001
0000
0000
1001
0000
,
1000
0000
0100
0000
1000
0001
0000
0100
0000
0000
0000
0000
0010
1000
0010
1000
,
0001
0000
0010
0100
0000
0000
1000
0001
1000
0010
0000
0000
0100
0000
0100
0000
,
0001
0001
1000
1000
0010
0010
1000
0100
,
0010
0000
1001
0000
0001
0000
0100
0000
0010
1000
0000
0001
0000
0000
1001
0000
,
1000
0000
0010
0000
0100
0010
0000
1000
0000
0000
0000
0000
0001
0100
0001
0100
,
0001
0000
0010
0100
0000
0000
1000
0010
1000
0001
0000
0000
0100
0010
1000
0000
,
0001
0000
0010
0100
0000
0000
0010
0001
1000
0100
0000
0000
1000
0010
1000
0000
,
0001
0000
0110
0000
0100
0000
1000
0000
0010
1000
0000
0001
0000
0000
0011
0000
,
0010
0000
0100
0000
0010
0001
0000
1000
0000
0000
0000
0000
0100
1000
0010
1000
,
0001
0000
0010
0100
0000
0000
0010
0001
1000
0010
0000
0000
0100
0000
0100
0000
,
0001
0000
0001
0000
1000
0000
1000
0000
0010
0000
0010
0000
1000
0000
0100
1000
,
0000
0001
0000
0000
0000
0000
0000
0100
0010
0000
1000
0000
0001
0000
0010
0000
,
0100
0000
0000
0000
;

//---------------dance-double - ----------------
#NOTES:
     dance-double:
     :
     Beginner:
     1:
     :
00000000
00000000
00000000
00000000
,
00000000
00000000
00000000
00000000
,
00000000
00000000
00000000
00000000
,
00000000
00000000
00000000
00000000
,
00000000
00000000
00000000
00000000
,
00000010
00000000
00000000
00000000
,
00000001
00000000
00000000
00000000
,
00000100
00000000
00000000
00000000
,
00000010
00000000
00000000
00000000
,
00010000
00000000
00000000
00000000
,
00001000
00000000
00000000
00000000
,
00100000
00000000
00000000
00000000
,
01000000
00000000
00000000
00000000
,
10000000
00000000
00010000
00000000
,
10000000
00000000
00000000
00000000
,
00100000
00000000
01000000
00000000
,
00100000
00000000
00000000
00000000
,
02000000
00000000
00000000
03000000
,
01000000
00000000
01000000
00000000
,
00002000
00000000
00000000
00003000
,
00001000
00000000
00001000
00000000
,
00020000
00000000
00000000
00030000
,
00010000
00000000
00010000
00000000
,
00000200
00000000
00000000
00000300
,
00000100
00000000
00000100
00000000
,
00000010
00000000
00000000
00000000
,
00000001
00000000
00000000
00000000
,
00001000
00000000
00000000
00000000
,
00000100
00000000
00000000
00000000
,
00010000
00000000
00000000
00000000
,
00001000
00000000
00000000
00000000
,
01000000
00000000
00000000
00000000
,
00010000
00000000
00000000
00000000
,
00100000
00000000
01000000
00000000
,
10010000
00000000
00000000
00000000
;

//---------------dance-double - ----------------
#NOTES:
     dance-double:
     :
     Easy:
     2:
     :
00000000
00000000
00000000
00000000
,
00000000
00000000
00000000
00000000
,
00000000
00000000
00000000
00000000
,
00000000
00000000
00000000
00000000
,
00000000
00000000
00000000
00000000
,
00000010
00000000
00000001
00000000
,
00001000
00000000
00000010
00000000
,
00020000
00000000
00030000
00000000
,
00002000
00000000
00003000
00000000
,
00100000
00000000
00010000
00000000
,
10000000
00000000
00100000
00000000
,
02000000
00000000
03000000
00000000
,
00200000
00000000
00300000
00000000
,
01000000
00000000
00001000
00000000
,
00010000
00000000
00001000
00000000
,
00100000
00000000
00001000
00000000
,
00010000
00000000
00000010
00000000
,
00000100
00000100
00000001
00000000
,
00000010
00000100
00000010
00000000
,
00001000
00000000
00010000
00000000
,
00100000
00000000
10000000
00000000
,
01000000
01000000
00100000
00000000
,
00001000
00010000
00001000
00000000
,
00000010
00000000
00000001
00000000
,
00000100
00000000
00001000
00000000
,
00010000
00000000
00010000
00000000
,
01000000
00100000
00010000
00000000
,
01000000
00000000
00100000
00000000
,
10000000
00000000
01000000
00000000
,
00010000
00000000
00010000
00000000
,
00001000
00000100
00000010
00000000
,
00001000
00000000
00000001
00000000
,
00000010
00000000
00000100
00000000
,
00020000
00000000
00030000
00000000
,
00011000
00000000
00000000
00000000
;

//---------------dance-double - ----------------
#NOTES:
     dance-double:
     :
     Medium:
     4:
     :
00000000
00000000
00000000
00000000
,
00000000
00000000
00000000
00000000
,
00000000
00000000
00000000
00000000
,
00000000
00000000
00000000
00000000
,
00000000
00000000
00000000
00000000
,
00000100
00000010
00000001
00000100
,
00000010
00000000
00001000
00000000
00000100
00010000
00000100
00000000
,
00010000
00001000
01000000
00100000
,
10000000
00000000
01000000
00000000
00100000
00001000
00100000
00000000
,
00010000
10000000
00100000
00010000
,
00001000
00000000
00010000
00000000
00000010
00000100
00000010
00000000
,
00000001
00000010
00000100
00001000
,
00000010
00000000
00010000
00000000
00001000
00100000
00001000
00000000
,
01000000
00000000
00100000
00000000
01000000
00000000
00100000
10000000
,
01000000
00000000
00100000
00000000
01000000
00000000
00100000
00001000
,
00010000
00000000
00001000
00000000
00010000
00000000
00001000
00010000
,
00000020
00000000
00000000
00000000
00001030
00001000
00000001
00000001
,
00000000
00000010
00000100
00000010
00000001
00000100
00000010
00001000
,
00000100
00001000
00000010
00010000
00001000
00000000
00100000
00000000
,
01000000
00000000
11000000
00000000
10000000
00100000
10000000
00000000
,
00010000
00000000
00110000
00000000
00100000
00001000
00100000
00000000
,
00000000
00010000
01000000
00010000
00100000
00001000
00100000
00010000
,
01000000
00001000
00010000
00000100
00001000
00000000
00000010
00000000
,
00000100
00000000
00000101
00000000
00000001
00001000
00000001
00000000
,
00000020
00000032
00000203
00002300
,
00003000
00010000
00001000
00100000
00010000
00100000
01000000
10000000
,
00100000
10000000
00010000
01000000
00100000
00000000
10000000
00000000
,
00010000
00000000
01010000
00000000
01000000
00001000
01000000
00000000
,
00010000
00000000
00110000
00000000
00100000
00001000
00100000
00000000
,
00000000
00010000
01000000
00001000
00010000
00001000
00100000
00010000
,
01000000
00100000
01000000
00001000
00010000
00000000
00000100
00000000
,
00000010
00000000
00000011
00000000
00000001
00001000
00000001
00000000
,
00000200
00000302
00000023
00002030
,
00023000
00000000
00030000
00000000
00000100
00000010
00000001
00001000
,
00000001
00000000
00000000
00000000
;

//---------------dance-double - ----------------
#NOTES:
     dance-double:
     :
     Hard:
     7:
     :
00000000
00000000
00000000
00000000
,
00000000
00000000
00000000
00000000
,
00000000
00000000
00000000
00000000
,
00000000
00000000
00000000
00000000
,
00000000
00000000
00000000
00000000
00000000
00002000
00000000
00000000
,
00000000
00000000
00000000
00000000
00003000
00000000
00000001
00000100
00001000
00000000
00010000
01000000
10000000
00000000
00000000
00000000
,
00100000
10000000
01000000
00000000
00100000
00000000
01000000
00100000
00001000
00000000
00010000
01000000
10000000
00000000
00000000
00000000
,
00100000
00000000
10000000
01000000
00000000
01000000
00000000
00000000
00100000
00000000
00001000
00000000
00100000
00000000
00001000
00000000
,
00010000
00000010
00000000
00000100
00000000
00000100
00000000
00000001
00001000
00000000
00000001
00000000
00000010
00000000
00000000
00000000
,
00000000
00000100
00010000
00000000
00000010
00001000
00000010
00000000
00010000
00000000
00001000
00000000
01000000
00000000
00000000
00100000
,
10000000
00100000
01000000
00000000
00010000
00100000
00000000
00001000
00000000
00010000
00001000
00000000
00000010
00000000
00000001
00000000
,
00000000
00000000
00000100
00000010
00000000
00010000
00000000
00000100
00000010
00000000
00000001
00000000
00001000
00000000
00000000
00000010
,
00010000
00000010
00000000
00001000
00000100
00000000
00010000
00001000
01000000
00000000
00100000
10000000
00010000
00000000
00000000
00000000
,
00100000
00000000
01000000
00000000
00100000
00000000
00001000
00000000
01000000
00000000
00100000
00000000
10000000
00010000
10000000
00000000
,
01000000
00000000
00010000
00000000
00001000
00000000
00000100
00000000
00000001
00000000
00000010
00000000
00000100
00010000
00000100
00000000
,
00000010
00001000
00000010
00000001
00001000
00000010
00010000
00001000
,
00100000
00010000
01000000
10000000
01000000
00100000
10000000
00010000
,
00000000
00000000
00100000
00000000
00001000
00000000
01000000
00000000
00100000
10000000
00000000
10000000
00000000
00000000
00100000
00000000
,
01000000
00000000
00100000
00000000
10000000
00010000
00000000
00010000
00000000
00000000
00000000
00000000
00100000
00001000
00100000
00001000
,
00100000
00000000
00010000
01000000
00000000
00000000
00100000
10000000
01000000
10000000
00000000
00000000
00100000
01000000
00001000
00000000
,
00010000
00000000
00001000
00010000
00000000
00000000
00000100
00000010
00000100
00001000
00000000
00000000
00000001
00000000
00001000
00000000
,
00000000
00000000
00000001
00000000
00000100
00000000
00000010
00000000
00001000
00000001
00000000
00000001
00000000
00000000
00000010
00000000
,
00000100
00000000
00010000
00000000
00001000
01000000
00000000
01000000
00000000
00000000
00000000
00000000
00100000
10000000
00100000
10000000
,
00100000
00000000
01000000
00010000
00000000
00000000
10000000
01000000
00100000
00001000
00000000
00000000
00010000
00000000
00010000
00000000
,
01000000
01000000
10000000
10000000
00100000
00100000
01000000
00001000
,
00010000
00000000
00000100
00000000
00000010
00000000
00000001
00000000
00000100
00000010
00000000
00000010
00000000
00000000
00001000
00000000
,
00000100
00000000
00010000
00000000
00001000
01000000
00000000
01000000
00000000
00000000
00000000
00000000
00010000
00100000
00001000
00100000
,
00010000
00000000
10000000
00100000
00000000
00000000
01000000
00100000
01000000
00001000
00000000
00000000
00100000
00001000
00010000
00000000
,
00000010
00000000
00001000
00000001
00000000
00000000
00000010
00000100
00000010
00000001
00000000
00000000
00001000
00000010
00001000
00000000
,
00000100
00000000
00010000
00000000
00001000
00000000
01000000
00000000
00100000
10000000
00000000
10000000
00000000
00000000
01000000
00000000
,
00010000
00000000
00001000
00000000
01000000
00100000
00000000
00100000
00000000
00000000
00000000
00000000
01000000
00001000
00100000
00001000
,
01000000
00000000
00001000
00010000
00000000
00000000
00000100
00000010
00000001
00000100
00000000
00000000
00000001
00000000
00000001
00000000
,
00000010
00000000
00000010
00000000
00001000
00000000
00001000
00000000
00010000
00000000
00010000
00000000
00100000
00000000
10000000
00010000
,
00000000
10000000
00000000
00000000
00000000
00000000
00000000
01000000
00100000
00000000
00010000
00000000
01000000
00000000
00001000
00000000
,
00010000
00000000
00000000
00000000
;
