
//----- song ID: insp -----
#TITLE:Inspiration;
#ARTIST:Togo Project feat. Mayumi;
#BANNER:Inspiration.png;
#BACKGROUND:Inspiration-bg.png;
#CDTITLE:./CDTitles/DDR UNIVERSE3.png;
#MUSIC:Inspiration.ogg;
#OFFSET:-1.845;
#SAMPLESTART:16.614;
#SAMPLELENGTH:15;
#DISPLAYBPM:130;
#BPMS:0=130,128=127.8,130=130;
#NOTES:
     dance-single:
     :
     Beginner:
     1:
     :
0000
0000
0000
0000
,
0000
0000
0000
0000
,
0000
0000
0000
0000
,
0000
0000
0000
0000
,
0001
0000
0001
0000
,
1000
0000
0000
0000
,
1000
0000
1000
0000
,
0001
0000
0000
0000
,
1001
0000
0001
0000
,
1000
0000
0000
0000
,
1000
0000
1000
0000
,
0010
0000
0000
0000
,
0010
0000
0010
0000
,
0100
0000
0000
0000
,
0100
0000
0100
0000
,
0010
0000
0000
0000
,
0010
0000
1000
0000
,
0001
0000
0100
0000
,
0010
0010
0010
0000
,
0100
0000
0010
0000
,
1000
0000
0100
0000
,
0010
0000
0001
0000
,
1000
1000
1000
0000
,
0001
0000
1000
0000
,
0001
0000
0000
0000
,
1000
0000
0000
0000
,
0100
0000
0000
0000
,
0010
0000
0000
0000
,
0110
0000
0000
0000
,
1001
0000
0000
0000
,
1001
0000
0000
0000
,
0110
0000
0000
0000
,
1001
0000
0000
0000
,
0000
0000
0010
0000
,
0001
0000
0010
0000
,
0000
0000
0100
0000
,
1000
0000
0100
0000
,
0000
0000
0010
0000
,
0001
0000
1000
0000
,
0000
0000
0010
0000
,
0100
0000
0010
0000
,
0000
0000
1000
1000
,
0001
0000
0001
0000
,
1000
0000
0010
0010
,
0100
0000
0100
0000
,
0010
0000
1000
1000
,
0100
0000
0100
0000
,
1000
0000
0001
0001
,
0010
0000
0010
0000
,
0001
0000
1001
0000
;
#NOTES:
     dance-single:
     :
     Easy:
     4:
     :
0000
0000
0000
0000
,
0000
0000
0000
0000
,
0000
0000
0000
0000
,
0000
0000
0000
0000
,
0001
0000
1000
0000
,
0001
0001
0010
0100
,
1000
0000
0001
0000
,
1000
1000
0010
0000
,
1001
0100
0010
1000
,
0001
0001
0100
0010
,
1000
0100
0010
0001
,
1000
1000
0010
0100
,
0001
0000
1000
0000
,
0001
0100
1000
0100
,
0010
0000
1000
0000
,
0100
0010
1001
0000
,
0110
0000
1001
0000
,
1001
0000
0110
0000
,
0001
0100
0010
0001
,
1000
0100
0010
1000
,
0001
1001
0100
0110
,
1000
1001
0010
0110
,
0100
0001
1000
0100
,
0010
0001
1000
0010
,
1000
0002
0000
1003
,
0001
2000
0000
3001
,
0010
0200
0000
0310
,
0100
0020
0000
0130
,
1000
2001
0000
3001
,
0001
1002
0000
1003
,
0220
0000
0000
0330
,
2002
0000
0000
3003
,
0110
0000
0000
0000
,
0000
0000
0001
0000
,
0100
0000
0001
0001
,
0010
0100
1000
0000
,
0100
0000
1000
1000
,
0110
0000
1001
0001
,
0100
1000
0100
0001
,
0010
0100
0001
1000
,
0100
0001
0100
1000
,
0010
0100
1001
0010
,
0100
0001
0010
0100
,
1000
0001
0001
1000
,
0100
0010
0001
0100
,
0010
0000
1001
1000
,
0010
0100
1000
0100
,
0001
0010
0100
0001
,
1000
0010
0001
1000
,
0010
0000
1001
0000
;
#NOTES:
     dance-single:
     :
     Medium:
     7:
     :
0000
0000
0000
0000
,
0000
0000
0000
0000
,
0000
0000
0000
0000
,
0000
0000
0000
0000
,
0010
0000
1000
0000
0100
0000
0010
0001
,
0000
1000
0010
0000
0100
0000
0001
0000
,
0010
0000
0001
0000
1000
0000
0010
0100
,
0000
0001
1000
0000
0100
0010
0000
0000
,
1001
0100
0010
0000
0001
1000
0010
0100
,
0000
0100
0001
0000
0100
1000
0100
0000
,
0011
0100
1000
0000
0010
1000
0001
0100
,
0000
0100
0010
0000
1000
0100
0010
0010
,
1001
0100
0010
0000
0001
1000
0100
0001
,
0000
1000
0010
0000
0100
0001
0100
0000
,
1100
0010
0100
0000
0001
0010
1000
0001
,
0000
1000
0100
0000
0022
0000
0033
1000
,
0100
0100
0020
0000
0001
0031
2000
0000
,
0010
3010
0200
0000
0001
0301
1000
0000
,
0100
0001
0100
1000
0010
0001
0010
2000
,
0000
0000
3002
0000
0000
0000
0103
0000
0000
0010
0000
0000
1000
0000
0001
0000
,
0010
0010
0200
0000
1000
1300
0002
0000
,
0100
0103
0020
0000
1000
1030
0001
0000
,
0010
0001
0100
0010
1000
0100
0010
0002
,
0000
0000
2003
0000
0000
0000
3010
0000
0000
0100
0000
0000
0001
0000
1000
0000
,
0100
0000
0000
0020
0000
0000
0000
0000
1000
0000
0000
0000
0031
0000
0100
0000
,
0010
0000
0000
2000
0000
0000
0000
0000
0001
0000
0000
0000
3100
0000
0010
0000
,
0001
0000
0000
0200
0000
0000
0000
0000
1000
0000
0000
0000
0310
0000
1000
0000
,
0001
0000
0000
0020
0000
0000
0000
0000
1000
0000
0000
0000
0031
0000
0100
0000
,
0010
0000
1000
0002
0000
0000
0000
0000
0100
0000
0000
0000
0013
0000
0100
0000
,
1000
0000
0010
0200
0000
0000
0000
0000
0001
0000
0000
0000
1300
0000
0100
0000
,
2001
0001
0001
3001
,
1002
1000
1000
1003
,
0110
0000
0000
0000
,
0000
0000
1001
0100
,
0010
0000
1000
0001
0000
0001
0100
0000
,
0010
0000
1000
0000
0000
0100
0000
0000
0001
0000
0000
0000
0100
0000
0000
0000
,
1000
0000
0001
1000
0000
1000
0010
0000
,
0200
0300
0011
0100
,
1010
0000
0100
0001
0000
1000
0100
0000
,
0010
0000
0001
0000
0000
1000
0000
0000
0010
0000
0000
0000
0100
0000
0000
0000
,
1001
0000
0100
0010
0000
1000
0001
0000
,
0110
0000
0000
0000
1001
0001
1000
0000
,
0010
0010
0100
0001
0001
1000
1000
0000
,
0100
0001
0100
1000
0010
0010
1001
0000
,
0100
0100
0010
1000
1000
0001
0001
0000
,
0010
1000
0100
0000
0011
0010
0001
0000
,
1000
1000
0001
0100
0100
0010
0010
0000
,
0001
0010
1000
0100
0001
0001
1100
0000
,
0010
0010
0100
0001
0001
1000
1000
0000
,
0100
0010
1001
0000
;
#NOTES:
     dance-single:
     :
     Hard:
     8:
     :
0000
0000
0000
0000
,
0000
0000
0000
0000
,
0000
0000
0000
0000
,
0000
0000
0000
0000
,
0002
0000
0103
0000
2000
0000
3100
0010
,
0000
0000
0001
0000
1000
0000
0000
0000
0010
0000
0100
0000
0000
0001
0000
1000
,
0002
0000
0013
0000
2000
0000
3010
0100
,
0000
0001
1000
0000
0100
0010
0000
0000
,
1001
0010
0100
0000
0001
1000
0100
0010
,
1000
0010
0001
1000
0100
0001
0100
1000
,
0011
1000
0100
0000
0010
1000
0100
0010
,
0001
0000
1000
0000
0010
0000
0100
0000
0001
1000
0001
0000
0010
0000
0100
0010
,
0100
0100
1001
0000
0110
0001
1000
0010
,
0000
0100
0001
1000
0100
0001
0100
1000
,
0010
0010
1100
0000
0011
0100
0100
0010
,
0000
0000
1001
0000
0110
0000
0000
0000
1000
0001
0000
0000
0000
0000
0010
0100
,
0010
0020
0100
0230
1000
2300
0001
3002
,
0100
0203
0010
0320
1000
2030
0001
3001
,
0010
0000
0001
0000
0100
0000
0001
0020
0000
0000
0130
0000
0000
0000
2000
0000
,
0000
0000
3001
0000
0000
0000
0100
0000
0000
0010
0000
0000
0001
0000
1000
0000
,
0001
0002
0100
0203
0010
0320
1000
2030
,
0100
3200
0010
0320
0001
0032
1000
1003
,
0100
0000
0001
0000
0100
0000
1000
0020
0000
0000
0031
0000
0000
0000
2000
0000
,
0000
0000
3100
0000
0000
0000
0010
0000
0000
0001
0000
0000
0100
0000
1000
0000
,
0100
0000
0000
0100
0001
0000
1000
0100
1000
0000
0001
0000
0010
0000
0001
1000
,
0001
0000
0000
0001
0100
0000
0010
1000
0010
0000
0100
0000
0001
0000
0100
0010
,
0100
0000
0000
1000
0001
0000
0010
0100
0010
0000
0001
0000
1000
0000
0001
0100
,
1000
0000
0000
0100
0001
0000
1000
0100
1000
0000
0001
0000
0010
0000
1000
0000
,
0010
0000
0100
1000
0000
0000
0000
0000
0001
0000
0000
0000
0001
0000
1000
0000
,
0010
0000
0100
0001
0000
0000
0000
0000
1000
0000
0000
0000
1000
0000
0110
0000
,
2002
0000
0000
3003
,
0010
0100
0000
0001
1000
0000
0100
0010
0000
0001
1000
0000
0010
0100
0010
0000
,
2002
0000
0000
0000
,
0000
3003
0220
0330
,
0002
0000
0013
2000
0000
3010
0001
0000
,
1000
0000
0100
0000
0000
0001
0000
0100
2000
0000
0000
0000
3001
0000
0000
0000
,
0020
0000
0031
2000
0000
3100
0010
0000
,
0001
0100
0010
0000
2001
0000
3100
0000
,
0021
0000
0130
2000
0000
3010
0001
0000
,
0010
0000
1000
0000
0000
0100
0000
1000
0020
0000
0000
0000
0031
0000
0000
0000
,
2100
0000
3001
0200
0000
0310
0100
0000
,
1001
0000
0000
0000
0110
0001
1000
0100
,
0011
1000
0010
0101
0000
1100
0000
0001
,
0010
1000
0010
0001
1100
0001
0010
0100
,
1001
0100
0001
1010
0000
1100
0000
0001
,
0100
1000
0100
0001
1010
0001
0100
0010
,
1001
0010
0001
1100
0000
0011
0000
1000
,
0100
0010
0100
1000
0011
1000
0100
0001
,
1100
0001
0100
1010
0000
0101
0000
0000
,
1000
0001
0010
0000
,
0100
0000
0000
1000
0000
0001
0000
0000
;
#NOTES:
     dance-double:
     :
     Beginner:
     1:
     :
00000000
00000000
00000000
00000000
,
00000000
00000000
00000000
00000000
,
00000000
00000000
00000000
00000000
,
00000000
00000000
00000000
00000000
,
00000001
00000000
00000001
00000000
,
00001000
00000000
00000000
00000000
,
00000010
00000000
00000010
00000000
,
00010000
00000000
00000000
00000000
,
00011000
00000000
00001000
00000000
,
01000000
00000000
00000000
00000000
,
00010000
00000000
00010000
00000000
,
00100000
00000000
00000000
00000000
,
01000000
00000000
01000000
00000000
,
10000000
00000000
00000000
00000000
,
00100000
00000000
01000000
00000000
,
00100000
00000000
00000000
00000000
,
00100000
00000000
10000000
00000000
,
00010000
00000000
01000000
00000000
,
00100000
00100000
00100000
00000000
,
00010000
00000000
00001000
00000000
,
00000010
00000000
00000001
00000000
,
00001000
00000000
00000100
00000000
,
00001000
00001000
00001000
00000000
,
00000001
00000000
00001000
00000000
,
00000100
00000000
00000000
00000000
,
00010000
00000000
00000000
00000000
,
00001000
00000000
00000000
00000000
,
00100000
00000000
00000000
00000000
,
10010000
00000000
00000000
00000000
,
01100000
00000000
00000000
00000000
,
10010000
00000000
00000000
00000000
,
01100000
00000000
00000000
00000000
,
10010000
00000000
00000000
00000000
,
00000000
00000000
00100000
00000000
,
00010000
00000000
10000000
00000000
,
00000000
00000000
01000000
00000000
,
00010000
00000000
00001000
00000000
,
00000000
00000000
00000100
00000000
,
00000010
00000000
00001000
00000000
,
00000000
00000000
00000001
00000000
,
00000010
00000000
00001000
00000000
,
00000000
00000000
00010000
00010000
,
00001000
00000000
00010000
00000000
,
00001000
00000000
00100000
00100000
,
01000000
00000000
00100000
00000000
,
01000000
00000000
00010000
00010000
,
00001000
00000000
00010000
00000000
,
00001000
00000000
00000100
00000100
,
00000010
00000000
00000100
00000000
,
00001000
00000000
00011000
00000000
;
#NOTES:
     dance-double:
     :
     Easy:
     4:
     :
00000000
00000000
00000000
00000000
,
00000000
00000000
00000000
00000000
,
00000000
00000000
00000000
00000000
,
00000000
00000000
00000000
00000000
,
00000001
00000000
00001000
00000000
,
00000100
00000100
00010000
00001000
,
00100000
00000000
01000000
00000000
,
10000000
10000000
00010000
00000000
,
10010000
00000000
00100000
00000000
,
10000000
10000000
01000000
00100000
,
00001000
00000000
00010000
00000000
,
00000100
00000100
00000010
00000001
,
00001000
00000100
00000001
00000100
,
00010000
00001000
00100000
01000000
,
10000000
00010000
00100000
00001000
,
00010000
00000100
00000010
00000000
,
00001001
00000000
00000110
00000000
,
00011000
00000000
01100000
00000000
,
00100000
10000000
01000000
00010000
,
01000000
00100000
00010000
10000000
,
10010000
00000000
01100000
00000000
,
00011000
00000000
00000110
00000000
,
00000001
00000010
00001000
00000010
,
00000100
00010000
00001000
00100000
,
00010000
20000000
00000000
30010000
,
00100000
00002000
00000000
00013000
,
00000100
00020000
00000000
00031000
,
00000010
00000200
00000000
00000310
,
00000001
00000020
00000000
00001030
,
00010000
02000000
00000000
13000000
,
02200000
00000000
00000000
03300000
,
20020000
00000000
00000000
30030000
,
01100000
00000000
00000000
00000000
,
00000000
00000000
00010000
00000000
,
01000000
00000000
00001000
00001000
,
00010000
00000100
00000010
00000000
,
00000001
00000000
00001000
00001000
,
00000110
00000000
00001001
00000100
,
00001000
00010000
01000000
00010000
,
00001000
00000010
00001000
00010000
,
00100000
00010000
00001000
01000000
,
00100000
00000000
10010000
00100000
,
00001000
00010000
00000100
00000010
,
00001000
00010000
00010000
00001000
,
00000100
00000010
00010000
00001000
,
01000000
00000000
10010000
01000000
,
00100000
00010000
00001000
01000000
,
00100000
00010000
00001000
00000010
,
00000100
00010000
00001000
00000010
,
00000100
00000000
00001001
00000000
;
#NOTES:
     dance-double:
     :
     Medium:
     7:
     :
00000000
00000000
00000000
00000000
,
00000000
00000000
00000000
00000000
,
00000000
00000000
00000000
00000000
,
00000000
00000000
00000000
00000000
,
00100000
00000000
10000000
00000000
01000000
00000000
00010000
00001000
,
00000000
00010000
00000100
00000000
00001000
00000000
00000001
00000000
,
00000010
00000000
00000001
00000000
00000100
00000000
00001000
00010000
,
00000000
00001000
00100000
00000000
01000000
00100000
00000000
00000000
,
10010000
01000000
00100000
00000000
00001000
00010000
00100000
01000000
,
00000000
01000000
00001000
00000000
00010000
00000100
00010000
00000000
,
00001010
00000100
00000001
00000000
00001000
00000010
00000100
00000001
,
00000000
00000001
00000010
00000000
00000100
00001000
00000010
00000010
,
00001001
00000100
00000010
00000000
00001000
00000001
00000100
00001000
,
00000000
00010000
00000010
00000000
00010000
00000100
00010000
00000000
,
00011000
00010000
00001000
00000000
00010000
00100000
10000000
00010000
,
00000000
10000000
01000000
00000000
00220000
00000000
00330000
10000000
,
01000000
01000000
00200000
00000000
00001000
00301000
00020000
00000000
,
00000100
00030100
00002000
00000000
00000001
00003001
00000010
00000000
,
00000100
00010000
00001000
00010000
00000010
00000100
00000010
00002000
,
00000000
00000000
00003002
00000000
00000000
00000000
00000103
00000000
00000000
00000010
00000000
00000000
00001000
00000000
00000001
00000000
,
00000010
00000010
00000200
00000000
00010000
00010300
00002000
00000000
,
00100000
00103000
00020000
00000000
10000000
10030000
01000000
00000000
,
00100000
00010000
01000000
00001000
00010000
01000000
00100000
00020000
,
00000000
00000000
20030000
00000000
00000000
00000000
30100000
00000000
00000000
01000000
00000000
00000000
00010000
00000000
10000000
00000000
,
01000000
00000000
00000000
00200000
00000000
00000000
00000000
00000000
00010000
00000000
00000000
00000000
00301000
00000000
00010000
00000000
,
00000100
00000000
00000000
00002000
00000000
00000000
00000000
00000000
00000100
00000000
00000000
00000000
00003001
00000000
00000100
00000000
,
00000010
00000000
00000000
00020000
00000000
00000000
00000000
00000000
00001000
00000000
00000000
00000000
00030100
00000000
00001000
00000000
,
00000001
00000000
00000000
00000200
00000000
00000000
00000000
00000000
00001000
00000000
00000000
00000000
00000301
00000000
00000010
00000000
,
00000100
00000000
00001000
00000002
00000000
00000000
00000000
00000000
00000010
00000000
00000000
00000000
00000103
00000000
00001000
00000000
,
00010000
00000000
00100000
02000000
00000000
00000000
00000000
00000000
00010000
00000000
00000000
00000000
13000000
00000000
01000000
00000000
,
10020000
10000000
10000000
10030000
,
20010000
00010000
00010000
30010000
,
01100000
00000000
00000000
00000000
,
00000000
00000000
10010000
01000000
,
00100000
00000000
00010000
00001000
00000000
00001000
00000100
00000000
,
00000010
00000000
00001000
00000000
00000000
00000100
00000000
00000000
00000001
00000000
00000000
00000000
00000100
00000000
00000000
00000000
,
00001000
00000000
00000010
00010000
00000000
00010000
00001000
00000000
,
00022000
00033000
00110000
01000000
,
10100000
00000000
01000000
00010000
00000000
10000000
01000000
00000000
,
00010000
00000000
00001000
00000000
00000000
00100000
00000000
00000000
00001000
00000000
00000000
00000000
00010000
00000000
00000000
00000000
,
00011000
00000000
00000100
00000010
00000000
00000001
00001000
00000000
,
00000110
00000000
00000000
00000000
00001001
00001000
00000001
00000000
,
00000100
00000100
00000010
00001000
00001000
00000001
00000001
00000000
,
00000100
00001000
00010000
00100000
01000000
01000000
10010000
00000000
,
00100000
00100000
01000000
00010000
00010000
10000000
10000000
00000000
,
00100000
10000000
01000000
00000000
00110000
00100000
00010000
00000000
,
10000000
10000000
00010000
01000000
01000000
00100000
00100000
00000000
,
00010000
00001000
00000010
00000001
00000100
00000100
00001010
00000000
,
00000100
00000100
00000010
00000001
00000001
00001000
00001000
00000000
,
00000100
00010000
00011000
00000000
;
#NOTES:
     dance-double:
     :
     Hard:
     8:
     :
00000000
00000000
00000000
00000000
,
00000000
00000000
00000000
00000000
,
00000000
00000000
00000000
00000000
,
00000000
00000000
00000000
00000000
,
00020000
00000000
01030000
00000000
20000000
00000000
31000000
00100000
,
00000000
00000000
00001000
00000000
00010000
00000000
00000000
00000000
00000010
00000000
00000100
00000000
00000000
00000001
00000000
00001000
,
00000002
00000000
00000013
00000000
00002000
00000000
00003010
00000100
,
00000000
00001000
00010000
00000000
01000000
00100000
00000000
00000000
,
10010000
00100000
01000000
00000000
00010000
10000000
01000000
00100000
,
00001000
00010000
00000100
00000010
00000001
00000100
00000001
00000010
,
00001100
00010000
00001000
00000000
00110000
10000000
01000000
00100000
,
00010000
00000000
10000000
00000000
00100000
00000000
01000000
00000000
00010000
10000000
00010000
00000000
00100000
00000000
01000000
00100000
,
01000000
01000000
10010000
00000000
01100000
00010000
10000000
00100000
,
00000000
01000000
00010000
00100000
00001000
00000100
00000001
00000100
,
00000010
00000010
00000101
00000000
00001010
00000100
00000100
00000010
,
00000000
00000000
00001001
00000000
00000110
00000000
00000000
00000000
00000001
00001000
00000000
00000000
00000000
00000000
00000010
00000100
,
00000010
00000020
00010000
00020030
00001000
00032000
01000000
02003000
,
00100000
03200000
00010000
00320000
00001000
00032000
00000100
00003100
,
00000010
00000000
00001000
00000000
00000100
00000000
00010000
00002000
00000000
00000000
00003010
00000000
00000000
00000000
00000002
00000000
,
00000000
00000000
00001003
00000000
00000000
00000000
00000100
00000000
00000000
00010000
00000000
00000000
00001000
00000000
00100000
00000000
,
00010000
00020000
01000000
02030000
00100000
03200000
00010000
00320000
,
00001000
00032000
00000010
00003020
00000100
00000230
00001000
00001300
,
00000100
00000000
00000001
00000000
00000100
00000000
00001000
00000020
00000000
00000000
00010030
00000000
00000000
00000000
00002000
00000000
,
00000000
00000000
01003000
00000000
00000000
00000000
00100000
00000000
00000000
10000000
00000000
00000000
01000000
00000000
00010000
00000000
,
00001000
00000000
00000000
01000000
00001000
00000000
00010000
00001000
00010000
00000000
00000100
00000000
00001000
00000000
00000001
00001000
,
00000001
00000000
00000000
00000010
00000001
00000000
00001000
00000100
00001000
00000000
00000010
00000000
00000100
00000000
00000001
00000010
,
00000001
00000000
00000000
00001000
00000001
00000000
00001000
00000010
00001000
00000000
00000100
00000000
00010000
00000000
00001000
00010000
,
00001000
00000000
00000000
00010000
00001000
00000000
01000000
00010000
01000000
00000000
00001000
00000000
00010000
00000000
00000010
00000000
,
00001000
00000000
00000100
00010000
00000000
00000000
00000000
00000000
00001000
00000000
00000000
00000000
00001000
00000000
00100000
00000000
,
00010000
00000000
01000000
00001000
00000000
00000000
00000000
00000000
00010000
00000000
00000000
00000000
00010000
00000000
00000000
00000000
,
00010010
00010100
00101000
01001000
,
01000000
00001000
00000000
00100000
00001000
00000000
00010000
00000100
00000000
00010000
00000010
00000000
00001000
00000001
00001000
00000000
,
00002002
00000000
00000000
00000000
,
00000000
00003003
00000220
00000330
,
00000002
00000000
00000013
00002000
00000000
00003010
00010000
00000000
,
00001000
00000000
01000000
00000000
00000000
00010000
00000000
10000000
00200000
00000000
00000000
00000000
00310000
00000000
00000000
00000000
,
00000020
00000000
00001030
00000002
00000000
00000103
00000010
00000000
,
00010000
00001000
00100000
00000000
20010000
00000000
31000000
00000000
,
00210000
00000000
00301000
00020000
00000000
00030100
00001000
00000000
,
00000010
00000000
00001000
00000000
00000000
00000001
00000000
00001000
00000200
00000000
00000000
00000000
00010300
00000000
00000000
00000000
,
00102000
00000000
01003000
00200000
00000000
10300000
00010000
00000000
,
10010000
00000000
00000000
00000000
01100000
00010000
10000000
01000000
,
00010000
00001000
00000010
00000101
00000000
00001100
00000000
00000001
,
00000010
00001000
00000010
00000001
00001100
00000001
00000010
00000100
,
00010000
00001000
01000000
00110000
00000000
10100000
00000000
00010000
,
01000000
10000000
01000000
00010000
10100000
00010000
01000000
00001000
,
00010000
00000010
00001000
00000101
00000000
00001010
00000000
00000001
,
00000100
00001000
00000100
00000001
00001010
00000001
00000100
00001000
,
00010000
00100000
10000000
01010000
00000000
10100000
00000000
00000000
,
01000000
00001000
00010000
00000000
,
00000010
00000000
00000000
00010000
00000000
00001000
00000000
00000000
;
