
//----- song ID: heyb -----
#TITLE:Hey, What's Your Name;
#ARTIST:Big Idea;
#BANNER:Hey, What's Your Name.png;
#BACKGROUND:Hey, What's Your Name-bg.png;
#CDTITLE:./CDTitles/DDR UNIVERSE3.png;
#MUSIC:Hey, What's Your Name.ogg;
#OFFSET:-1.387;
#SAMPLESTART:35.262;
#SAMPLELENGTH:15;
#BPMS:0=170;
#NOTES:
     dance-single:
     :
     Beginner:
     1:
     :
0000
0000
0000
0000
,
0000
0000
0000
0000
,
0000
0000
0000
0000
,
0000
0000
0000
0000
,
0001
0001
0000
0000
,
0100
0000
0000
0000
,
1001
0000
0000
0000
,
0010
0000
0000
0000
,
0100
0000
0000
0000
,
0001
0000
0000
0000
,
1000
0000
0000
0000
,
0010
0000
0000
0000
,
1000
0000
0000
0000
,
0001
0000
0000
0000
,
0010
0000
0100
0000
,
1000
1000
0001
0001
,
1000
0000
0000
0000
,
0001
0000
0000
0000
,
0100
0000
0000
0000
,
0010
0000
0000
0000
,
0100
0000
0000
0000
,
0001
0000
0000
0000
,
1000
0000
0001
0000
,
0010
0010
0100
0100
,
0010
0000
0000
0000
,
0000
0001
0001
0001
,
0001
0000
0000
0000
,
0000
0100
0100
0100
,
0100
0000
0000
0000
,
0000
1000
1000
1000
,
1000
0000
0000
0000
,
0000
0010
0010
0010
,
0010
0000
0000
0000
,
0100
0000
0000
0000
,
0002
0000
0000
0003
,
0000
0000
0000
0000
,
2000
0000
0000
3000
,
0000
0000
0000
0000
,
0001
0000
0001
0000
,
1000
0000
1000
0000
,
0001
0000
0100
0000
,
1000
0000
0100
0000
,
0001
0000
0010
0000
,
1000
0000
0010
0000
,
0001
0000
0100
0000
,
1000
0000
0010
0000
,
0001
0000
0100
0000
,
1000
0000
0010
0000
,
0001
0001
0000
0000
,
0010
0000
0000
0000
,
0100
0100
0000
0000
,
0010
0000
0000
0000
,
1000
1000
0000
0000
,
0010
0000
0000
0000
,
0001
0000
1000
0000
,
0001
0001
1000
1000
,
0001
0000
0000
0000
,
0000
0010
0010
0010
,
0010
0000
0000
0000
,
0000
0100
0100
0100
,
0100
0000
0000
0000
,
0000
0001
0001
0001
,
0001
0000
0000
0000
,
0000
1000
1000
1000
,
1001
0000
0000
0000
;
#NOTES:
     dance-single:
     :
     Easy:
     4:
     :
0000
0000
0000
0000
,
0000
0000
0000
0000
,
0000
0000
0000
0000
,
0000
0000
0000
0000
,
0100
0100
0010
0000
,
0001
0000
1000
0000
,
1001
0000
0100
0000
,
0001
0100
1000
0000
,
1001
0000
0100
0000
,
1000
0001
0100
0000
,
0010
0000
0100
0000
,
0001
1000
0010
0000
,
0001
0010
1000
0000
,
0100
1000
0010
0000
,
1001
0000
0110
0000
,
0001
1000
0001
1000
,
1001
0000
0010
0000
,
1000
0100
0010
0000
,
0001
0000
1000
0000
,
0001
0010
0100
0000
,
1000
0100
0001
0000
,
0100
1000
0010
0000
,
1001
0000
0110
0000
,
1000
0001
1000
0001
,
1001
0100
0010
0100
,
0000
0001
0010
1000
,
0110
0001
1000
0001
,
0000
0100
0001
0010
,
1001
1000
0001
0010
,
0000
1000
0100
0001
,
0110
1000
0100
0001
,
0010
1000
0100
0001
,
0110
1000
0001
1000
,
0110
1001
0100
0010
,
0002
0000
0000
0003
,
2000
0000
0000
3000
,
0200
0000
0000
0300
,
0020
0000
0000
0030
,
0110
0001
0001
1000
,
1000
0010
0100
1001
,
1000
0100
0000
1000
,
0001
0010
0000
0001
,
1000
0010
0000
1000
,
0001
0100
0000
0001
,
0100
0010
0000
1000
,
0100
0010
0000
0001
,
1000
0100
0000
0010
,
0001
0100
0000
0001
,
1000
1000
0100
0000
,
0010
0000
0100
0000
,
0010
0010
0001
0000
,
1000
0000
0001
0000
,
0100
0100
0010
0000
,
1000
0000
0001
0000
,
0110
0000
1001
0000
,
0010
1000
0100
0001
,
0110
1000
0001
1000
,
0000
0010
0001
0100
,
1001
0010
0100
0001
,
0000
1000
0010
0001
,
0110
0001
1000
0010
,
0000
0100
1000
0010
,
1001
0100
1000
0010
,
0001
0100
1000
0010
,
1001
0000
0000
0000
;
#NOTES:
     dance-single:
     :
     Medium:
     6:
     :
0000
0000
0000
0000
,
0000
0000
0000
0000
,
0000
0000
0000
0000
,
0000
0000
0000
0000
,
0101
0000
1010
0000
1000
0000
0001
0010
,
0100
1000
0010
0100
,
1001
0000
0110
0000
,
0001
1000
1001
0110
,
1001
0010
0100
0001
,
1000
0100
0001
0000
0100
0000
1000
0000
,
0001
0100
0010
1000
,
0001
0010
0100
0000
1000
0000
0001
0000
,
0100
0010
1000
0001
,
0010
0001
0100
0000
1000
0000
0100
0000
,
0002
0003
2000
3000
,
1001
0110
0110
1001
,
0110
1000
0100
0010
,
1000
0010
0001
0000
1000
0000
0010
0000
,
0100
0001
1000
0010
,
0001
0010
0100
0000
0001
0000
0010
0000
,
0100
1000
0010
0100
,
1000
0100
0001
0000
1000
0000
0100
0000
,
0022
0033
2200
3300
,
0011
1100
0011
1100
,
0002
0103
2000
3010
,
0002
1000
1000
1003
,
0102
1003
2010
3001
,
0200
0010
0010
0310
,
1002
0103
0120
1030
,
0101
1010
1001
0110
,
0021
0130
2100
3001
,
0110
1001
1001
0110
,
1001
0000
0010
0100
0010
0000
1001
0000
,
0110
0000
0001
1000
0001
0000
0110
0000
,
0002
0000
0000
0020
0000
0000
0033
0000
,
2000
0000
0000
0200
0000
0000
3300
0000
,
0020
0000
0000
2000
0000
0000
3030
0000
,
0200
0000
0000
0002
0000
0000
0303
0000
,
1001
0000
0100
0010
0100
0000
1000
0001
,
1000
0100
0010
1001
,
0001
0000
1000
1000
0000
0000
0001
0000
,
0010
0000
0100
0100
0000
0000
0010
0000
,
0001
0000
0100
0100
0000
0000
0001
0000
,
1000
0000
0010
0010
0000
0000
1000
0000
,
0001
0000
1000
0100
0000
0000
1000
0000
,
0010
0000
0100
0001
0000
0000
0100
0000
,
0001
0000
0010
0100
0000
0000
0010
0000
,
1000
0000
0010
0100
0000
0000
0010
0000
,
0001
0100
1010
0101
,
1000
0000
1100
0000
0000
0011
0000
0000
,
1000
0100
0011
1100
,
0001
0000
0101
0000
0000
1010
0000
0000
,
0001
1000
0110
1001
,
0001
0110
1000
0110
,
2002
3003
0220
0330
,
1010
1001
0101
0110
,
2000
3100
0002
0013
,
2000
0010
0001
3100
,
0012
1003
2100
3001
,
0020
1000
0100
0031
,
1020
0130
0201
0310
,
1001
1010
1001
0101
,
0210
0301
1002
0013
,
1000
0100
0001
0010
,
1001
0000
0000
0000
;
#NOTES:
     dance-single:
     :
     Hard:
     7:
     :
0000
0000
0000
0000
,
0000
0000
0000
0000
,
0000
0000
0000
0000
,
0000
0000
0000
0000
,
0110
0000
1001
0000
0010
0000
1000
0100
,
0001
0100
1000
0000
0010
0000
0001
0000
,
1010
0100
0001
1000
,
0100
0010
0001
0000
1000
0000
1001
0000
,
0110
1000
0001
0100
,
0010
1000
0001
1000
0100
0000
0001
0000
,
0100
1000
0001
0010
,
1000
0010
0100
0010
0001
0000
1000
0000
,
0100
0011
1100
0010
,
0001
0100
0010
1000
,
0202
0303
2020
3030
,
1001
0000
0110
0000
0001
1000
0001
1000
,
0001
0010
1000
0010
,
0001
0100
1000
0200
0000
0000
0310
0000
,
1000
0100
0001
0100
,
1000
0010
0001
0020
0000
0000
0130
0000
,
0001
0010
0100
1000
,
0010
0100
0010
0200
0000
0000
0310
0000
,
2002
3003
0220
0330
,
1010
0000
0101
0000
1000
0010
0100
0001
,
2000
0000
0000
3200
0000
0000
0310
0000
,
0001
1100
1001
0101
,
0020
0000
0000
2030
0000
0000
3001
0000
,
0100
1010
1001
0011
,
0200
0000
0000
2300
0000
0000
3001
0000
,
0010
0001
1000
0010
0100
0001
1000
0100
,
0020
0000
0000
0230
0000
0000
1300
0000
,
0001
1000
0100
0010
0001
1000
0010
0100
,
0001
0000
0001
1000
0001
1000
0001
0000
,
0110
0000
1000
0001
0010
0100
1000
0000
,
1000
0000
0000
0100
0000
0000
0011
0000
,
1100
0000
0000
0011
0000
0000
1000
0000
,
0001
0000
0000
0100
0000
0000
1010
0000
,
0101
0000
0000
1010
0000
0000
0001
0000
,
1000
0000
1000
0010
1000
0001
1000
0100
,
1000
0011
1001
1100
,
0010
0000
0001
0002
0000
0000
0103
0000
,
0010
0000
1000
2000
0000
0000
3100
0000
,
0010
0000
0002
1000
0000
0000
0103
0000
,
0010
0000
2000
0001
0000
0000
3100
0000
,
0010
0000
0001
0200
0000
0000
1300
0000
,
0010
0000
1000
0200
0000
0000
0301
0000
,
0020
0000
0001
0001
0000
0000
1030
0000
,
0200
0000
1000
1000
0000
0000
0301
0000
,
0010
1000
0101
0011
,
1000
0000
0110
0000
0000
1001
0000
0000
,
0010
0001
1100
1010
,
0100
0000
1001
0000
0000
0110
0000
0000
,
0001
1000
0110
1001
,
0100
1001
0010
1001
,
0220
0330
2002
3003
,
0011
1100
1010
0101
,
2000
0000
0000
3020
0000
0000
0130
0000
,
0001
1010
0110
0101
,
0020
0000
0000
0032
0000
0000
1003
0000
,
0100
0011
0110
1100
,
0020
0000
0000
0032
0000
0000
1003
0000
,
0100
0001
1000
0100
0010
0001
1000
0010
,
0200
0000
0000
0320
0000
0000
1030
0000
,
0001
0010
0100
1000
0001
0000
0110
0000
,
1001
0000
0000
0000
;
#NOTES:
     dance-double:
     :
     Beginner:
     1:
     :
00000000
00000000
00000000
00000000
,
00000000
00000000
00000000
00000000
,
00000000
00000000
00000000
00000000
,
00000000
00000000
00000000
00000000
,
00001000
00001000
00000000
00000000
,
01000000
00000000
00000000
00000000
,
10010000
00000000
00000000
00000000
,
00100000
00000000
00000000
00000000
,
10000000
00000000
00000000
00000000
,
01000000
00000000
00000000
00000000
,
00010000
00000000
00000000
00000000
,
00001000
00000000
00000000
00000000
,
00010000
00000000
00000000
00000000
,
00000100
00000000
00000000
00000000
,
00000010
00000000
00000100
00000000
,
00001000
00001000
00000001
00000001
,
00001000
00000000
00000000
00000000
,
00000010
00000000
00000000
00000000
,
00010000
00000000
00000000
00000000
,
00001000
00000000
00000000
00000000
,
01000000
00000000
00000000
00000000
,
00010000
00000000
00000000
00000000
,
10000000
00000000
00010000
00000000
,
00100000
00100000
01000000
01000000
,
00100000
00000000
00000000
00000000
,
00000000
10000000
10000000
10000000
,
10000000
00000000
00000000
00000000
,
00000000
00010000
00010000
00010000
,
00010000
00000000
00000000
00000000
,
00000000
00001000
00001000
00001000
,
00001000
00000000
00000000
00000000
,
00000000
00000001
00000001
00000001
,
00000001
00000000
00000000
00000000
,
00000010
00000000
00000000
00000000
,
00002000
00000000
00000000
00003000
,
00000000
00000000
00000000
00000000
,
00000200
00000000
00000000
00000300
,
00000000
00000000
00000000
00000000
,
00010000
00000000
00010000
00000000
,
00001000
00000000
00001000
00000000
,
00010000
00000000
01000000
00000000
,
10000000
00000000
01000000
00000000
,
00010000
00000000
00000010
00000000
,
00001000
00000000
00000100
00000000
,
00010000
00000000
00001000
00000000
,
00100000
00000000
00010000
00000000
,
01000000
00000000
00001000
00000000
,
00010000
00000000
00001000
00000000
,
00100000
00100000
00000000
00000000
,
00001000
00000000
00000000
00000000
,
00010000
00010000
00000000
00000000
,
00000100
00000000
00000000
00000000
,
00001000
00001000
00000000
00000000
,
00000001
00000000
00000000
00000000
,
00001000
00000000
00000001
00000000
,
00001000
00001000
00000001
00000001
,
00001000
00000000
00000000
00000000
,
00000000
00010000
00010000
00010000
,
00010000
00000000
00000000
00000000
,
00000000
00100000
00100000
00100000
,
00100000
00000000
00000000
00000000
,
00000000
01000000
01000000
01000000
,
01000000
00000000
00000000
00000000
,
00000000
10000000
10000000
10000000
,
10010000
00000000
00000000
00000000
;
#NOTES:
     dance-double:
     :
     Easy:
     4:
     :
00000000
00000000
00000000
00000000
,
00000000
00000000
00000000
00000000
,
00000000
00000000
00000000
00000000
,
00000000
00000000
00000000
00000000
,
00001000
00001000
00000001
00000000
,
00001000
00000000
00000001
00000000
,
00001001
00000000
00000100
00000000
,
00000001
00000100
00001000
00000000
,
00011000
00000000
01000000
00000000
,
00010000
10000000
01000000
00000000
,
00100000
00000000
01000000
00000000
,
10000000
00010000
00100000
00000000
,
01000000
00010000
00001000
00000000
,
00000100
00000001
00000010
00000000
,
00001001
00000000
00000110
00000000
,
00000001
00001000
00000001
00001000
,
00001001
00000000
00000010
00000000
,
00000001
00000100
00000010
00000000
,
00010000
00000000
00001000
00000000
,
00010000
00100000
01000000
00000000
,
10000000
01000000
00010000
00000000
,
00100000
00010000
01000000
00000000
,
10010000
00000000
01100000
00000000
,
10000000
00010000
10000000
00010000
,
10010000
01000000
00010000
00001000
,
00000000
00000010
00001000
00010000
,
00011000
00001000
00000100
00000001
,
00000000
00000010
00000001
00000100
,
00001001
00000010
00000100
00001000
,
00000000
00010000
00100000
10000000
,
01100000
00010000
01000000
10000000
,
00100000
00010000
00001000
00000010
,
00001001
00000010
00000100
00000010
,
00001001
00000110
00000001
00001000
,
00000020
00000000
00000000
00000030
,
00020000
00000000
00000000
00030000
,
00002000
00000000
00000000
00003000
,
02000000
00000000
00000000
03000000
,
01100000
00001000
00001000
00010000
,
00010000
00000010
00000100
00001001
,
00000001
00000100
00000000
00000010
,
00010000
00001000
00000000
01000000
,
00100000
10000000
00000000
01000000
,
00010000
00001000
00000010
00000100
,
00000010
00000001
00000000
00001000
,
00000100
00010000
00000000
00001000
,
01000000
00010000
00000000
10000000
,
00100000
01000000
00001000
00010000
,
00000100
00000100
00001000
00000000
,
00000001
00000000
00001000
00000000
,
00000001
00000001
00000010
00000000
,
00001000
00000000
00010000
00000000
,
00100000
00100000
10000000
00000000
,
00010000
00000000
10000000
00000000
,
01100000
00000000
10010000
00000000
,
00100000
10000000
01000000
00010000
,
01100000
10000000
01000000
00010000
,
00001000
00000010
00000001
00000100
,
00001001
00000010
00000100
00001000
,
00010000
01000000
00100000
00001000
,
00011000
00010000
00001000
00100000
,
00010000
01000000
10000000
00100000
,
10010000
01000000
10000000
00100000
,
00010000
00001000
00000100
00000010
,
00001001
00000000
00000000
00000000
;
#NOTES:
     dance-double:
     :
     Medium:
     6:
     :
00000000
00000000
00000000
00000000
,
00000000
00000000
00000000
00000000
,
00000000
00000000
00000000
00000000
,
00000000
00000000
00000000
00000000
,
01010000
00000000
10100000
00000000
10000000
00000000
00010000
00100000
,
01000000
00010000
00001000
00000010
,
00001001
00000000
00000110
00000000
,
00000001
00001000
00001001
00000010
,
00001001
00000010
00000100
00001000
,
00000001
00000100
00001000
00000000
00010000
00000000
01000000
00000000
,
10000000
01000000
00100000
00010000
,
10000000
00100000
01000000
00000000
00010000
00000000
10000000
00000000
,
01000000
00100000
00001000
00010000
,
00000010
00001000
00000100
00000000
00000001
00000000
00000100
00000000
,
00002000
00003000
00000002
00000003
,
00001001
00000110
00000110
00001001
,
00000110
00000001
00000100
00000010
,
00000001
00000010
00001000
00000000
00000100
00000000
00010000
00000000
,
00001000
00100000
01000000
00010000
,
01000000
10000000
00010000
00000000
00100000
00000000
00001000
00000000
,
00010000
00000100
00000010
00001000
,
00010000
00000010
00000100
00000000
00001000
00000000
00010000
00000000
,
00220000
00330000
22000000
33000000
,
00110000
11000000
00110000
11000000
,
00020000
01030000
20000000
30100000
,
00020000
00001000
00001000
00031000
,
00002100
00003001
00000012
00001003
,
00000200
00000010
00000010
00000310
,
00001200
00010300
00012000
00103000
,
01010000
10100000
10010000
01100000
,
00210000
00301000
02001000
03010000
,
10010000
01100000
01100000
10010000
,
01100000
00000000
00010000
00100000
00001000
00000000
00101000
00000000
,
00010100
00000000
00001000
00010000
00000100
00000000
00000110
00000000
,
00000200
00000000
00000000
00020000
00000000
00000000
00030300
00000000
,
00002000
00000000
00000000
00200000
00000000
00000000
00303000
00000000
,
02000000
00000000
00000000
00002000
00000000
00000000
03003000
00000000
,
00020000
00000000
00000000
00000020
00000000
00000000
00030030
00000000
,
00001001
00000000
00000100
00000010
00000100
00000000
00001000
00010000
,
00001000
01000000
00100000
10010000
,
00010000
00000000
10000000
10000000
00000000
00000000
00010000
00000000
,
00100000
00000000
00001000
00001000
00000000
00000000
00010000
00000000
,
00001000
00000000
00010000
00010000
00000000
00000000
00000100
00000000
,
00001000
00000000
00000001
00000001
00000000
00000000
00001000
00000000
,
00000001
00000000
00000010
00000001
00000000
00000000
00000100
00000000
,
00000010
00000000
00001000
00000100
00000000
00000000
00010000
00000000
,
00001000
00000000
00100000
00010000
00000000
00000000
01000000
00000000
,
00100000
00000000
10000000
01000000
00000000
00000000
00010000
00000000
,
00001000
00000100
00000110
00000101
,
00001000
00000000
00001100
00000000
00000000
00000011
00000000
00000000
,
00001000
00000100
00010100
00011000
,
00100000
00000000
00110000
00000000
00000000
11000000
00000000
00000000
,
00010000
10000000
01100000
10010000
,
10000000
01100000
00010000
01100000
,
20020000
30030000
02200000
03300000
,
00110000
00101000
00010100
00001100
,
00000002
00000103
00002000
00003010
,
00020000
00000100
00001000
00030010
,
00012000
00103000
00021000
00030100
,
00002000
00100000
00010000
01003000
,
00210000
01300000
12000000
03100000
,
00110000
00011000
00001100
00011000
,
00002010
00003001
00001002
00000103
,
00000001
00000010
00001000
00010000
,
00011000
00000000
00000000
00000000
;
#NOTES:
     dance-double:
     :
     Hard:
     7:
     :
00000000
00000000
00000000
00000000
,
00000000
00000000
00000000
00000000
,
00000000
00000000
00000000
00000000
,
00000000
00000000
00000000
00000000
,
01100000
00000000
10010000
00000000
00100000
00000000
00010000
00001000
,
00000100
00001000
00010000
00000000
00000010
00000000
00001000
00000000
,
00000101
00000010
00001000
00000001
,
00000100
00000010
00001000
00000000
00000001
00000000
00001001
00000000
,
00000110
00001000
00000001
00000100
,
00000010
00010000
00001000
00010000
00000100
00000000
00010000
00000000
,
00001000
00100000
00010000
01000000
,
00001000
00010000
01000000
00010000
00001000
00000000
01000000
00000000
,
00100000
01010000
10100000
01000000
,
00001000
00010000
00000010
00001000
,
00000202
00000303
00002020
00003030
,
00001001
00000000
00000110
00000000
00000001
00001000
00000001
00001000
,
00000001
00000010
00001000
00010000
,
00001000
00010000
01000000
20000000
00000000
00000000
30100000
00000000
,
10000000
01000000
00010000
00001000
,
00010000
00001000
00000010
00000002
00000000
00000000
00000103
00000000
,
00001000
00010000
00100000
00010000
,
00001000
00010000
00001000
02000000
00000000
00000000
03100000
00000000
,
20020000
30030000
02200000
03300000
,
10100000
00000000
01010000
00000000
00100000
00001000
00010000
00000100
,
00002000
00000000
00000000
00003200
00000000
00000000
00000310
00000000
,
00000001
00001100
00010100
00011000
,
00200000
00000000
00000000
00320000
00000000
00000000
10030000
00000000
,
01000000
00110000
00101000
00011000
,
00000200
00000000
00000000
00002300
00000000
00000000
00003001
00000000
,
00000010
00000001
00001000
00000010
00010000
00001000
01000000
00010000
,
00200000
00000000
00000000
02300000
00000000
00000000
13000000
00000000
,
00010000
10000000
01000000
00100000
00001000
00010000
00000100
00000010
,
00000001
00000000
00000001
00001000
00000001
00001000
00000001
00000000
,
00001001
00000000
00001000
00000001
00000010
00000100
00001000
00000000
,
00000001
00000000
00000000
00000100
00000000
00000000
00001010
00000000
,
00001100
00000000
00000000
00011000
00000000
00000000
00100000
00000000
,
00010000
00000000
00000000
01000000
00000000
00000000
10100000
00000000
,
01010000
00000000
00000000
00011000
00000000
00000000
00000100
00000000
,
00010000
00000000
00010000
00000010
00010000
00001000
00010000
00000100
,
00010000
00110000
10010000
11000000
,
00100000
00000000
00010000
00020000
00000000
00000000
01030000
00000000
,
00100000
00000000
10000000
20000000
00000000
00000000
31000000
00000000
,
00100000
00000000
00002000
00010000
00000000
00000000
00013000
00000000
,
00000010
00000000
00002000
00000001
00000000
00000000
00003001
00000000
,
00000010
00000000
00000001
00000200
00000000
00000000
00001300
00000000
,
00010000
00000000
00100000
20000000
00000000
00000000
31000000
00000000
,
00200000
00000000
00001000
00001000
00000000
00000000
01300000
00000000
,
02000000
00000000
10000000
10000000
00000000
00000000
03010000
00000000
,
00100000
00010000
11000000
10100000
,
00010000
00000000
01100000
00000000
00000000
00011000
00000000
00000000
,
00000010
00001000
00000101
00000011
,
00000100
00000000
00001001
00000000
00000000
00000110
00000000
00000000
,
00010000
00001000
00010010
01001000
,
01000000
00011000
00000010
00011000
,
00220000
00330000
02020000
03030000
,
01001000
00101000
00010100
00010010
,
00002000
00000000
00000000
00003020
00000000
00000000
00000130
00000000
,
00000001
00001010
00010010
00011000
,
00200000
00000000
00000000
00320000
00000000
00000000
10030000
00000000
,
01000000
00110000
00101000
00011000
,
00000020
00000000
00000000
00002030
00000000
00000000
00003001
00000000
,
00000100
00000001
00001000
00000100
00010000
00001000
00100000
00010000
,
02000000
00000000
00000000
03200000
00000000
00000000
10300000
00000000
,
00010000
00100000
00001000
00010000
00000100
00000000
00001001
00000000
,
00000110
00000000
00000000
00000000
;
