
//----- song ID: hoyi -----
#TITLE:HOLD YOU IN MY ARMS (Danzeforze dream mix);
#ARTIST:NM feat. Asher;
#BANNER:HOLD YOU IN MY ARMS (Danzeforze dream mix).png;
#BACKGROUND:HOLD YOU IN MY ARMS (Danzeforze dream mix)-bg.png;
#CDTITLE:./CDTitles/DDR UNIVERSE3.png;
#MUSIC:HOLD YOU IN MY ARMS (Danzeforze dream mix).ogg;
#OFFSET:-0.001;
#SAMPLESTART:44.57;
#SAMPLELENGTH:15;
#BPMS:0=70;
#NOTES:
     dance-single:
     :
     Beginner:
     1:
     :
0000
0000
0000
0000
,
1000
0000
0000
0000
,
0001
0000
0000
0000
,
0010
0000
0000
0000
,
0100
0000
0000
0000
,
0010
0000
0000
0000
,
0001
0000
0000
0000
,
1000
0000
0000
0000
,
0100
0000
0000
0000
,
1000
0000
0000
0000
,
0010
0000
0000
0000
,
0100
0000
0000
0000
,
0001
0000
0000
0000
,
0010
0000
0000
0000
,
0100
0000
0000
0000
,
1000
0000
0000
0000
,
0001
0000
0000
0000
,
2000
0000
0000
3000
,
1000
0000
1000
0000
,
0100
0000
0100
0000
,
0010
0000
0000
0000
,
0002
0000
0000
0003
,
0001
0000
0001
0000
,
0100
0000
0100
0000
,
0010
0000
0000
0000
,
0100
0000
0100
0000
,
0001
0000
0001
0000
,
1000
0000
1000
0000
,
1001
0000
0000
0000
;
#NOTES:
     dance-single:
     :
     Easy:
     2:
     :
0000
0000
0000
0000
,
0100
0000
1000
0000
,
0100
0000
0000
0000
,
0100
0000
1000
0000
,
0100
0000
0000
0000
,
0010
0000
0010
0000
,
0010
0000
0000
0000
,
0010
0000
0010
0000
,
0010
0000
0000
0000
,
0001
0000
1000
0000
,
0001
0000
1000
0000
,
0001
0000
1000
0000
,
0001
0000
1000
0000
,
0100
0000
0010
0000
,
0100
0000
0010
0000
,
0100
0000
0010
0000
,
0100
0000
0010
0000
,
0001
0001
0000
0000
,
1000
1000
0000
0000
,
0100
0000
0100
0000
,
0100
0100
0100
0100
,
1000
1000
0000
0000
,
0001
0001
0000
0000
,
1000
0000
0100
0000
,
0001
0000
0100
0000
,
1000
0000
1000
0000
,
0001
0000
0001
0000
,
0010
0010
0010
0000
,
1001
0000
0000
0000
;
#NOTES:
     dance-single:
     :
     Medium:
     4:
     :
0000
0000
0000
0000
,
1000
0100
1000
0001
,
0200
0010
0000
0310
,
1000
0100
0010
0001
,
0100
0001
1000
0000
,
0001
0100
0001
1000
,
0200
0010
0000
0310
,
0001
0010
0100
1000
,
0102
1000
0000
1003
,
0001
0010
1000
0010
,
0002
0100
0000
0103
,
0010
1000
0100
0001
,
0100
1000
0001
0000
,
1000
0010
0001
0010
,
2000
0100
0000
3100
,
1000
0010
0100
0001
,
2100
0001
0000
3001
,
0010
0100
0010
0100
,
1000
0000
0001
0100
1000
0000
0100
0000
,
0010
1000
0100
0001
,
0010
0000
0100
0000
1000
0001
0100
0100
,
0010
0100
0010
0100
,
0001
0000
1000
0100
0001
0000
0100
0000
,
2000
0000
3002
0000
,
0103
0000
0010
0000
1000
0001
0000
0000
,
1000
0100
0010
0001
,
0100
0100
0010
0010
,
1000
0000
0001
0000
0010
0100
0000
0000
,
1001
0000
0000
0000
;
#NOTES:
     dance-single:
     :
     Hard:
     6:
     :
0000
0000
0000
0000
,
0011
0000
0000
0000
1000
0000
0000
0000
0010
0000
0100
0001
0000
1000
0000
0000
,
0001
0000
1000
0100
0000
0000
0000
0000
1000
0000
0010
0100
0000
0001
0000
0000
,
0010
0000
0001
0000
1000
0100
0010
0001
,
0100
0020
0000
2030
0000
0000
3001
0000
,
1010
0000
0000
0000
0001
0000
0000
0000
0010
0000
0100
1000
0000
0001
0000
0000
,
1000
0000
0010
0100
0000
0000
0000
0000
0001
0000
0000
0000
1000
0000
0000
0000
,
0001
0000
0000
0000
0010
0000
0100
1000
0001
0000
0100
0000
0010
0000
1000
0000
,
0000
0001
0000
0000
0000
0000
0011
0000
,
1100
0000
0000
0000
0001
0000
0000
0000
0100
0000
0001
1000
0000
0100
0000
0000
,
0010
0000
0001
1000
0000
0000
0000
0000
0001
0000
0010
0001
0000
1000
0000
0000
,
0100
0000
0010
0000
0100
1000
0010
1000
,
0001
0020
0000
0230
0000
0000
1300
0000
,
0101
0000
0000
0000
0010
0000
0000
0000
1000
0000
0001
0010
0000
0100
0000
0000
,
1000
0000
0001
0100
0000
0000
0000
0000
0001
0000
0000
0000
1000
0000
0000
0000
,
0100
0000
0000
0000
0000
0000
0010
0001
1000
0000
0010
0000
0100
0000
0010
0000
,
0000
1000
0000
0000
0101
0000
1100
0000
,
0001
0000
0000
0000
1000
0000
0010
0000
0000
0000
1000
0000
0000
0000
0001
0001
,
0100
0000
0000
0000
0010
0000
1000
0000
0000
0000
0001
0000
0000
0000
0010
0010
,
0100
0000
0000
0000
0010
0000
0001
0000
0000
0000
1000
0000
0000
0000
0001
1000
,
0200
2300
3002
0023
,
0130
0000
0000
0000
1000
0000
0010
0000
0000
0000
1000
0000
0000
0000
0001
0001
,
0010
0000
0000
0000
0100
0000
0010
0000
0000
0000
0001
0000
0000
0000
1000
1000
,
0010
0000
0000
0000
1000
0000
0000
0000
0100
0000
0000
0000
0010
0000
0001
1000
,
0010
0000
1000
0000
0100
0010
0000
0000
,
0000
0001
1000
0000
0010
0000
1000
0001
,
0110
0000
0000
0000
1000
0000
0000
0000
0001
0000
0000
0000
0010
0000
0001
1000
,
0010
0000
0100
0000
0001
1000
0000
0000
,
0110
0000
0000
0000
;
#NOTES:
     dance-double:
     :
     Beginner:
     1:
     :
00000000
00000000
00000000
00000000
,
00001000
00000000
00000000
00000000
,
00000001
00000000
00000000
00000000
,
00000010
00000000
00000000
00000000
,
00001000
00000000
00000000
00000000
,
00010000
00000000
00000000
00000000
,
00100000
00000000
00000000
00000000
,
10000000
00000000
00000000
00000000
,
00010000
00000000
00000000
00000000
,
10000000
00000000
00000000
00000000
,
01000000
00000000
00000000
00000000
,
00100000
00000000
00000000
00000000
,
00001000
00000000
00000000
00000000
,
00010000
00000000
00000000
00000000
,
00000010
00000000
00000000
00000000
,
00000100
00000000
00000000
00000000
,
00000001
00000000
00000000
00000000
,
00000020
00000000
00000000
00000030
,
00000010
00000000
00000010
00000000
,
00001000
00000000
00001000
00000000
,
00010000
00000000
00000000
00000000
,
00200000
00000000
00000000
00300000
,
00100000
00000000
00100000
00000000
,
00010000
00000000
00010000
00000000
,
00001000
00000000
00000000
00000000
,
00000010
00000000
00000010
00000000
,
00000001
00000000
00000001
00000000
,
00000100
00000000
00000100
00000000
,
00001001
00000000
00000000
00000000
;
#NOTES:
     dance-double:
     :
     Easy:
     2:
     :
00000000
00000000
00000000
00000000
,
00100000
00000000
10000000
00000000
,
01000000
00000000
00000000
00000000
,
00100000
00000000
00001000
00000000
,
00010000
00000000
00000000
00000000
,
00000010
00000000
00010000
00000000
,
00001000
00000000
00000000
00000000
,
00000010
00000000
00000001
00000000
,
00000100
00000000
00000000
00000000
,
00000001
00000000
00000001
00000000
,
00000010
00000000
00001000
00000000
,
00010000
00000000
00100000
00000000
,
10000000
00000000
00010000
00000000
,
10000000
00000000
10000000
00000000
,
01000000
00000000
00010000
00000000
,
00001000
00000000
00000100
00000000
,
00000001
00000000
00001000
00000000
,
00000010
00000010
00000000
00000000
,
00000100
00000100
00000000
00000000
,
00000001
00000000
00001000
00000000
,
00000100
00000100
00000100
00000100
,
00010000
00010000
00000000
00000000
,
00001000
00001000
00000000
00000000
,
01000000
00000000
00100000
00000000
,
10000000
00000000
00010000
00000000
,
10000000
00000000
10000000
00000000
,
01000000
00000000
01000000
00000000
,
00010000
00001000
00010000
00000000
,
00011000
00000000
00000000
00000000
;
#NOTES:
     dance-double:
     :
     Medium:
     4:
     :
00000000
00000000
00000000
00000000
,
00000010
00000001
00000100
00001000
,
00010000
00001000
00100000
00010000
,
01000000
00100000
10000000
01000000
,
00010000
00001000
00010000
00000000
,
00000100
00000010
00000100
00001000
,
00000001
00001000
00000100
00010000
,
00001000
01000000
00100000
01000000
,
20020000
00000000
30030000
00000000
,
00100000
10000000
01000000
00010000
,
00001000
00010000
00000010
00001000
,
00000100
00000010
00000001
00000100
,
00001000
00010000
00001000
00000000
,
01000000
00100000
01000000
00010000
,
10000000
00010000
01000000
00001000
,
00010000
00000100
00000010
00000100
,
00002002
00000000
00003003
00000000
,
00000010
00000000
00000001
00000100
00001000
00000000
00010000
00000000
,
00001000
00000000
00010000
01000000
10000000
00000000
00100000
00000000
,
01000000
01001000
00010000
00010100
,
00000200
00020300
00032000
02003000
,
03100000
00000000
10000000
01000000
00010000
00000000
00001000
00000000
,
00010000
00000000
00001000
00000100
00000001
00000000
00000010
00000000
,
00000100
00010100
00001000
01001000
,
01000000
00000000
00100000
00000000
10000000
00010000
00000000
00000000
,
00100000
00001000
00010000
00000010
,
00001000
00000001
00000010
00001000
,
00010000
00000000
00100000
00000000
10000000
01000000
00000000
00000000
,
10010000
00000000
00000000
00000000
;
#NOTES:
     dance-double:
     :
     Hard:
     7:
     :
00000000
00000000
00000000
00000000
,
00011000
00000000
00000000
00000000
00100000
00000000
00000000
00000000
10000000
00000000
01000000
00010000
00000000
00001000
00000000
00000000
,
00010000
00000000
00001000
01000000
00000000
00000000
00100000
10000000
00010000
00000000
01000000
00100000
00000000
10000000
00000000
00000000
,
11000000
00000000
00100000
00000000
00001000
00000010
00000001
00000100
,
00000001
00000000
00002000
00000000
00000000
00000000
00003002
00000000
00000000
00000000
00000000
00000000
00000103
00000000
00001000
00010000
,
00010010
00000000
00000000
00000000
00000100
00000000
00000000
00000000
00000001
00000000
00000010
00001000
00000000
00010000
00000000
00000000
,
00000010
00000000
00001000
00000100
00000000
00000000
00010000
00001000
00000000
00000000
01000000
00100000
10000000
00000000
01000000
00100000
,
00101000
00000000
00000000
00000000
00010000
00000000
01000000
00100000
10000000
00000000
01000000
00000000
00010000
00000000
00001000
00000000
,
00000000
00000000
00000100
00000000
00000001
00000000
00000010
00000100
00000000
00000000
00000010
00000001
00000101
00000000
00000000
00000000
,
00001100
00000000
00000000
00000000
00010000
00000000
00000000
00000000
00000010
00000000
00010000
00001000
00000000
00100000
00000000
00000000
,
00010000
00000000
10000000
00100000
00000000
00000000
01000000
00001000
00010000
00000000
00001000
01000000
00000000
00100000
00000000
00000000
,
10100000
00000000
01000000
00000000
00010000
00001000
00100000
00001000
,
00010000
00000000
00000020
00000000
00000000
00000000
00000230
00000000
00000000
00000000
00000000
00000000
00000301
00000000
00000010
00000100
,
00010100
00000000
00000000
00000000
00000010
00000000
00000000
00000000
00000001
00000000
00000100
00001000
00000000
00010000
00000000
00000000
,
01000000
00000000
00100000
00001000
00000000
00000000
01000000
00010000
00000000
00000000
10000000
00100000
00010000
00000000
00001000
01000000
,
01010000
00000000
00000000
00000000
00000000
00000000
00100000
10000000
01000000
00000000
00100000
00000000
00001000
00000000
00010000
00000000
,
00000000
00000010
00000100
00000000
00000101
00000000
00001100
00000000
,
00000010
00000000
00000000
00000000
00000001
00000000
00000100
00000000
00000000
00000000
00000010
00000000
00000000
00000000
00010000
00001000
,
00100000
00000000
00000000
00000000
00001000
00000000
00010000
00000000
00000000
00000000
01000000
00000000
00000000
00000000
10000000
00100000
,
01000000
00000000
00000000
00000000
00100000
00000000
00010000
00000000
00000000
00000000
00001000
00000000
00000000
00000000
00010000
00001000
,
00000020
00000032
00000203
00002300
,
00013000
00000000
00000000
00000000
01000000
00000000
10000000
00000000
00000000
00000000
00010000
00000000
00000000
00000000
01000000
00001000
,
00100000
00000000
00000000
00000000
01000000
00000000
10000000
00000000
00000000
00000000
00010000
00000000
01000000
00000000
00100000
10000000
,
01000000
00000000
10000000
01000000
00010000
00000000
00001000
00000100
00000001
00000000
00000100
00000001
00000010
00000000
00001000
00010000
,
00001000
00000000
01000000
00000000
00100000
10000000
00000000
00000000
,
00000000
00000000
01000000
00100000
00001000
00000000
00010000
00001000
00000000
00000000
00010000
00000010
00000100
00000000
00000001
00000010
,
00000100
00000000
00010000
00001000
01000000
00000000
00000000
00000000
10100000
00000000
00000000
00000000
00110000
00000000
10000000
01000000
,
00010000
00000000
00001000
00000000
00000100
00000001
00000000
00000000
,
00001001
00000000
00000000
00000000
;
