#TITLE:Glamorous;
#ARTIST:Somatone;
#BANNER:Glamorous.png;
#BACKGROUND:Glamorous-bg.png;
#LYRICSPATH:Glamorous.lrc;
#CDTITLE:./CDTITLES/DanceDanceRevolution UNIVERSE3.png;
#MUSIC:Glamorous.ogg;
#SAMPLESTART:31.145;
#SAMPLELENGTH:15;
#BPMS:0=131;

//---------------dance-single - ----------------
#NOTES:
     dance-single:
     :
     Beginner:
     1:
     :
0000
0000
0000
0000
,
0000
0000
0000
0000
,
0000
0000
0000
0000
,
2000
0000
0000
3000
,
0000
0000
0000
0000
,
0020
0000
0000
0030
,
0000
0000
0000
0000
,
0200
0000
0000
0300
,
0000
0000
0000
0000
,
0001
0000
0000
0000
,
1000
0000
0000
0000
,
0001
0000
0000
0000
,
0100
0000
0000
0000
,
0001
0000
0000
0000
,
0010
0000
0000
0000
,
0100
0100
0000
0000
,
0100
0000
0000
0000
,
0010
0010
0000
0000
,
0010
0000
0000
0000
,
1000
1000
0000
0000
,
1000
0000
0000
0000
,
0001
0001
0000
0000
,
0001
0000
0000
0000
,
1000
1000
0000
0000
,
1000
0000
0000
0000
,
0010
0000
0100
0000
,
0010
0000
0000
0000
,
1000
0000
0001
0000
,
1000
1000
0000
0000
,
0001
0000
0100
0000
,
0001
0000
0000
0000
,
0010
0000
1000
0000
,
0010
0000
0100
0000
,
0010
0000
0010
0010
,
0010
0000
0000
0000
,
1000
0000
0001
0000
,
1000
0000
0000
0000
,
0100
0000
0010
0000
,
0100
0000
0100
0000
,
0020
0000
0000
0030
,
0000
0000
0000
0000
,
1000
0000
0000
0000
,
0001
0000
0000
0000
,
1000
0000
0000
0000
,
0010
0000
0000
0000
,
1000
0000
0000
0000
,
0100
0000
0000
0000
,
1000
1000
0000
0000
,
1000
0000
0000
0000
,
0001
0001
0000
0000
,
0001
0000
0100
0000
,
0001
0001
0000
0000
,
0001
0000
0000
0000
,
0010
0010
0000
0000
,
0010
0000
0100
0000
,
0100
0100
0000
0000
,
0010
0000
0000
0000
;

//---------------dance-single - ----------------
#NOTES:
     dance-single:
     :
     Easy:
     2:
     :
0000
0000
0000
0000
,
0000
0000
0000
0000
,
0000
0000
0000
0000
,
0001
0000
0100
0000
,
0001
0000
0000
0000
,
1000
0000
0001
0000
,
1000
0000
0000
0000
,
0001
0000
1000
0000
,
0100
0000
0000
0010
,
0010
0001
0000
0000
,
1000
0000
0001
0000
,
0100
0010
0000
0000
,
0100
0000
0001
0000
,
1000
0100
0000
0000
,
1000
0000
0010
0000
,
0100
0100
0010
0000
,
1000
0000
0001
0000
,
0100
0010
0000
0000
,
0100
0000
1000
0000
,
0001
0100
0000
0000
,
0010
0010
0100
0000
,
0010
0001
0000
0000
,
1000
0000
0001
0000
,
0100
0001
0000
0000
,
0100
0100
0010
0000
,
1000
0000
0100
1000
,
0100
0000
0010
0000
,
0001
0000
0010
0001
,
0010
0000
0100
0000
,
0010
0000
0100
0000
,
1000
0000
0001
0000
,
0100
0000
0010
0000
,
1000
0000
0010
0000
,
0100
0000
0001
0100
,
0001
0000
1000
0000
,
0100
0000
1000
0100
,
1000
0000
0100
0000
,
0010
0000
0100
0000
,
0010
0000
0001
0000
,
0100
0100
0100
0000
,
0010
0000
0000
0100
,
0010
0100
0000
0000
,
1000
0000
0001
0000
,
1000
0100
0000
0000
,
1000
0000
0010
0000
,
0100
0001
0000
0000
,
1000
0000
0001
0000
,
0100
0100
0010
0000
,
1000
0000
0001
0000
,
0010
0010
0100
0000
,
0010
0000
0001
0000
,
0100
0100
1000
0000
,
0010
0000
0100
0000
,
0010
0010
0100
0000
,
0001
0000
1000
0000
,
0001
1000
0001
0000
,
0100
0000
0000
0000
;

//---------------dance-single - ----------------
#NOTES:
     dance-single:
     :
     Medium:
     5:
     :
0000
0000
0000
0000
,
0000
0000
0000
0000
,
0000
0000
0000
0000
,
2000
3010
2000
3001
,
1000
0100
0010
0001
0000
0000
0000
0000
,
0002
1003
0002
0013
,
0001
0000
0000
1000
0000
0000
0000
0000
,
0200
0310
0200
0301
,
0100
0010
1000
0001
0000
0000
0100
0000
,
0020
1000
0000
1030
,
0100
0000
0000
0010
0000
0000
0100
0000
,
2000
0001
0000
3001
,
0100
0000
0000
0001
0000
0000
0100
0010
,
2000
0100
0000
3100
,
0010
0000
0000
0001
0000
0000
1000
0000
,
0010
0100
0010
0000
0000
0100
0000
0000
,
0001
0000
0000
1000
0000
0000
0000
0000
,
0100
1000
0200
0000
0300
0000
0000
0000
,
0010
0001
0010
0000
0100
0000
0010
0000
,
0100
1000
0200
0000
0300
0000
0000
0000
,
0001
0000
0000
1000
0000
0000
0000
0000
,
0001
0100
0002
0000
0003
0000
0000
0000
,
1000
0100
1000
0000
0001
0000
1000
0000
,
0001
0100
0002
0000
0003
0000
0000
0000
,
0010
0000
0000
0100
0000
0000
0000
0000
,
1000
0000
0010
0000
0001
0010
0100
0000
,
2000
0000
3010
0000
,
0100
0001
0010
0000
0001
0000
0001
0000
,
1000
0100
0020
0030
,
0001
0100
1000
0100
,
1000
0100
0010
0000
0001
0000
1000
0000
,
0020
0030
0020
0030
,
0100
0000
0010
0000
0100
0010
0100
0000
,
0001
0000
0010
0000
1000
0100
0010
0000
,
2000
3000
0002
1003
,
0010
0100
0010
0000
1000
0000
0001
0000
,
0010
0100
1000
0000
,
0002
0003
2000
3000
,
0100
1000
0010
0100
,
0002
0000
0000
0003
,
2000
0000
0000
3010
,
0200
0001
0000
0301
,
0010
0000
0000
0100
0000
0000
0010
0000
,
0002
1000
0000
1003
,
0010
0000
0000
1000
0000
0000
0010
0100
,
0002
0010
0000
0013
,
0100
0000
0000
1000
0000
0000
0001
0000
,
0100
0010
0100
0000
0000
0010
0000
0000
,
1000
0000
0000
0001
0000
0000
0000
0000
,
0010
0001
0020
0000
0030
0000
0000
0000
,
0100
1000
0100
0000
0010
0000
0100
0000
,
0010
0001
0020
0000
0030
0000
0000
0000
,
1000
0000
0000
0001
0000
0000
0000
0000
,
1000
0010
2000
0000
3000
0000
0000
0000
,
0001
0010
0001
0000
1000
0000
0001
0000
,
1000
0010
2000
0000
0000
0000
0000
0000
,
3001
0000
0000
0000
;

//---------------dance-single - ----------------
#NOTES:
     dance-single:
     :
     Hard:
     7:
     :
0000
0000
0000
0000
,
0000
0000
0000
0000
,
0000
0000
0000
0000
,
1000
0000
0001
0000
,
1000
0010
0000
0100
0000
0001
0000
0000
,
0010
0100
0010
0001
,
0010
0000
0100
1000
0000
0010
0100
0000
,
0001
1000
0001
0100
,
0001
0010
0000
0100
0000
1000
0010
0100
,
0010
2000
0000
3001
,
0010
0000
0100
1000
0000
0100
0010
0001
,
0010
0200
0000
1300
,
0010
0000
0100
0010
0000
0000
0100
0001
,
0010
0002
0000
1003
,
0010
0100
0000
1000
0000
0001
0010
0100
,
1000
0010
0100
0000
0000
1000
0000
0001
,
0100
0000
0001
0010
0000
0100
1000
0000
,
0100
0010
0001
0000
1000
0000
0010
0000
,
0100
0010
1000
0100
0010
0001
0100
0001
,
1000
0100
2000
0000
0000
0010
3000
0100
,
1000
0000
0010
0100
0000
0001
0000
0010
,
0100
1000
0200
0000
0000
0000
0300
0001
,
1000
0001
0100
0010
0100
0001
0010
0100
,
1000
0001
0020
0000
0000
0100
0030
0100
,
0010
0000
0001
0100
0000
0000
0010
0000
,
1000
0100
0001
0000
0100
0000
1000
0000
,
0010
0100
0001
0010
0100
1000
0010
0000
,
0100
0001
0010
0000
0100
1000
0010
0000
,
0100
1000
0100
0010
0001
0010
0100
0000
,
0001
0000
1000
0000
0010
0100
0001
0000
,
1000
0100
1000
1000
0001
0100
0001
0000
,
1000
0100
1000
0010
0100
0100
0001
0000
,
0001
1000
0100
1000
0001
0000
1001
0000
,
1010
1000
0100
0010
0001
0000
0010
0000
,
0200
2300
3020
0130
,
0001
0100
1000
0000
0001
0000
1000
0000
,
0010
0100
0010
1000
0100
0010
0001
0000
,
1000
0001
0100
0000
0100
0001
0010
0000
,
0001
0100
0001
0010
0100
1000
0100
0000
,
2000
0000
0000
0000
,
0002
0000
0000
3003
,
1000
0002
0000
1003
,
0100
0000
0010
0001
0000
0010
0100
1000
,
0100
0020
0000
0031
,
0100
0000
0010
0100
0000
0000
0010
1000
,
0100
2000
0000
3001
,
0100
0010
0000
0001
0000
1000
0100
0010
,
0001
0100
0010
0000
0000
0001
0000
1000
,
0010
0000
1000
0100
0000
0010
0001
0000
,
0010
0100
1000
0000
0001
0000
0100
0000
,
0010
0100
0001
0010
0100
1000
0010
1000
,
0001
0010
0002
0000
0000
0100
0003
0010
,
0001
0000
0100
0010
0000
1000
0000
0100
,
0010
0001
0020
0000
0000
0000
0030
1000
,
0001
1000
0010
0100
0010
1000
0100
0010
,
0001
1000
0200
0000
0000
0010
0300
0010
,
0100
0000
0000
0000
;

//---------------dance-double - ----------------
#NOTES:
     dance-double:
     :
     Beginner:
     1:
     :
00000000
00000000
00000000
00000000
,
00000000
00000000
00000000
00000000
,
00000000
00000000
00000000
00000000
,
00000200
00000000
00000000
00000300
,
00000000
00000000
00000000
00000000
,
00020000
00000000
00000000
00030000
,
00000000
00000000
00000000
00000000
,
00002000
00000000
00000000
00003000
,
00000000
00000000
00000000
00000000
,
00010000
00000000
00000000
00000000
,
00000100
00000000
00000000
00000000
,
00001000
00000000
00000000
00000000
,
00000100
00000000
00000000
00000000
,
00000010
00000000
00000000
00000000
,
00000100
00000000
00000000
00000000
,
00001000
00001000
00000000
00000000
,
00000001
00000000
00000000
00000000
,
00000100
00000100
00000000
00000000
,
00000010
00000000
00000000
00000000
,
00010000
00010000
00000000
00000000
,
00001000
00000000
00000000
00000000
,
00100000
00100000
00000000
00000000
,
00010000
00000000
00000000
00000000
,
01000000
01000000
00000000
00000000
,
00010000
00000000
00000000
00000000
,
00100000
00000000
00010000
00000000
,
00100000
00000000
00000000
00000000
,
00010000
00000000
10000000
00000000
,
00010000
00010000
00000000
00000000
,
01000000
00000000
00100000
00000000
,
01000000
00000000
00000000
00000000
,
00010000
00000000
00100000
00000000
,
00001000
00000000
00010000
00000000
,
00001000
00000000
00001000
00001000
,
00001000
00000000
00000000
00000000
,
00010000
00000000
00001000
00000000
,
00010000
00000000
00000000
00000000
,
00000100
00000000
00001000
00000000
,
00000100
00000000
00000100
00000000
,
00000020
00000000
00000000
00000030
,
00000000
00000000
00000000
00000000
,
00000100
00000000
00000000
00000000
,
00010000
00000000
00000000
00000000
,
00000100
00000000
00000000
00000000
,
00000010
00000000
00000000
00000000
,
00000100
00000000
00000000
00000000
,
00001000
00000000
00000000
00000000
,
00000001
00000001
00000000
00000000
,
00000100
00000000
00000000
00000000
,
00000010
00000010
00000000
00000000
,
00000100
00000000
00000010
00000000
,
00010000
00010000
00000000
00000000
,
00001000
00000000
00000000
00000000
,
00100000
00100000
00000000
00000000
,
00010000
00000000
10000000
00000000
,
00010000
00010000
00000000
00000000
,
01000000
00000000
00000000
00000000
;

//---------------dance-double - ----------------
#NOTES:
     dance-double:
     :
     Easy:
     2:
     :
00000000
00000000
00000000
00000000
,
00000000
00000000
00000000
00000000
,
00000000
00000000
00000000
00000000
,
00000010
00000000
00010000
00000000
,
00001000
00000000
00000000
00000000
,
00100000
00000000
01000000
00000000
,
10000000
00000000
00000000
00000000
,
00010000
00000000
00100000
00000000
,
00001000
00000000
00000000
00010000
,
00010000
00001000
00000000
00000000
,
00010000
00000000
00000100
00000000
,
00001000
00000001
00000000
00000000
,
00000100
00000000
00000001
00000000
,
00000100
00000010
00000000
00000000
,
00010000
00000000
00001000
00000000
,
00010000
00010000
00000100
00000000
,
00001000
00000000
00000100
00000000
,
00010000
00001000
00000000
00000000
,
01000000
00000000
00100000
00000000
,
01000000
00010000
00000000
00000000
,
10000000
10000000
00010000
00000000
,
10000000
01000000
00000000
00000000
,
00100000
00000000
01000000
00000000
,
00100000
10000000
00000000
00000000
,
00010000
00010000
00100000
00000000
,
00001000
00000000
00010000
00001000
,
00010000
00000000
00000100
00000000
,
00001000
00000000
00000010
00001000
,
00000010
00000000
00000100
00000000
,
00000010
00000000
00001000
00000000
,
00000001
00000000
00000100
00000000
,
00001000
00000000
00010000
00000000
,
00100000
00000000
10000000
00000000
,
00010000
00000000
10000000
01000000
,
10000000
00000000
00100000
00000000
,
01000000
00000000
00001000
00010000
,
00001000
00000000
00010000
00000000
,
00000100
00000000
00000010
00000000
,
00000001
00000000
00001000
00000000
,
00000001
00000001
00000001
00000000
,
00000100
00000000
00000000
00000010
,
00000100
00000010
00000000
00000000
,
00010000
00000000
00001000
00000000
,
00010000
00001000
00000000
00000000
,
00100000
00000000
00010000
00000000
,
00100000
01000000
00000000
00000000
,
10000000
00000000
00010000
00000000
,
10000000
10000000
00010000
00000000
,
01000000
00000000
00100000
00000000
,
01000000
01000000
00001000
00000000
,
00010000
00000000
00001000
00000000
,
00010000
00010000
00001000
00000000
,
00010000
00000000
00000100
00000000
,
00001000
00001000
00000010
00000000
,
00000100
00000000
00000010
00000000
,
00001000
00000100
00001000
00000000
,
00000001
00000000
00000000
00000000
;

//---------------dance-double - ----------------
#NOTES:
     dance-double:
     :
     Medium:
     4:
     :
00000000
00000000
00000000
00000000
,
00000000
00000000
00000000
00000000
,
00000000
00000000
00000000
00000000
,
00000200
00000310
00000200
00001300
,
00000010
00000100
00000001
00000100
00000000
00000000
00000000
00000000
,
00000020
00000130
00000020
00010030
,
00001000
00000000
00000000
00010000
00000000
00000000
00000000
00000000
,
02000000
03100000
02000000
13000000
,
00010000
01000000
00100000
10000000
00000000
00000000
00010000
00000000
,
00200000
01000000
00000000
01300000
,
00100000
00000000
00000000
00001000
00000000
00000000
00010000
00000000
,
00002000
00010000
00000000
00013000
,
00001000
00000000
00000000
00000100
00000000
00000000
00000001
00001000
,
00000200
00000010
00000000
00000310
,
00000100
00000000
00000000
00001000
00000000
00000000
00000001
00000000
,
00000100
00001000
00010000
00000000
00000000
00100000
00000000
00000000
,
01000000
00000000
00000000
00010000
00000000
00000000
00000000
00000000
,
00100000
01000000
20000000
00000000
30000000
00000000
00000000
00000000
,
00010000
10000000
00010000
00000000
01000000
00000000
00100000
00000000
,
01000000
00001000
00020000
00000000
00030000
00000000
00000000
00000000
,
00000100
00000000
00000000
00000010
00000000
00000000
00000000
00000000
,
00000100
00001000
00000020
00000000
00000030
00000000
00000000
00000000
,
00000100
00000001
00000100
00000000
00000010
00000000
00001000
00000000
,
00000100
00000010
00000002
00000000
00000003
00000000
00000000
00000000
,
00000100
00000000
00000000
00001000
00000000
00000000
00000000
00000000
,
00010000
00000000
00001000
00000000
00010000
01000000
00100000
00000000
,
00020000
00000000
01030000
00000000
,
00100000
10000000
00010000
00000000
01000000
00000000
01000000
00000000
,
00100000
10000000
02000000
03000000
,
00100000
00001000
00010000
00001000
,
00010000
00000100
00000010
00000000
00000001
00000000
00001000
00000000
,
00000020
00000030
00000020
00000030
,
00000100
00000000
00000001
00000000
00001000
00000100
00001000
00000000
,
00000010
00000000
00000100
00000000
00001000
01000000
00100000
00000000
,
00020000
00030000
00200000
01300000
,
10000000
00010000
10000000
00000000
00100000
00000000
01000000
00000000
,
00010000
10000000
01000000
00000000
,
20000000
30000000
00200000
00300000
,
01000000
00010000
00100000
00001000
,
00020000
00000000
00000000
00030000
,
00002000
00000000
00000000
00013000
,
00000200
00000010
00000000
00000310
,
00000100
00000000
00000000
00001000
00000000
00000000
00000001
00000000
,
00000200
00000010
00000000
00000310
,
00001000
00000000
00000000
00000100
00000000
00000000
00010000
00001000
,
00020000
00001000
00000000
00031000
,
01000000
00000000
00000000
00100000
00000000
00000000
01000000
00000000
,
00010000
00100000
01000000
00000000
00000000
00100000
00000000
00000000
,
00010000
00000000
00000000
10000000
00000000
00000000
00000000
00000000
,
00010000
01000000
00002000
00000000
00003000
00000000
00000000
00000000
,
00010000
00001000
00010000
00000000
00000100
00000000
00001000
00000000
,
00000010
00000100
00000002
00000000
00000003
00000000
00000000
00000000
,
00000100
00000000
00000000
00000010
00000000
00000000
00000000
00000000
,
00001000
00000100
00000020
00000000
00000030
00000000
00000000
00000000
,
00000100
00010000
00000100
00000000
00010000
00000000
00001000
00000000
,
00010000
00001000
00200000
00000000
00000000
00000000
00000000
00000000
,
00310000
00000000
00000000
00000000
;

//---------------dance-double - ----------------
#NOTES:
     dance-double:
     :
     Hard:
     7:
     :
00000000
00000000
00000000
00000000
,
00000000
00000000
00000000
00000000
,
00000000
00000000
00000000
00000000
,
00001000
00000000
00000010
00000000
,
00001000
00000001
00000000
00000010
00000000
00000100
00000000
00000000
,
00010000
00001000
00010000
01000000
,
10000000
00000000
00100000
10000000
00000000
00010000
01000000
00000000
,
00010000
00100000
01000000
10000000
,
01000000
00100000
00000000
00001000
00000000
00010000
00001000
00000100
,
00000010
00000200
00000000
00000301
,
00000010
00000000
00000001
00000100
00000000
00000100
00000001
00000010
,
00000100
00002000
00000000
00003010
,
00000100
00000000
00010000
00001000
00000000
00000000
00001000
00010000
,
00001000
00200000
00000000
00310000
,
10000000
01000000
00000000
10000000
00000000
00100000
01000000
00010000
,
10000000
01000000
00010000
00000000
00000000
00001000
00000000
00000010
,
00000100
00000000
00001000
00000010
00000000
00001000
00000100
00000000
,
00001000
00000001
00000100
00000000
00000001
00000000
00000010
00000000
,
00000100
00000010
00000001
00000100
00001000
00010000
00100000
10000000
,
01000000
00100000
02000000
00000000
00000000
13000000
00000000
00010000
,
01000000
00000000
00100000
10000000
00000000
00100000
00000000
01000000
,
00010000
00100000
00002000
00000000
00000000
00003000
00000000
00000100
,
00001000
00000100
00001000
00000001
00000010
00000001
00000100
00000010
,
00001000
00000100
00000020
00000000
00000000
00001000
00000030
00000100
,
00001000
00000000
00000010
00010000
00000000
00000000
00001000
00000000
,
00010000
00001000
00000100
00000000
00010000
00000000
01000000
00000000
,
00100000
00010000
01000000
00100000
01000000
00100000
10000000
00000000
,
01000000
10000000
00100000
00000000
01000000
00010000
00100000
00000000
,
01000000
10000000
01000000
00010000
00001000
00000100
00000001
00000000
,
00001000
00000000
00000001
00000000
00000100
00000001
00001000
00000000
,
00000010
00000010
00000010
00001000
00000010
00000100
00000010
00000000
,
00000010
00000100
00001000
00010000
00001000
00100000
00100000
00000000
,
00010000
00100000
01000000
10000000
01000000
00000000
00110000
00000000
,
11000000
10000000
00100000
00000000
01000000
00010000
01000000
00000000
,
00020000
00230000
00302000
00013000
,
00000100
00000010
00000100
00000000
00001000
00000000
00000010
00000000
,
00000100
00000001
00000010
00000001
00000100
00000000
00001000
00000000
,
00010000
00001000
01000000
00000000
01000000
00100000
10000000
00000000
,
00010000
10000000
00010000
00100000
00001000
00000000
00010000
00000000
,
00020000
00000000
00000000
00000000
,
00000200
00000000
00000000
00030300
,
00000010
00000002
00000000
00001003
,
00000010
00000000
00000100
00000001
00000000
00000100
00000010
00001000
,
00000100
00020000
00000000
00031000
,
00000100
00000000
00000010
00001000
00000000
00000000
00000100
00001000
,
00000010
00020000
00000000
01030000
,
00100000
00010000
00000000
01000000
00000000
00010000
00100000
01000000
,
10000000
00010000
01000000
00000000
00000000
00100000
00000000
01000000
,
00010000
00000000
10000000
01000000
00000000
00100000
00001000
00000000
,
00000010
00000100
00001000
00000000
00000001
00000000
00000100
00000000
,
00000010
00000100
00000001
00001000
00000100
00000010
00000100
00001000
,
00000001
00001000
00000200
00000000
00000000
00010000
00000300
00010000
,
00001000
00000000
00000100
00000010
00000000
00010000
00000000
00001000
,
00100000
00010000
20000000
00000000
00000000
00000000
30000000
01000000
,
10000000
00010000
00100000
00010000
01000000
00100000
10000000
00010000
,
00100000
00001000
00020000
00000000
00000000
00001000
00030000
00001000
,
00010000
00000000
00000000
00000000
;
