
//----- song ID: etos -----
#TITLE:EtoSharu;
#ARTIST:oo39.com;
#BANNER:EtoSharu.png;
#BACKGROUND:EtoSharu-bg.png;
#CDTITLE:./CDTitles/DDR UNIVERSE3.png;
#MUSIC:EtoSharu.ogg;
#OFFSET:-0.001;
#SAMPLESTART:41.233;
#SAMPLELENGTH:15;
#BPMS:0=128;
#NOTES:
     dance-single:
     :
     Beginner:
     1:
     :
0000
0000
0000
0000
,
0000
0000
0000
0000
,
0001
0000
0000
0000
,
1000
0000
0000
0000
,
0010
0000
0000
0000
,
0100
0000
0100
0000
,
0001
0000
0001
0000
,
1000
0000
1000
0000
,
0100
0000
0100
0000
,
0010
0000
0010
0000
,
0110
0000
0000
0000
,
1001
0000
0000
0000
,
0010
0000
0010
0000
,
0110
0000
0000
0000
,
1000
0000
1000
0000
,
0010
0000
0010
0000
,
2000
0000
0000
3000
,
0002
0000
0000
0003
,
1000
0000
1000
0000
,
0100
0000
0010
0000
,
0001
0000
0001
0000
,
1001
0000
0000
0000
,
0110
0000
0000
0000
,
0100
0000
0001
0000
,
0010
0000
0010
0000
,
0100
0000
0100
0000
,
1000
0000
0001
0000
,
0001
0000
0100
0000
,
1000
0000
0100
0000
,
0001
0000
1000
0000
,
0100
0000
0000
0010
,
0000
0000
0100
0000
,
0000
1000
0000
0000
,
0001
0000
0000
1000
,
0000
0000
0010
0000
,
0000
0100
0000
0000
,
0010
0000
0000
0000
,
1000
0000
0001
0000
,
0010
0000
0010
0000
,
0100
0000
1000
0000
,
0001
0000
0001
0000
,
1000
0000
1000
0000
,
0010
0000
0100
0000
,
0001
0000
0001
0000
,
0010
0000
0010
0000
,
0100
0000
1000
0000
,
0001
0000
0001
0000
,
0100
0000
0010
0000
,
1000
0000
1000
0000
,
0010
0000
0010
0000
,
0100
0000
0100
0000
,
0002
0000
0000
0003
;
#NOTES:
     dance-single:
     :
     Easy:
     3:
     :
0000
0000
0000
0000
,
0000
0000
0000
0000
,
0001
0001
0000
1000
,
0100
0100
0000
0100
,
0010
0010
0000
0001
,
1000
1000
0010
0010
,
1000
1000
0100
0000
,
0010
0001
0010
0000
,
0100
0100
1000
0000
,
0010
1000
0010
1000
,
0001
0000
1000
0000
,
0100
0000
0010
0000
,
0001
1000
0001
1000
,
0010
0000
0010
0000
,
1001
0000
0001
0000
,
0100
0000
0010
0000
,
0110
0000
0100
0000
,
0001
1000
0100
0000
,
0010
0000
0001
0000
,
0010
0100
1000
0000
,
0010
0000
0100
0000
,
0001
1000
0001
1000
,
0010
0000
0100
0000
,
0001
0000
0010
0100
,
1000
0000
0001
0000
,
0100
0000
0010
1000
,
0010
0100
0001
0000
,
0001
0100
0010
0000
,
1000
0100
0001
0000
,
0001
0100
1000
0000
,
0001
0000
0000
1000
,
0000
0000
0100
0000
,
0000
0010
0000
0000
,
0001
0000
0000
1000
,
0000
0000
0010
0000
,
0000
0100
0000
0000
,
0002
0000
0000
0003
,
1000
0100
0010
0000
,
0001
0010
0100
0000
,
1000
0000
0001
0000
,
0100
0010
1000
0001
,
1001
0000
1000
0000
,
0100
0000
0010
0001
,
0010
0000
0100
0000
,
1000
0001
1000
0001
,
0010
0000
0100
0000
,
1000
0000
0001
0000
,
0100
0000
0010
0000
,
1000
0000
0100
0000
,
0010
0010
0001
0001
,
1000
1000
0001
0001
,
2000
0000
0000
0000
,
0000
0000
0000
3000
;
#NOTES:
     dance-single:
     :
     Medium:
     5:
     :
0000
0000
0000
0000
,
0000
0000
0000
0000
,
1000
1001
0000
0001
,
0100
0110
0000
0010
,
1000
1100
0000
0010
,
0001
0000
0010
0000
0100
1000
0100
1000
,
0001
0000
0100
0010
0000
0000
1000
0000
,
0001
0000
0100
0010
0000
0010
1000
0000
,
0100
0000
0010
0001
0000
0000
0010
0000
,
0100
0000
1000
0001
0000
0100
0001
0000
,
1000
0100
0010
0000
0001
0010
0000
0010
,
0001
0100
0010
0000
1000
0010
0000
0100
,
0010
1000
0001
0000
0010
0100
1000
0000
,
0100
0010
0001
1000
0000
1000
0001
1000
,
0010
0100
0001
0000
1000
0100
0000
0100
,
0010
0001
0000
0100
0010
1000
0100
1000
,
0002
0010
1003
0200
,
0301
0100
0001
0100
0020
0000
0000
0000
,
1030
0000
0001
0100
0000
0010
1000
0000
,
0100
0010
0001
1000
,
0010
0000
0100
0001
0000
1000
0100
0000
,
1001
0110
1001
0110
,
0001
0010
0100
0000
1000
0020
0000
0000
,
0130
0000
0001
1000
0000
1000
0001
0000
,
0010
0100
1000
0000
1000
0100
0010
0000
,
0001
0100
0000
1000
0100
0000
0001
0010
,
0200
0000
1300
0001
0010
0000
0010
0001
,
1000
0000
0010
0100
0001
0000
0001
0100
,
1000
0000
1000
0100
0010
0000
1000
0010
,
0100
0000
0001
1000
0001
0000
1000
0100
,
0010
0000
0000
0001
0000
0000
0100
0000
,
0000
0010
0000
0000
1010
0000
0000
0110
,
0000
0000
0101
0000
0000
1001
0000
0000
,
1100
0000
0000
0110
0000
0000
0011
0000
,
0000
0101
0000
0000
0011
0000
0000
0101
,
0000
0000
0011
0000
0000
0101
0000
0000
,
1000
0000
0100
0000
0010
0001
1000
0100
,
0010
0000
0001
1000
0000
1000
0010
0000
,
0100
0001
0000
1000
0100
0000
0010
0001
,
1000
0000
0001
0010
0000
0010
0100
0000
,
1000
0000
0001
0000
1000
0010
0100
0010
,
1000
0000
0100
0010
0000
0001
0100
0000
,
0010
1000
0000
1000
0001
0000
0100
0010
,
1000
0000
0010
0100
0000
0001
0100
0000
,
0010
1000
0000
1000
0100
0000
0010
0001
,
1000
0000
0010
0100
0001
0000
0010
0000
,
0100
0000
1000
0010
1000
0000
0001
0100
,
0001
1000
0100
0000
1000
0001
0100
0000
,
0010
1000
0001
0000
0010
0001
1000
0000
,
0100
0001
0100
0000
1000
0100
1000
0000
,
0010
0001
0010
0000
1000
0010
1000
0000
,
0002
0000
0000
0000
,
0000
0000
0000
0000
0000
0003
0000
0000
;
#NOTES:
     dance-single:
     :
     Hard:
     7:
     :
0000
0000
0000
0000
,
0000
0000
0000
0000
,
0001
1000
0001
0000
0000
0000
1000
0000
,
0100
0000
0010
0000
0001
0000
0000
0001
0000
0000
0000
0000
0010
0000
0000
0000
,
0100
1000
0010
0000
0000
0000
0100
0000
,
0001
0000
1000
0000
0100
0000
0010
0000
0001
0000
0000
1000
0000
0000
0010
0000
,
0100
0001
0010
0100
0000
0100
0010
0000
,
0100
0000
1000
0000
0010
0000
0100
0000
0000
0001
0000
0000
1000
0000
0000
0000
,
0010
0100
0001
0010
0000
0100
1000
0000
,
0010
1000
0001
0100
0000
0010
1000
0100
,
0010
0010
0001
1000
0010
0000
0100
0001
,
1000
0000
0010
0000
0100
0000
0001
0000
0010
0000
0000
0100
0000
0000
1000
0000
,
0100
0010
0001
1000
0100
0010
0001
0100
,
0010
0000
0000
0000
1000
0000
0000
0001
0000
0000
0010
0000
0100
0000
1000
0001
,
1000
0000
0010
0000
0010
0000
0100
0000
0001
0000
0000
1000
0000
0000
0100
0000
,
0020
0000
0000
0032
0000
0000
1003
0000
0000
0000
0010
0000
0100
0000
0001
0000
,
2000
0100
0100
3002
,
0103
0010
1000
0001
0200
0000
0000
0000
,
0301
0100
0010
1000
0000
0010
0100
0001
,
0000
0000
0010
0000
0000
0100
0000
0000
1000
0000
0000
0001
0000
0001
0100
0000
,
0010
0000
1000
0000
0010
0000
0100
0000
0000
0000
0001
0000
0000
0010
0000
0000
,
1001
0110
0101
1100
,
1001
1000
0010
0100
0001
0020
0000
0000
,
0130
0000
1000
0001
0100
0010
1000
0100
,
0010
0001
0100
1000
0100
0001
0010
0001
,
0200
0000
0000
0320
0000
0000
2030
0000
0000
3002
0000
0000
1003
0000
0100
0000
,
0020
0000
0031
1000
0100
1000
0010
1000
,
0001
0000
0001
0010
0100
0000
1000
0100
,
0001
0100
0010
0100
1000
0000
0001
0100
,
1000
0100
0010
1000
1000
0001
0010
0100
,
2000
0000
3000
0002
0000
0003
0200
0000
,
0300
0020
0000
0030
2010
0000
3000
0210
,
0000
0300
0102
0000
0003
2001
0000
3000
,
1200
0000
0300
0120
0000
0030
0012
0000
,
0003
2010
0000
3000
0012
0000
0003
2010
,
0000
3000
0012
0000
0003
2010
0000
3000
,
0001
0000
1000
0000
0010
0100
0001
0010
,
0100
1000
0010
0100
0000
0001
0010
1000
,
0000
0000
0010
0000
0000
0001
0000
0000
0100
0000
0000
0010
0000
0010
1000
0000
,
0001
1000
0100
0001
0000
0100
1000
0010
,
1000
0001
1000
0100
0001
0100
1000
0010
,
0100
0001
0010
0100
0000
1000
0010
0100
,
0001
0000
0100
0000
0000
0010
0000
0000
1000
0000
0000
0100
0000
0100
0010
0000
,
0001
1000
0100
0001
0000
0100
0010
0001
,
0100
0000
0010
0000
0000
1000
0000
0000
0001
0000
0000
0010
0000
0000
0100
0000
,
1000
0001
0100
0001
0010
0100
0010
0001
,
1000
0100
0001
0100
1000
0010
0100
0010
,
1000
0000
0000
0001
0000
0000
0010
0000
0100
0000
0000
1000
0000
0000
0010
0000
,
0100
0000
0000
0001
0000
0000
0010
0000
0100
0000
0000
1000
0000
0000
0001
0000
,
1000
0000
0000
0010
0000
0000
0100
0000
0001
0000
0000
1000
0000
0000
0100
0000
,
0010
0000
0000
0001
0000
0000
0010
0000
0100
0000
0000
1000
0000
0000
0001
0000
,
0200
0000
0000
0000
,
0000
0000
0000
0000
0000
0310
0000
0000
;
#NOTES:
     dance-single:
     :
     Challenge:
     9:
     :
0000
0000
0000
0000
,
0000
0000
0000
0000
,
1000
0001
0101
0000
0000
0000
0100
0000
,
0001
0000
1000
0000
1100
0000
0000
0100
0000
0000
0000
0000
0010
0000
0000
0001
,
1000
0010
0110
0000
0000
0000
1000
0000
,
0100
0000
0010
0000
0011
0000
0001
0000
1000
0001
0000
1000
0000
0010
0100
0010
,
0100
0000
0001
0000
1000
0000
0002
0000
0000
0103
0010
0000
1000
0000
0000
0000
,
0100
0000
0010
0001
0000
0000
0010
0100
0000
0100
1000
0000
0001
0010
0000
0010
,
0001
0000
1000
0000
0010
0000
0200
0000
0000
0301
1000
0000
0100
0000
0000
0000
,
0010
0000
0001
1000
0000
0000
0001
0100
0001
0100
0000
0010
0000
1000
0001
1000
,
0100
0000
0100
0000
1000
0001
0100
0010
0000
1000
0001
0000
0010
0000
0100
0000
,
1000
0000
0100
0000
0010
0000
0001
0000
0100
0010
0100
0001
0000
1000
0000
0000
,
0001
0000
0010
0000
0100
0000
1000
0001
0000
0100
0010
0000
1000
0100
0000
0100
,
0010
0000
0001
0000
1000
0000
0010
0100
0000
0000
0002
0000
1003
0000
0001
1000
,
0001
0000
0100
0010
0100
0000
0010
0000
1000
0000
0000
0100
0000
0000
0010
0000
,
0011
0000
0000
0110
0000
0000
1100
0000
0000
0000
1000
0000
0001
0000
0100
0001
,
0200
0000
0000
0000
0010
0000
0000
0000
0010
0000
0000
0000
0310
2000
0000
0000
,
3100
0000
0020
0000
0130
0000
0200
0000
1300
0002
0000
0000
0000
0000
0000
0000
,
1003
0000
0010
0100
0000
0001
0000
0000
0000
1000
0100
0000
0010
0001
0000
0000
,
0000
0000
1100
0000
0000
0101
0000
0000
1010
0000
0000
0011
0000
0002
0000
0000
,
1003
0000
0100
0010
0000
0100
0000
0000
0000
1000
0001
0000
0000
0101
0000
0000
,
0110
1001
1100
0011
,
1010
0000
0010
0000
0100
0001
0000
1000
0000
0000
1020
0000
0000
0000
0030
0000
,
0101
0000
0000
0100
0010
0000
1000
0000
0100
0010
0000
0001
0000
1000
0100
1000
,
0001
0000
0100
0000
0010
0000
1000
0010
0000
0010
0000
1000
0010
0000
1000
0010
,
0200
0000
0000
0302
0000
0000
0023
0000
0000
0230
0000
0000
1300
0000
0001
0000
,
0200
0000
0000
0000
0310
0000
1000
0001
0000
0001
0000
1000
0001
0000
1000
0000
,
0100
0000
0010
0001
0000
0001
0000
0010
0100
0000
1000
0000
0001
0000
0100
0010
,
0000
0010
0000
1000
0010
0000
0100
0000
0001
0000
0100
0001
0000
0001
0000
1000
,
0100
0000
0010
0000
0001
0000
1000
0100
1000
0000
0001
0000
0100
0000
0010
0000
,
2000
0000
3100
0200
0000
0310
0020
0000
,
0031
0002
0000
0103
0201
0000
0310
0120
,
0000
1030
2010
0000
3001
1002
0000
0013
,
0021
0000
0130
0210
0000
1300
2100
0000
,
3001
0102
0000
1003
2100
0000
3001
0102
,
0000
1003
2100
0000
3001
0102
0000
1003
,
0100
0000
0000
0000
0100
0000
0000
0000
0010
0001
0000
0001
0000
1000
0100
1000
,
0001
0000
0100
0010
0000
1000
0000
0000
0000
0100
0010
0000
0000
0001
0000
0000
,
0000
0000
1010
0000
0000
1100
0000
0000
0011
0000
0000
0101
0000
0020
0000
0000
,
1030
0000
0001
0010
0000
0100
0000
0000
0000
1000
0010
0000
0000
0100
0000
0000
,
0001
0000
1000
0000
0001
0100
0000
0000
0001
0010
0000
0010
0002
0000
0000
1003
,
0010
0000
0100
0000
0001
0000
1000
0100
0000
0010
0001
0000
0001
0100
0000
0010
,
1000
0000
1010
0000
0000
0110
0000
0000
0101
0000
0000
1100
0000
0020
0000
0000
,
0031
0000
1000
0010
0000
0100
0000
0000
0000
0001
1000
0000
0000
0100
0000
0000
,
0010
0000
0011
0000
0000
1001
0000
0000
1010
0000
0000
0110
0000
0000
0010
0100
,
0001
0000
0100
0010
0000
0010
0000
0010
1000
0000
0001
0010
0000
0010
0100
0000
,
1000
0000
0100
0010
0000
0010
0000
0010
0001
0000
1000
0000
0010
0100
0001
0000
,
1000
0100
1000
0100
0000
0000
0010
0000
0001
1000
0000
0010
0000
1000
0001
0000
,
0010
0100
0010
0100
0000
0000
1000
0000
0001
0010
0000
0100
0000
0000
1000
0000
,
0001
0100
0001
0100
0000
0000
0010
0000
1000
0001
0000
0010
0001
0000
0100
0000
,
0010
1000
0010
1000
0000
0000
0001
0000
0010
0100
0010
0100
0000
0000
1000
0000
,
0002
0000
0000
0000
0000
0000
0000
0000
0000
0000
0000
0000
0000
2003
0000
0000
,
0000
0000
0000
0000
0000
3100
0000
0000
;
#NOTES:
     dance-double:
     :
     Beginner:
     1:
     :
00000000
00000000
00000000
00000000
,
00000000
00000000
00000000
00000000
,
10000000
00000000
00000000
00000000
,
00010000
00000000
00000000
00000000
,
01000000
00000000
00000000
00000000
,
00001000
00000000
00010000
00000000
,
00001000
00000000
00000000
00000000
,
00010000
00000000
00000000
00000000
,
00000100
00000000
00000000
00000000
,
00000010
00000000
00000000
00000000
,
00000001
00000000
00001000
00000000
,
00000001
00000000
00000000
00000000
,
00000100
00000000
00000010
00000000
,
00010000
00000000
00000000
00000000
,
00001000
00000000
00000000
00000000
,
00100000
00000000
00000000
00000000
,
00010000
00000000
00000000
00000000
,
10000000
00000000
00000000
00000000
,
01000000
00000000
01000000
00000000
,
00100000
00000000
00000000
00000000
,
00001000
00000000
00001000
00000000
,
00020000
00000000
00000000
00030000
,
00010000
00000000
00000000
00000000
,
00000010
00000000
00000000
00000000
,
00002000
00000000
00000000
00003000
,
00000000
00000000
00000000
00000000
,
00000001
00000000
00000000
00000000
,
00000010
00000000
00000000
00000000
,
00000100
00000000
00000000
00000000
,
00010000
00000000
00000000
00000000
,
00001000
00000000
00000000
00100000
,
00000000
00000000
00010000
00000000
,
00000000
01000000
00000000
00000000
,
00100000
00000000
00000000
10000000
,
00000000
00000000
01000000
00000000
,
00000000
00100000
00000000
00000000
,
00002000
00000000
00000000
00003000
,
00001000
00000000
00000000
00000000
,
00010000
00000000
00001000
00000000
,
00010000
00000000
00000000
00000000
,
00000100
00000000
00000000
00000000
,
00000010
00000000
00000001
00000000
,
00000010
00000000
00000000
00000000
,
00000100
00000000
00000000
00000000
,
00010000
00000000
00000000
00000000
,
00001000
00000000
01000000
00000000
,
00001000
00000000
00000000
00000000
,
00010000
00000000
00001000
00000000
,
00100000
00000000
00010000
00000000
,
01000000
00000000
00100000
00000000
,
10000000
00000000
01000000
00000000
,
00200000
00000000
00000000
00300000
;
#NOTES:
     dance-double:
     :
     Easy:
     3:
     :
00000000
00000000
00000000
00000000
,
00000000
00000000
00000000
00000000
,
10000000
01000000
00000000
00000000
,
00100000
00001000
00000000
00000000
,
00010000
00001000
00000000
00000000
,
00010000
00000010
00000000
00000000
,
00001000
00000000
00000001
00000000
,
00000010
00000000
00000100
00000100
,
00010000
00000000
00001000
00000000
,
01000000
00000000
00100000
00100000
,
10000000
00000000
01000000
00000000
,
00010000
00000000
01000000
00000000
,
10000000
01000000
00100000
00000000
,
00001000
00010000
00001000
00000000
,
00010000
00000000
00000010
00000000
,
00001000
00000000
00001000
00000000
,
00000100
00000010
00000100
00000000
,
00001000
00000001
00001000
00000000
,
00000010
00001000
00000000
00000010
,
00001000
00000000
00000100
00000000
,
00010000
00001000
00000000
00010000
,
00001000
00001000
00001000
00001000
,
01000000
00000000
00100000
00000000
,
10000000
01000000
10000000
00000000
,
00020000
00000000
00000000
00030000
,
02000000
00000000
00000000
03000000
,
00002000
00000000
00000000
00003000
,
00010000
00000000
00000100
00000000
,
00000010
00000000
00000001
00000000
,
00000100
00000000
00000010
00010000
,
00001000
00000000
00000000
01000000
,
00000000
00000000
00100000
00000000
,
00000000
10000000
00000000
00000000
,
01000000
00000000
00000000
00010000
,
00000000
00000000
00001000
00000000
,
00000000
00000010
00000000
00000000
,
00000001
00000000
00001000
00001000
,
00000010
00000000
00001000
00000100
,
00010000
00000000
00001000
00000000
,
01000000
00000000
00100000
10000000
,
00010000
00010000
10000000
10000000
,
01000000
00000000
00100000
00001000
,
00010000
00000000
00000010
00000000
,
00001000
00000000
00000001
00000010
,
00000100
00000000
00010000
00000000
,
00001000
01000000
00100000
00000000
,
10000000
01000000
00100000
00000000
,
00001000
00000000
00010000
00000000
,
00000100
00000000
00000010
00000000
,
00000001
00000000
00000100
00000000
,
00001000
00000000
00010000
00000000
,
00022000
00000000
00000000
00000000
,
00000000
00000000
00000000
00033000
;
#NOTES:
     dance-double:
     :
     Medium:
     5:
     :
00000000
00000000
00000000
00000000
,
00000000
00000000
00000000
00000000
,
00001001
00001000
00000000
00000010
,
00010010
00010000
00000000
00001000
,
00101000
00100000
00000000
00010000
,
10010000
00000000
10000000
00000000
01000000
00000000
00100000
00010000
,
00100000
00000000
00001000
00100000
00000000
00000000
00001000
00000000
,
00010000
00000000
00000010
00001000
00000000
00000010
00001000
00000000
,
00000001
00000000
00000010
00000100
00000000
00000000
00010000
00000000
,
00001000
00000000
01000000
00100000
00000000
00100000
10000000
00000000
,
01000000
00000000
00100000
00000000
00001000
00010000
00000000
00001000
,
00010000
00000000
00000010
00000000
00001000
00000001
00000000
00000001
,
00000010
00000000
00000100
00000000
00010000
00001000
00010000
00000000
,
00001000
00000000
01000000
00010000
00000000
00010000
10000000
00010000
,
10000000
00000000
01000000
00000000
00010000
00001000
00000000
00010000
,
00000010
00010000
00000000
00000010
00001000
00000000
00000001
00000100
,
00002000
00003100
00000001
00002000
,
00003100
00000000
00010000
00001000
00020000
00000000
00030000
00000000
,
00001000
00000000
01000000
00100000
00000000
00100000
10000000
00000000
,
00010000
01000000
10000000
01000000
,
00010000
00000000
00100000
00001000
00000000
00010000
00001000
00000000
,
00011000
00010010
00011000
00010100
,
00001000
00000000
00000100
00000010
00000001
00000010
00000000
00000000
,
00000100
00000000
00010000
00001000
00000000
00010000
00001000
00000000
,
01000000
00000000
00100000
00000000
10000000
00010000
10000000
00000000
,
01000000
00100000
00000000
00100000
00010000
00000000
00100000
00001000
,
00020000
00000000
00031000
00010000
00000100
00000000
00000010
00000001
,
00000010
00000000
00000100
00010000
00000100
00000000
00010000
00001000
,
00010000
00000000
00001000
00100000
00001000
00000000
00100000
00010000
,
00100000
00000000
00010000
01000000
00100000
00000000
00100000
10000000
,
01000000
00000000
00000000
00100000
00000000
00000000
00001000
00000000
,
00000000
00010000
00000000
00000000
00000020
00000000
00000030
00002000
,
00000000
00003000
00000002
00000000
00000003
00000020
00000000
00000030
,
00000200
00000000
00000300
00020000
00000000
00030000
00002000
00000000
,
00003000
02000000
00000000
03000000
00200000
00000000
00300000
20000000
,
00000000
30000000
02000000
00000000
03000000
00200000
00000000
00300000
,
00010000
00000000
00010000
00000000
00100000
01000000
00100000
01000000
,
10000000
00000000
00100000
01000000
00000000
00010000
01000000
00000000
,
00001000
00010000
00000000
00010000
00001000
00000000
00010000
00000100
,
00000010
00000000
00000001
00001000
00000000
00000001
00001000
00000000
,
00000010
00000000
00010000
00000000
00001000
00010000
00001000
00010000
,
00001000
00000000
01000000
00100000
00000000
10000000
00100000
00000000
,
10000000
01000000
00000000
01000000
00010000
00000000
01000000
00100000
,
01000000
00000000
00100000
00001000
00000000
00001000
00010000
00000000
,
00000100
00001000
00000000
00001000
00000010
00000000
00000100
00000001
,
00001000
00000000
00000100
00010000
00000100
00000000
00010000
00000000
,
00001000
00000000
01000000
00010000
01000000
00000000
00100000
10000000
,
00100000
01000000
00100000
00000000
10000000
00000000
01000000
00000000
,
00100000
00010000
00100000
00000000
00001000
00000000
00010000
00000000
,
00000010
00001000
00000010
00000000
00010000
00000000
00001000
00000000
,
01000000
00010000
01000000
00000000
00100000
01000000
00100000
00000000
,
20000000
00000000
00000000
00000000
,
00000000
00000000
00000000
00000000
00000000
30000000
00000000
00000000
;
#NOTES:
     dance-double:
     :
     Hard:
     7:
     :
00000000
00000000
00000000
00000000
,
00000000
00000000
00000000
00000000
,
10000000
01000000
10000000
00000000
00000000
00000000
01000000
00000000
,
00100000
00001000
00010000
00000000
00000000
00000000
00000010
00000000
,
00001000
00000100
00000001
00000000
00000000
00000000
00000100
00000000
,
00001000
00000000
00000001
00000000
00000100
00000000
00001000
00000000
00010000
00000000
00000000
00001000
00000000
00000000
00100000
00000000
,
01000000
10000000
01000000
00100000
00000000
00001000
00010000
00000000
,
00000010
00000000
00001000
00000000
00000001
00000000
00000010
00000000
00000000
00001000
00000000
00000000
00000010
00000000
00000000
00000000
,
00000001
00000100
00001000
00010000
00000000
01000000
10000000
00000000
,
00100000
10000000
00100000
00010000
00000000
00001000
00010000
00000100
,
00000010
00001000
00000010
00000001
00000100
00000000
00000001
00001000
,
00000100
00000000
00010000
00000000
00001000
00000000
00100000
00000000
00010000
00000000
00000000
00100000
00000000
00000000
10000000
00000000
,
00100000
00010000
00100000
10000000
00100000
00010000
00100000
01000000
,
00010000
00000000
00000000
00000000
00001000
00000000
00000000
00010000
00000000
00000000
00000100
00000000
00000010
00000000
00000001
00000000
,
00000001
00000000
00001000
00000000
00000010
00000000
00010000
00000000
00001000
00000000
00000000
00100000
00000000
00000000
01000000
00000000
,
20000000
00000000
00000000
30200000
00000000
00000000
00310000
00000000
00000000
00000000
00001000
00000000
00010000
00000000
00000100
00000000
,
00000020
00000001
00000001
00000032
,
00000103
00000010
00001000
00000001
00000020
00000000
00000030
00000000
,
00000100
00010000
00001000
00100000
00000000
00010000
01000000
10000000
,
00000000
00000000
01000000
00000000
00000000
00010000
00000000
00000000
00100000
00000000
00000000
00001000
00000000
00000000
00010000
00000000
,
00000100
00000000
00000010
00000000
00001000
00000000
00000010
00000000
00000000
00000000
00000001
00000000
00000000
00000100
00000000
00000000
,
00001010
00011000
00110000
01010000
,
11000000
01000000
00100000
00001000
00010000
00200000
00000000
00000000
,
00310000
00000000
00000010
00010000
00001000
00000100
00001000
00010000
,
00000010
00001000
00000001
00000100
00001000
00010000
00100000
10000000
,
02000000
00000000
00000000
03020000
00000000
00000000
02030000
00000000
00000000
23000000
00000000
00000000
31000000
00000000
00100000
00000000
,
00002000
00000000
00013000
00000100
00000010
00000001
00001000
00000100
,
00000001
00000100
00001000
00000010
00000100
00000001
00000100
00001000
,
00010000
00001000
00100000
00010000
10000000
01000000
00010000
01000000
,
10000000
00010000
00100000
00001000
00010000
00000010
00001000
00010000
,
00002000
00000000
00003000
00000200
00000000
00000300
00000020
00000000
,
00000030
00000002
00000000
00000003
00000201
00000000
00000300
00000120
,
00000000
00000030
00002010
00000000
00003000
00001200
00000000
00000300
,
00020100
00000000
00030000
00012000
00000000
00003000
00201000
00000000
,
00300000
00012000
00000000
00003000
00201000
00000000
00300000
00012000
,
00000000
00003000
00201000
00000000
00300000
00012000
00000000
00003000
,
00100000
00000000
00010000
00000000
00100000
01000000
10000000
01000000
,
00010000
01000000
00100000
00001000
00000000
00010000
00000010
00001000
,
00000000
00000000
00000001
00000000
00000000
00000010
00000000
00000000
00000100
00000000
00000000
00010000
00000000
00000000
00001000
00000000
,
01000000
00100000
00010000
00100000
00000000
10000000
00010000
00100000
,
01000000
00010000
00001000
00010000
00000010
00000100
00000010
00001000
,
00000001
00000010
00001000
00010000
00000000
00001000
01000000
00100000
,
10000000
00000000
00010000
00000000
00000000
01000000
00000000
00000000
10000000
00000000
00000000
01000000
00000000
00000000
00001000
00000000
,
00010000
00000100
00000010
00001000
00000000
00000010
00000001
00000100
,
00001000
00000000
00010000
00000000
00000000
00100000
00000000
00000000
10000000
00000000
00000000
00100000
00000000
00000000
10000000
00000000
,
01000000
00010000
01000000
00100000
00001000
00010000
00001000
00000100
,
00000010
00000100
00000001
00000010
00000100
00000010
00001000
00010000
,
00001000
00000000
00000000
01000000
00000000
00000000
00100000
00000000
10000000
00000000
00000000
01000000
00000000
00000000
00010000
00000000
,
00001000
00000000
00000000
00010000
00000000
00000000
00000100
00000000
00000010
00000000
00000000
00000001
00000000
00000000
00000100
00000000
,
00001000
00000000
00000000
00000100
00000000
00000000
00000010
00000000
00010000
00000000
00000000
00001000
00000000
00000000
00100000
00000000
,
01000000
00000000
00000000
10000000
00000000
00000000
01000000
00000000
00010000
00000000
00000000
00001000
00000000
00000000
00000100
00000000
,
00000002
00000000
00000000
00000000
,
00000000
00000000
00000000
00000000
00000000
00000003
00000000
00000000
;
#NOTES:
     dance-double:
     :
     Challenge:
     9:
     :
00000000
00000000
00000000
00000000
,
00000000
00000000
00000000
00000000
,
00000001
00000010
00000110
00000000
00000000
00000000
00000100
00000000
,
00010000
00000000
00001000
00000000
00011000
00000000
00000000
01000000
00000000
00000000
00000000
00000000
00010000
00000000
00000000
01000000
,
00100000
10000000
10100000
00000000
00000000
00000000
00010000
00000000
,
00100000
00000000
00001000
00000000
00011000
00000000
00010000
00000000
00001000
00010000
00000000
00000100
00000000
00001000
00000100
00001000
,
00000100
00000000
00000010
00000000
00000001
00000000
00002000
00000000
00000000
00003001
00000100
00000000
00001000
00000000
00000000
00000000
,
00010000
00000000
01000000
10000000
00000000
00000000
01000000
00100000
00000000
01000000
10000000
00000000
00100000
00010000
00000000
00100000
,
00010000
00000000
00001000
00000000
00010000
00000000
00000020
00000000
00000000
00001030
00000100
00000000
00000001
00000000
00000000
00000000
,
00000100
00000000
00010000
00001000
00000000
00000000
01000000
00010000
01000000
00010000
00000000
01000000
00000000
00100000
10000000
00100000
,
10000000
00000000
00010000
00000000
00100000
00010000
00100000
00010000
00000000
00100000
00001000
00000000
00010000
00000000
00001000
00000000
,
00000100
00000000
00000001
00000000
00000010
00000000
00000100
00000000
00010000
00001000
00010000
00001000
00000000
00100000
00000000
00000000
,
00010000
00000000
01000000
00000000
10000000
00000000
01000000
00100000
00000000
10000000
00010000
00000000
10000000
01000000
00000000
01000000
,
00010000
00000000
00001000
00000000
00010000
00000000
00000010
00001000
00000000
00000000
00000002
00000000
00001003
00000000
00000010
00010000
,
00000010
00000000
00010000
00001000
00010000
00000000
00001000
00000000
00100000
00000000
00000000
01000000
00000000
00000000
10000000
00000000
,
11000000
00000000
00000000
01010000
00000000
00000000
01100000
00000000
00000000
00000000
00100000
00000000
00001000
00000000
00010000
00001000
,
00020000
00000000
00000000
00000000
00000010
00000000
00000000
00000000
00000010
00000000
00000000
00000000
00030010
00002000
00000000
00000000
,
00003001
00000000
00000020
00000000
00000130
00000000
00020000
00000000
00031000
00020000
00000000
00000000
00000000
00000000
00000000
00000000
,
00031000
00000000
01000000
00100000
00000000
10000000
00000000
00000000
00000000
10000000
01000000
00000000
00100000
00010000
00000000
00000000
,
00000000
00000000
00011000
00000000
00000000
00101000
00000000
00000000
00011000
00000000
00000000
00010010
00000000
00002000
00000000
00000000
,
00013000
00000000
00000100
00001000
00000000
00000010
00000000
00000000
00000000
00000100
00000001
00000000
00000000
00000110
00000000
00000000
,
00001001
00001100
00011000
01010000
,
10010000
00000000
10000000
00000000
01000000
00100000
00000000
00010000
00000000
00000000
00210000
00000000
00000000
00000000
00300000
00000000
,
00011000
00000000
00000000
00010000
00000010
00000000
00010000
00000000
00000010
00001000
00000000
00000001
00000000
00000100
00001000
00000100
,
00001000
00000000
00010000
00000000
01000000
00000000
00100000
01000000
00000000
01000000
00000000
10000000
01000000
00000000
00100000
00010000
,
20000000
00000000
00000000
32000000
00000000
00000000
03020000
00000000
00000000
00032000
00000000
00000000
00013000
00000000
00000010
00000000
,
00000002
00000000
00000000
00000000
00000013
00000000
00001000
00000100
00000000
00010000
00000000
00000100
00010000
00000000
00001000
00000000
,
01000000
00000000
00100000
10000000
00000000
10000000
00000000
00100000
01000000
00000000
10000000
00000000
01000000
00000000
00001000
00010000
,
00000000
00010000
00000000
00001000
00010000
00000000
00000100
00000000
00000010
00000000
00000001
00001000
00000000
00001000
00000000
00000100
,
00000010
00000000
00000100
00000000
00010000
00000000
00001000
00100000
00010000
00000000
10000000
00000000
00100000
00000000
01000000
00000000
,
00020000
00000000
01030000
02000000
00000000
13000000
20000000
00000000
,
31000000
02000000
00000000
03001000
00012000
00000000
00003100
00001200
,
00000000
00000301
00000102
00000000
00000013
00000021
00000000
00000130
,
00000210
00000000
00010300
00020100
00000000
00031000
00012000
00000000
,
01003000
02001000
00000000
03010000
00120000
00000000
01030000
02001000
,
00000000
03010000
00120000
00000000
01030000
02001000
00000000
03000000
,
00010000
00000000
00000000
00000000
00010000
00000000
00000000
00000000
10000000
01000000
00000000
00100000
00000000
00001000
00010000
00001000
,
00010000
00000000
00000010
00001000
00000000
00000001
00000000
00000000
00000000
00001000
00000100
00000000
00000000
00000010
00000000
00000000
,
00000000
00000000
00000011
00000000
00000000
00001100
00000000
00000000
00001010
00000000
00000000
00011000
00000000
00002000
00000000
00000000
,
00103000
00000000
00010000
00100000
00000000
10000000
00000000
00000000
00000000
10000000
00100000
00000000
00000000
00010000
00000000
00000000
,
01000000
00000000
00001000
00000000
01000000
00010000
00000000
00000000
01000000
00100000
00000000
00100000
00020000
00000000
00000000
00031000
,
00100000
00000000
00001000
00000000
00010000
00000000
00000100
00000010
00000000
00000010
00000001
00000000
00001000
00000010
00000000
00000010
,
00001000
00000000
00001010
00000000
00000000
00011000
00000000
00000000
01010000
00000000
00000000
00011000
00000000
00002000
00000000
00000000
,
01003000
00000000
00100000
10000000
00000000
01000000
00000000
00000000
00000000
00010000
10000000
00000000
00000000
00100000
00000000
00000000
,
00010000
00000000
00110000
00000000
00000000
00101000
00000000
00000000
00011000
00000000
00010100
00000000
00000000
00000000
00001000
00010000
,
00000010
00000000
00001000
00000001
00000000
00000001
00000000
00000001
00000010
00000000
00000001
00000100
00000000
00000100
00001000
00000000
,
01000000
00000000
00100000
10000000
00000000
10000000
00000000
10000000
01000000
00000000
00010000
00000000
00001000
00010000
00001000
00000000
,
00010000
00000100
00010000
00000100
00000000
00000000
00001000
00000000
00000001
00000100
00000000
00000100
00000000
00000010
00010000
00000000
,
00001000
00100000
00001000
00100000
00000000
00000000
10000000
00000000
00100000
00010000
00000000
10000000
00000000
00000000
00100000
00000000
,
01000000
00001000
01000000
00001000
00000000
00000000
00010000
00000000
00000100
00001000
00000000
00001000
00000010
00000000
00001000
00000000
,
00000001
00000100
00000001
00000100
00000000
00000000
00001000
00000000
00100000
00010000
00100000
00010000
00000000
00000000
01000000
00000000
,
00200000
00000000
00000000
00000000
00000000
00000000
00000000
00000000
00000000
00000000
00000000
00000000
00000000
20300000
00000000
00000000
,
00000000
00000000
00000000
00000000
00000000
30010000
00000000
00000000
;
