
//----- song ID: dond -----
#TITLE:Don't Don't Go Away (Ricardo Autobahn Remix);
#ARTIST:Foxxie;
#BANNER:Don't Don't Go Away (Ricardo Autobahn Remix).png;
#BACKGROUND:Don't Don't Go Away (Ricardo Autobahn Remix)-bg.png;
#CDTITLE:./CDTitles/DDR UNIVERSE3.png;
#MUSIC:Don't Don't Go Away (Ricardo Autobahn Remix).ogg;
#OFFSET:-0.001;
#SAMPLESTART:66.209;
#SAMPLELENGTH:15;
#BPMS:0=145;
#NOTES:
     dance-single:
     :
     Beginner:
     1:
     :
0000
0000
0000
0000
,
0000
0000
0000
0000
,
0000
0000
0000
0000
,
0000
0000
0000
0000
,
1000
0000
1000
0000
,
0001
0000
0000
0000
,
0001
0000
0001
0000
,
1000
0000
0000
0000
,
0010
0000
0000
0000
,
0001
0000
0000
0000
,
0100
0000
0000
0000
,
0001
0000
0000
0000
,
0010
0000
0000
0000
,
1000
0000
0000
0000
,
0100
0000
0000
0000
,
1000
0000
0000
0000
,
0001
0000
0001
0000
,
0000
0000
0000
0000
,
0100
0000
0100
0000
,
0000
0000
0000
0000
,
1000
0000
1000
0000
,
0000
0000
0000
0000
,
0010
0000
0010
0000
,
0000
0000
0000
0000
,
1000
0000
0000
0000
,
0100
0000
0000
0000
,
1000
0000
1000
0000
,
0100
0000
0000
0000
,
0001
0000
0000
0000
,
0010
0000
0000
0000
,
0001
0000
0001
0000
,
0010
0000
0000
0000
,
1000
0000
1000
0000
,
0001
0000
0001
0000
,
1000
0000
0000
0000
,
1001
0000
0000
0000
,
0010
0000
0010
0000
,
0100
0000
0100
0000
,
0010
0000
0000
0000
,
0110
0000
0000
0000
,
1000
0000
0000
0000
,
0001
0000
0000
0000
,
2002
0000
0000
3003
,
0000
0000
0000
0000
,
0010
0000
0000
0000
,
0100
0000
0000
0000
,
0220
0000
0000
0330
,
0000
0000
0000
0000
,
1000
0000
0000
0000
,
0100
0000
0000
0000
,
0010
0000
0000
0000
,
0001
0000
0000
0000
,
0001
0000
0000
0000
,
0010
0000
0000
0000
,
0100
0000
0000
0000
,
1000
0000
0000
0000
,
1000
0000
1000
0000
,
0100
0000
0100
0000
,
0001
0000
0000
0000
,
0000
0000
0000
0000
,
0001
0000
0001
0000
,
0010
0000
0010
0000
,
1000
0000
0000
0000
,
0010
0000
0000
0000
,
0110
0000
0000
0000
;
#NOTES:
     dance-single:
     :
     Easy:
     3:
     :
0000
0000
0000
0000
,
0000
0000
0000
0000
,
0000
0000
0000
0000
,
0000
0000
0000
0000
,
1000
1000
0001
0001
,
0100
0000
0000
0000
,
0001
0001
1000
1000
,
0100
0000
0000
0000
,
0010
0010
0100
0000
,
1000
0000
1001
0000
,
0001
0001
0100
0000
,
0010
0000
0110
0000
,
1000
1000
0001
0000
,
0010
0000
1001
0000
,
0100
0100
0001
0000
,
0100
0000
1001
0000
,
1000
0001
1000
0000
,
0001
1000
0001
0000
,
1000
0010
0100
0000
,
1001
0000
1000
0000
,
0100
0010
0100
0000
,
0010
0100
0010
0000
,
0100
0010
0001
0000
,
0110
0000
0100
0000
,
1000
0001
0100
0000
,
0010
1000
0010
0000
,
1000
0100
0010
0000
,
0001
0010
0001
0000
,
1000
0001
0010
0000
,
0100
1000
0100
0000
,
1000
0010
0100
0000
,
0001
0100
0001
0000
,
2000
3000
0020
0030
,
1000
0010
0100
0000
,
0002
0003
0200
0300
,
0010
1000
0001
0000
,
0020
0030
0200
0300
,
1000
0001
1000
0000
,
0002
0003
0200
0300
,
0010
1000
0001
0000
,
1000
1000
0001
0000
,
1000
0100
0010
0001
,
1000
0000
0001
0000
,
0010
0100
0110
0000
,
0001
0001
1000
0000
,
0001
0100
0010
1000
,
0001
0000
1000
0000
,
0100
0010
0110
0000
,
0001
0000
1000
0000
,
0001
1000
0100
1000
,
0010
0000
0100
0100
,
0001
1000
1001
0000
,
1000
0000
0001
0000
,
1000
0001
0010
0001
,
0100
0000
0010
0010
,
1000
0001
1001
0000
,
1000
0100
1000
0000
,
1000
0100
0001
0100
,
0010
0000
0000
0000
,
0001
0100
0110
0000
,
0010
0100
0001
0000
,
0010
0100
1000
0001
,
0100
0000
0000
0000
,
0010
1000
0001
0100
,
1001
0000
0000
0000
;
#NOTES:
     dance-single:
     :
     Medium:
     6:
     :
0000
0000
0000
0000
,
0000
0000
0000
0000
,
0000
0000
0000
0000
,
0000
0000
0000
0000
,
0010
1000
0100
0001
,
0010
0000
0000
0000
,
0010
0001
0100
1000
,
0010
0000
0000
0000
,
0000
0100
1000
0100
0000
1000
0001
1000
,
0000
1001
0000
0110
,
0000
0010
0100
0010
0000
0100
1000
0100
,
0000
1100
0000
1010
,
0000
1000
0010
0100
0000
0100
0010
1000
,
0000
1010
0000
1001
,
0000
1000
0001
0100
0000
0001
1000
0100
,
0000
1100
0000
0011
,
0000
0001
0010
0001
0000
0010
0100
0010
,
0000
0110
0000
1001
,
0000
1000
0001
1000
0000
0010
1000
0010
,
0000
1010
0000
0011
,
0000
0001
0010
0100
0000
0010
0100
1000
,
0000
1100
0000
0110
,
0000
0100
0010
0001
0000
0010
0001
0100
,
0000
0000
0101
0000
0000
0100
0001
0100
,
0010
0000
1000
0100
0001
0000
0100
1000
,
0000
0001
0000
1000
0000
0001
0010
1000
,
0000
0010
0001
0100
1000
0000
0100
0010
,
0000
0000
0110
0000
0000
0100
0001
1000
,
0000
0001
0010
0100
1000
0000
0001
1000
,
0000
0100
0000
1100
0000
1000
0100
0001
,
0000
0100
0010
0000
0010
0100
0000
0110
,
0000
1000
0001
0000
0000
1000
0001
0000
,
0010
0100
1000
0001
,
0010
0100
0010
0100
0000
1000
0100
1000
,
0000
1100
0000
1100
0000
0001
0100
0001
,
0000
0101
0000
0101
0000
0001
0100
0010
,
0000
0100
0010
1000
,
0100
0010
0100
0010
0000
0001
0010
0001
,
0000
0011
0000
0011
0000
1000
0010
1000
,
0000
1010
0000
1010
0000
0000
0000
0000
,
1100
1100
0101
0101
,
1000
0100
0001
0100
1000
0000
0001
0000
,
0011
0011
1010
1010
,
0010
0100
0000
0100
0000
0000
0000
0000
,
0001
0100
0010
1000
,
0001
0100
0010
1000
0010
0100
0001
0000
,
1000
0000
0100
0010
0100
0000
1000
0000
,
0001
0100
0000
0101
0000
0000
0000
0000
,
0101
0101
1100
1100
,
0001
0100
1000
0100
0001
0000
1000
0000
,
1010
1010
0011
0011
,
0010
0100
0000
0100
0000
0000
0000
0000
,
1000
0100
0010
0001
,
1000
0100
0010
0001
0010
0100
1000
0000
,
0001
0000
0100
0010
0100
0000
0001
0000
,
1000
0100
0000
1100
0000
0000
0000
0000
,
1100
0000
1100
0000
0100
1000
0100
0000
,
1000
0100
0010
0001
1000
0100
0010
0000
,
0002
0000
0000
0003
,
0001
0100
0100
0010
1000
0000
0000
0000
,
1010
0000
0110
0000
0010
0100
0010
0000
,
0010
1000
0001
0010
0001
1000
0010
0000
,
0200
0000
0000
0300
,
0001
1000
1000
0100
0010
0000
0000
0000
,
0110
0000
0000
0000
;
#NOTES:
     dance-single:
     :
     Hard:
     7:
     :
0000
0000
0000
0000
,
0000
0000
0000
0000
,
0000
0000
0000
0000
,
0000
0000
0000
0000
,
0100
1000
0100
1000
0001
0100
0001
0100
,
0020
0000
0000
0030
,
1000
0001
1000
0001
0010
0100
0010
0100
,
2000
0000
0000
3000
,
0000
0001
0000
0100
0000
0001
0100
0010
,
0000
0100
0010
1000
0001
1000
0001
0010
,
0000
0100
0000
1000
0000
0001
0100
0010
,
0000
1000
0100
0010
0001
0010
0001
1000
,
0000
0010
0000
0100
0000
0010
0100
0001
,
0000
1000
0100
1000
0001
0100
0001
1000
,
0000
0010
0000
1000
0000
0010
1000
0001
,
0000
1000
0001
0010
0100
1000
0100
0000
,
1000
0000
0100
0000
0010
0000
0100
1000
0000
0000
0001
0000
0100
0000
0000
0000
,
0202
0303
2020
3030
,
0010
0000
0100
0000
0001
0000
1000
0001
0000
0000
1000
0000
0100
0000
0000
0000
,
1000
0100
0010
0001
,
0100
0000
0001
0000
1000
0000
0010
0100
0000
0000
0010
0000
1000
0000
0000
0000
,
2200
3300
0202
0303
,
0001
0000
0100
0000
1000
0000
0100
0010
0000
0000
1000
0000
0001
0000
0000
0000
,
0010
0000
0100
0000
0000
1000
0100
0010
,
0000
0001
0010
1000
0010
0001
0000
0200
,
0000
0310
0000
0000
0000
0100
0001
0010
,
0000
0001
0100
1000
0100
0001
0000
1000
,
0000
0100
0010
0000
0000
0100
1000
0010
,
0000
1000
0001
0000
0001
1000
0000
1100
,
0000
0101
0000
1001
0000
0100
1000
0010
,
0000
0100
0001
0000
0001
0010
0000
0010
,
0000
0110
0110
0000
0000
0100
1000
0010
,
0000
1000
1000
1000
0001
0001
0001
0001
,
1000
0010
0100
0001
0000
0100
0010
0010
,
0000
1000
0000
0001
0100
1000
0100
0001
,
0000
0010
0100
1000
0000
0010
1000
0100
,
0000
0001
0100
1000
0010
1000
0100
0001
,
0100
0010
0001
0100
0000
0001
1000
0100
,
1000
0001
0100
0000
0010
1000
0100
0010
,
0001
0100
0000
1000
0100
0001
0010
0000
,
0011
0000
0000
0000
0011
0000
0000
0000
0001
0000
0010
0100
0000
0000
1000
0000
,
0100
0000
1000
0001
0100
0000
0001
0010
0000
0000
0001
0000
0100
0000
0000
0000
,
0010
0000
1000
0000
0100
0000
1000
0001
0000
0000
0100
0000
0010
0000
1000
0000
,
0100
0010
0000
0220
0000
0000
0330
0000
,
1010
0000
0000
0000
1010
0000
0000
0000
1000
0000
0100
0010
0000
0000
0000
0000
,
0100
0000
1000
0000
0010
0000
1000
0001
0000
0000
0010
0000
0001
0000
0000
0000
,
0010
0001
0100
0001
0010
0100
1000
0010
,
1000
0100
0000
0220
0000
0000
0330
0000
,
0101
0000
0000
0000
1100
0000
0000
0000
1000
0000
0001
0100
0000
0000
0001
0000
,
1000
0000
0010
0100
0010
0000
1000
0001
0000
0000
1000
0000
0001
0000
0000
0000
,
0010
0000
0001
0000
1000
0000
0001
0100
0000
0000
0010
0000
1000
0000
0100
0000
,
0010
0001
0000
2002
0000
0000
3003
0000
,
1100
0000
0000
0000
0101
0000
0000
0000
0100
0000
0010
1000
0000
0000
0000
0000
,
0010
0000
0100
0000
0001
0000
1000
0001
0000
0000
0010
0000
0100
0000
0000
0000
,
0010
0001
1000
0100
0001
0100
1000
0001
,
0100
0010
0000
2002
0000
0000
3003
0000
,
1001
0000
0000
0000
1001
0000
0000
0000
1000
0000
0001
0100
0000
0000
0001
0000
,
1000
0000
0100
1000
0100
0000
1000
0010
0000
0000
0100
0000
0010
0000
0000
0000
,
0220
0000
0000
0000
0000
0000
0000
0000
0000
0000
0330
0000
0000
0000
0100
0010
,
0100
0000
0001
0000
1000
0000
0001
1000
0000
0000
0000
0000
0000
0000
0000
0000
,
0101
0000
0000
0000
1100
0000
0000
0000
1000
0000
0001
0100
0000
0000
0001
0000
,
1000
0000
0100
1000
0100
0000
1000
0001
0000
0000
0100
0000
0010
0000
0000
0000
,
0220
0000
0000
0000
0000
0000
0000
0000
0000
0000
0330
0000
0000
0000
0001
0010
,
0001
0000
0010
0000
0100
0000
1000
0100
0000
0000
0000
0000
0001
0000
0000
0000
,
0100
0000
0000
0000
;
#NOTES:
     dance-double:
     :
     Beginner:
     1:
     :
00000000
00000000
00000000
00000000
,
00000000
00000000
00000000
00000000
,
00000000
00000000
00000000
00000000
,
00000000
00000000
00000000
00000000
,
10000000
00000000
10000000
00000000
,
00010000
00000000
00000000
00000000
,
00001000
00000000
00001000
00000000
,
00000001
00000000
00000000
00000000
,
00000100
00000000
00000000
00000000
,
00000010
00000000
00000000
00000000
,
00010000
00000000
00000000
00000000
,
00001000
00000000
00000000
00000000
,
00100000
00000000
00000000
00000000
,
01000000
00000000
00000000
00000000
,
10000000
00000000
00000000
00000000
,
00010000
00000000
00000000
00000000
,
01000000
00000000
01000000
00000000
,
00000000
00000000
00000000
00000000
,
00001000
00000000
00001000
00000000
,
00000000
00000000
00000000
00000000
,
00010000
00000000
00010000
00000000
,
00000000
00000000
00000000
00000000
,
00000100
00000000
00000100
00000000
,
00000000
00000000
00000000
00000000
,
00001000
00000000
00000000
00000000
,
00000001
00000000
00000000
00000000
,
00000100
00000000
00000100
00000000
,
00000010
00000000
00000000
00000000
,
00010000
00000000
00000000
00000000
,
00001000
00000000
00000000
00000000
,
01000000
00000000
01000000
00000000
,
00010000
00000000
00000000
00000000
,
00100000
00000000
00100000
00000000
,
00001000
00000000
00001000
00000000
,
00010000
00000000
00000000
00000000
,
00011000
00000000
00000000
00000000
,
00010000
00000000
00010000
00000000
,
00000100
00000000
00000100
00000000
,
00000010
00000000
00000000
00000000
,
00000110
00000000
00000000
00000000
,
00000001
00000000
00000000
00000000
,
00001000
00000000
00000000
00000000
,
00002002
00000000
00000000
00000000
,
00003003
00000000
00000000
00000000
,
00010000
00000000
00000000
00000000
,
00001000
00000000
00000000
00000000
,
00022000
00000000
00000000
00000000
,
00033000
00000000
00000000
00000000
,
00001000
00000000
00000000
00000000
,
00100000
00000000
00000000
00000000
,
01000000
00000000
00000000
00000000
,
10000000
00000000
00000000
00000000
,
00100000
00000000
00000000
00000000
,
01000000
00000000
00000000
00000000
,
00001000
00000000
00000000
00000000
,
00010000
00000000
00000000
00000000
,
00000100
00000000
00000100
00000000
,
00001000
00000000
00001000
00000000
,
00000010
00000000
00000000
00000000
,
00000000
00000000
00000000
00000000
,
00010000
00000000
00010000
00000000
,
00001000
00000000
00001000
00000000
,
00010000
00000000
00000000
00000000
,
00001000
00000000
00000000
00000000
,
00011000
00000000
00000000
00000000
;
#NOTES:
     dance-double:
     :
     Easy:
     4:
     :
00000000
00000000
00000000
00000000
,
00000000
00000000
00000000
00000000
,
00000000
00000000
00000000
00000000
,
00000000
00000000
00000000
00000000
,
00010000
00010000
00001000
00001000
,
00000010
00000000
00000000
00000000
,
00001000
00001000
00010000
00010000
,
01000000
00000000
00000000
00000000
,
10000000
01000000
00010000
00000000
,
00001000
00000000
00011000
00000000
,
00001000
00000010
00000001
00000000
,
00000010
00000000
00000110
00000000
,
00000001
00000100
00001000
00000000
,
00010000
00000000
00011000
00000000
,
00010000
00100000
10000000
00000000
,
00100000
00000000
01100000
00000000
,
01000000
00010000
01000000
00000000
,
00001000
00010000
00001000
00000000
,
00000100
00001000
00000100
00000000
,
00001000
00000000
00001001
00000000
,
00000010
00001000
00000010
00000000
,
00010000
00001000
00010000
00000000
,
00100000
00010000
00100000
00000000
,
01000000
00000000
01100000
00000000
,
10000000
01000000
00010000
00000000
,
00001000
00000100
00000001
00000000
,
00000001
00000010
00001000
00000000
,
00010000
00100000
10000000
00000000
,
10000000
00010000
01000000
00000000
,
00001000
00010000
00000010
00000000
,
00001000
00000001
00000100
00000000
,
00000010
00010000
00001000
00000000
,
02000000
03000000
00020000
00030000
,
00100000
00001000
00010000
00000000
,
00002000
00003000
00020000
00030000
,
00000100
00001000
00000010
00000000
,
00000200
00000300
00000002
00000003
,
00000010
00000100
00001000
00000000
,
00000200
00000300
00020000
00030000
,
00001000
00100000
00010000
00000000
,
10000000
10000000
00010000
00000000
,
10000000
01000000
00010000
00001000
,
00000100
00000000
00000001
00000000
,
00001000
00000001
00001001
00000000
,
00000001
00000001
00001000
00000000
,
00000001
00000100
00001000
00010000
,
01000000
00000000
10000000
00000000
,
00010000
10000000
10010000
00000000
,
10000000
00000000
00010000
00000000
,
01000000
00001000
00010000
00001000
,
00010000
00000000
00000010
00001000
,
00000001
00001000
00001001
00000000
,
00000001
00000000
00001000
00000000
,
00000010
00010000
00001000
00010000
,
00001000
00000000
00100000
00010000
,
10000000
00010000
10010000
00000000
,
10000000
01000000
10000000
00000000
,
10000000
01000000
00010000
00001000
,
00000100
00000000
00000000
00000000
,
00000001
00000010
00001000
00000000
,
00000001
00000100
00000001
00000000
,
00000001
00000100
00001000
00010000
,
01000000
00000000
00000000
00000000
,
10000000
00100000
01000000
00100000
,
01100000
00000000
00000000
00000000
;
#NOTES:
     dance-double:
     :
     Medium:
     6:
     :
00000000
00000000
00000000
00000000
,
00000000
00000000
00000000
00000000
,
00000000
00000000
00000000
00000000
,
00000000
00000000
00000000
00000000
,
10000000
01000000
00010000
00001000
,
00000100
00000000
00000000
00000000
,
00000001
00000010
00001000
00010000
,
00100000
00000000
00000000
00000000
,
00000000
10000000
01000000
10000000
00000000
01000000
00010000
01000000
,
00000000
00011000
00000000
00001010
,
00000000
00000001
00000010
00000001
00000000
00000010
00000100
00000010
,
00000000
00001100
00000000
00011000
,
00000000
00100000
00010000
00100000
00000000
00010000
01000000
00010000
,
00000000
11000000
00000000
01100000
,
00000000
00100000
00010000
00100000
00000000
00010000
01000000
00010000
,
00000000
00011000
00000000
00001100
,
00000000
00001000
00000100
00000001
00000000
00000100
00001000
00000010
,
00000000
00000110
00000000
00010010
,
00000000
00010000
00001000
00100000
00000000
00010000
01000000
00100000
,
00000000
10100000
00000000
01100000
,
00000000
00100000
10000000
00010000
00000000
00100000
00001000
00010000
,
00000000
00001100
00000000
00000101
,
00000000
00000100
00000010
00001000
00000000
00000100
00010000
00001000
,
00000000
00000000
00011000
00000000
00000000
00010000
00001000
00010000
,
01000000
00000000
10000000
00100000
10000000
00000000
01000000
00100000
,
00000000
00001000
00000000
00010000
00000000
00001000
00000100
00000001
,
00000000
00000010
00000001
00000100
00001000
00000000
00010000
00001000
,
00000000
00000000
00011000
00000000
00000000
00010000
01000000
10000000
,
00000000
00100000
01000000
00010000
01000000
00000000
00001000
00010000
,
00000000
00000100
00000000
00001100
00000000
00001000
00000010
00000001
,
00000000
00000010
00000100
00000000
00000001
00001000
00000000
00001100
,
00000000
00010000
00001000
00000000
00000000
00100000
00010000
00000000
,
00100000
01000000
10000000
00010000
,
01000000
00001000
01000000
00001000
00000000
00010000
00000010
00010000
,
00000000
00001100
00000000
00001100
00000000
00000001
00001000
00000001
,
00000000
00001010
00000000
00001010
00000000
00000100
00010000
00001000
,
00000000
00010000
01000000
10000000
,
00100000
10000000
00100000
10000000
00000000
00010000
01000000
00010000
,
00000000
00011000
00000000
00011000
00000000
00000100
00001000
00000100
,
00000000
00000110
00000000
00000110
00000000
00000000
00000000
00000000
,
00000101
00000101
00001100
00001100
,
00010000
00001000
01000000
00010000
10000000
00000000
00100000
00000000
,
10100000
10100000
00110000
00110000
,
00001000
00010000
00000000
00010000
00000000
00000000
00000000
00000000
,
00001000
00000100
00000001
00000010
,
00000001
00000100
00001000
00010000
00100000
10000000
01000000
00000000
,
10000000
00000000
00100000
01000000
00100000
00000000
01000000
00000000
,
00001000
00010000
00000000
00011000
00000000
00000000
00000000
00000000
,
01001000
01001000
00010100
00010100
,
00000010
00001000
00000100
00000010
00000001
00000000
00000100
00000000
,
00000101
00000101
00001100
00001100
,
00010000
00001000
00000000
00001000
00000000
00000000
00000000
00000000
,
00010000
01000000
10000000
00100000
,
10000000
01000000
00010000
00001000
00000010
00000001
00000100
00000000
,
00000001
00000000
00000010
00000100
00000010
00000000
00000100
00000000
,
00010000
00001000
00000000
00011000
00000000
00000000
00000000
00000000
,
00011000
00000000
00011000
00000000
00100000
00010000
00100000
00000000
,
00010000
10000000
01000000
00010000
00001000
00000100
00000001
00000000
,
00000020
00000000
00000000
00000030
,
00000001
00000010
00001000
00010000
00001000
00000000
00000000
00000000
,
00011000
00000000
00011000
00000000
00000100
00001000
00000100
00000000
,
00001000
00000001
00000010
00001000
00010000
00100000
10000000
00000000
,
02000000
00000000
00000000
03000000
,
10000000
00100000
00010000
00001000
00010000
00000000
00000000
00000000
,
00011000
00000000
00000000
00000000
;
#NOTES:
     dance-double:
     :
     Hard:
     8:
     :
00000000
00000000
00000000
00000000
,
00000000
00000000
00000000
00000000
,
00000000
00000000
00000000
00000000
,
00000000
00000000
00000000
00000000
,
00010000
00000100
00010000
00000100
01000000
00001000
01000000
00001000
,
00200000
00000000
00000000
00300000
,
00001000
01000000
00001000
01000000
00000100
00010000
00000100
00010000
,
00000020
00000000
00000000
00000030
,
00000000
00001000
00000000
00000001
00000000
00001000
00000010
00000100
,
00000000
00000001
00000100
00001000
00010000
01000000
10000000
00100000
,
00000000
00100000
00000000
10000000
00000000
00010000
00100000
01000000
,
00000000
10000000
01000000
00010000
00001000
00000100
00000001
00000010
,
00000000
00000010
00000000
00000001
00000000
00001000
00000100
00000010
,
00000000
00000001
00000010
00001000
00010000
00100000
10000000
01000000
,
00000000
01000000
00000000
10000000
00000000
00010000
01000000
00100000
,
00000000
10000000
00100000
00010000
00001000
00000010
00000001
00000000
,
00000001
00000000
00000000
00000000
00000100
00000000
00000010
00001000
00000000
00000000
00000001
00000000
00001000
00000000
00000000
00000000
,
00020200
00030300
02002000
03003000
,
00100000
00000000
00000000
00000000
10000000
00000000
01000000
00100000
00000000
00000000
00010000
00000000
10000000
00000000
00000000
00000000
,
02002000
03003000
00020200
00030300
,
00000010
00000000
00000000
00000000
00000100
00000000
00000001
00000100
00000000
00000000
00000010
00000000
00001000
00000000
00000000
00000000
,
00002200
00003300
00022000
00033000
,
01000000
00000000
00000000
00000000
00010000
00000000
00100000
01000000
00000000
00000000
00010000
00000000
00001000
00000000
00000000
00000000
,
00022000
00000000
00033000
00000000
00000000
00010000
00001000
00000100
,
00000000
00001000
00010000
01000000
10000000
00100000
00000000
02000000
,
00000000
03010000
00000000
00000000
00000000
00100000
01000000
10000000
,
00000000
00100000
00010000
00001000
00000010
00000001
00000000
00000100
,
00000000
00000010
00000010
00000000
00000000
00001000
00000100
00010000
,
00000000
00001000
01000000
00000000
00010000
10000000
00000000
11000000
,
00000000
01010000
00000000
00011000
00000000
00001000
00010000
00000100
,
00000000
00001000
00000010
00000000
00000100
00000001
00000000
00001000
,
00000000
00001001
00001001
00000000
00000000
00000010
00001000
00000100
,
00000000
00010000
00010000
00010000
00001000
00001000
00001000
00001000
,
00100000
00010000
01000000
00100000
00000000
10000000
01000000
01000000
,
00000000
00100000
00000000
01000000
00010000
00001000
00000010
00000001
,
00000000
00000100
00000010
00001000
00000000
00000100
00000010
00000001
,
00000000
00000100
00001000
00010000
01000000
10000000
00100000
00010000
,
00100000
10000000
01000000
00010000
00000000
00001000
00010000
00010000
,
00001000
00001000
00010000
00000000
00000100
00001000
00000010
00000100
,
00001000
00000000
00010000
01000000
00000000
00100000
00010000
00000000
,
11000000
00000000
00000000
00000000
11000000
00000000
00000000
00000000
00010000
00000000
10000000
01000000
00000000
00000000
10000000
00000000
,
00010000
00000000
01000000
00010000
01000000
00000000
00010000
00100000
00000000
00000000
00001000
00000000
00010000
00000000
00000000
00000000
,
00000100
00000000
00001000
00000000
00000010
00000000
00001000
00000001
00000000
00000000
00000100
00000000
00000001
00000000
00000010
00000000
,
00001000
00010000
00000000
00022000
00000000
00000000
00033000
00000000
,
00010100
00000000
00000000
00000000
00010100
00000000
00000000
00000000
00000100
00000000
00001000
00000010
00000000
00000000
00000000
00000000
,
00010000
00000000
00001000
00000000
00010000
00000000
00000000
00001000
00000000
00000000
00010000
00000000
01000000
00000000
00000000
00000000
,
10000000
00100000
10000000
01000000
00010000
00001000
00000100
00000001
,
00000010
00000100
00000000
00000220
00000000
00000000
00000330
00000000
,
00000101
00000000
00000000
00000000
00000101
00000000
00000000
00000000
00000001
00000000
00001000
00000001
00000000
00000000
00000100
00000000
,
00001000
00000000
00010000
00001000
00010000
00000000
00001000
01000000
00000000
00000000
00010000
00000000
10000000
00000000
00000000
00000000
,
00100000
00000000
10000000
00000000
01000000
00000000
00100000
00010000
00000000
00000000
01000000
00000000
00001000
00000000
00010000
00000000
,
00000100
00010000
00000000
00022000
00000000
00000000
00033000
00000000
,
00101000
00000000
00000000
00000000
00101000
00000000
00000000
00000000
00001000
00000000
00010000
00001000
00000000
00000000
00000000
00000000
,
00010000
00000000
00000100
00000000
00000010
00000000
00000000
00000001
00000000
00000000
00000010
00000000
00000100
00000000
00000000
00000000
,
00010000
00001000
00000100
00000001
00000010
00001000
00010000
00100000
,
10000000
00010000
00000000
20020000
00000000
00000000
30030000
00000000
,
11000000
00000000
00000000
00000000
11000000
00000000
00000000
00000000
00100000
00000000
00000000
10000000
00000000
00000000
01000000
00000000
,
00010000
00000000
00001000
00000000
00010000
00000000
00000000
00000010
00000000
00000000
00001000
00000000
00000100
00000000
00000000
00000000
,
00000202
00000000
00000000
00000000
00000000
00000303
00000000
00000001
,
00000100
00000000
00000010
00000000
00010000
00000000
00001000
00010000
00000000
00000000
00000000
00000000
00000000
00000000
00000000
00000000
,
00011000
00000000
00000000
00000000
00011000
00000000
00000000
00000000
00001000
00000000
00000000
00010000
00000000
00000000
00000010
00000000
,
00000100
00000000
00000001
00000000
00000100
00000000
00000000
00001000
00000000
00000000
00010000
00000000
01000000
00000000
00000000
00000000
,
22000000
00000000
00000000
00000000
00000000
33000000
00000000
10000000
,
10000000
00000000
01000000
00000000
00010000
00000000
00001000
00010000
00000000
00000000
00000000
00000000
00001000
00000000
00000000
00000000
,
00000100
00000000
00000000
00000000
;
