
//----- song ID: doki -----
#TITLE:Doki Doki (Panik Mix);
#ARTIST:SMiLE.dk;
#BANNER:Doki Doki (Panik Mix).png;
#BACKGROUND:Doki Doki (Panik Mix)-bg.png;
#CDTITLE:./CDTitles/DDR UNIVERSE3.png;
#MUSIC:Doki Doki (Panik Mix).ogg;
#OFFSET:-0.001;
#SAMPLESTART:46.627;
#SAMPLELENGTH:15;
#DISPLAYBPM:175;
#BPMS:0=175,200=177.5,204=175;
#NOTES:
     dance-single:
     :
     Beginner:
     1:
     :
0000
0000
0000
0000
,
0000
0000
0000
0000
,
0000
0000
0000
0000
,
0000
0000
0000
0000
,
1000
0000
0000
0000
,
0001
0000
0000
0000
,
0100
0000
0000
0000
,
0010
0000
0000
0000
,
0110
0000
0000
0000
,
0001
0000
1000
0000
,
0001
0000
0000
0000
,
0010
0000
0000
0000
,
0000
0000
0000
0000
,
0100
0000
1000
0000
,
0001
0000
0000
0000
,
1000
0000
0000
0000
,
0000
0000
0000
0000
,
1001
0000
0000
0000
,
1000
0000
0100
0000
,
0010
0000
0000
0000
,
0001
0000
0000
0000
,
1000
0000
0000
0000
,
0001
0000
0100
0000
,
0010
0000
0000
0000
,
1000
0000
0000
0000
,
0001
0000
0000
0000
,
1000
0000
0000
0000
,
0100
0000
0000
0000
,
0010
0000
0000
0000
,
0001
0000
0000
0000
,
0100
0000
0000
0000
,
0010
0000
0000
0000
,
1000
0000
0000
0000
,
0001
0000
0000
0000
,
0100
0000
0100
0000
,
0010
0000
0010
0000
,
0110
0000
0000
0000
,
0000
0000
0000
0000
,
1000
0000
1000
0000
,
0001
0000
0001
0000
,
1001
0000
0000
0000
,
0000
0000
0000
0000
,
1000
0000
0000
0000
,
0100
0000
0000
0000
,
0010
0000
0000
0000
,
0001
0000
0000
0000
,
0100
0000
0000
0000
,
0010
0000
0000
0000
,
1000
0000
0000
0000
,
0001
0000
0000
0000
,
1000
0000
0000
0000
,
0100
0000
0000
0000
,
0000
0000
0000
0000
,
0010
0000
0000
0000
,
0100
0000
0000
0000
,
1000
0000
0000
0000
,
0000
0000
0000
0000
,
0001
0000
0000
0000
,
1000
0000
0000
0000
,
0100
0000
0100
0000
,
0010
0000
0010
0000
,
0110
0000
0000
0000
,
0000
0000
0000
0000
,
0001
0000
0001
0000
,
1000
0000
1000
0000
,
1001
0000
0000
0000
,
0000
0000
0000
0000
,
1000
0000
0000
0000
,
0100
0000
0000
0000
,
0010
0000
0000
0000
,
0001
0000
0000
0000
,
0100
0000
0000
0000
,
0010
0000
0000
0000
,
1000
0000
0000
0000
,
0001
0000
0000
0000
,
1001
0000
0000
0000
;
#NOTES:
     dance-single:
     :
     Easy:
     4:
     :
0000
0000
0000
0000
,
0000
0000
0000
0000
,
0000
0000
0000
0000
,
0000
0000
0000
0000
,
1000
0100
1000
0000
,
0001
0010
0001
0000
,
0100
0000
0001
0000
,
1000
0001
1001
0000
,
1001
0000
0000
0000
,
1000
0100
1000
0000
,
0001
0100
0010
0000
,
0100
0000
0001
0000
,
1000
0001
1001
0000
,
0100
0001
0100
0000
,
0001
1000
0100
0000
,
1000
0000
0001
0000
,
0100
0000
0010
0100
,
0110
0000
0000
0000
,
1000
0100
0010
0001
,
1000
0100
0010
0000
,
0001
0100
0010
0000
,
1000
0001
0010
0000
,
0001
0100
0010
1000
,
0001
0100
0010
0000
,
1000
0100
0001
0000
,
0100
1000
0010
0000
,
0100
0001
1000
0100
,
0010
0001
1000
0000
,
0001
0001
0001
0000
,
1000
1000
1000
0000
,
0010
1000
0100
0010
,
0001
0100
0000
0000
,
0001
1000
0001
0000
,
1000
0001
1000
0000
,
0001
0001
1000
1000
,
0100
0010
0001
0000
,
0100
0001
1000
0000
,
0100
1000
0001
0000
,
1000
1000
0001
0001
,
0010
0100
1000
0000
,
0001
0100
0010
0000
,
0100
0010
1000
0000
,
0001
0100
0001
0000
,
1000
0010
1000
0000
,
0100
0000
1000
0000
,
0010
0100
0110
0000
,
1000
0100
1000
0000
,
0001
0010
0001
0000
,
1000
0000
0001
0000
,
1000
0001
1001
0000
,
1001
0000
0000
0000
,
0100
0000
0001
0000
,
0010
0000
1000
0000
,
0010
0000
0001
0000
,
0100
0000
0000
0000
,
0001
0000
1000
0000
,
0010
0000
1000
0000
,
0100
0100
0100
0000
,
0010
0010
0010
0000
,
0001
0100
0001
0000
,
1000
0100
1000
0000
,
0001
0000
1000
0000
,
0001
1000
1001
0000
,
1000
0100
1000
0000
,
0001
0010
0001
0000
,
1000
0000
0001
0000
,
1000
0001
1001
0000
,
1000
1000
0100
0000
,
0010
0001
0100
0001
,
0010
0000
0001
0000
,
0100
0010
0110
0000
,
0001
0001
0100
0000
,
0010
1000
0100
1000
,
0010
0000
1000
0000
,
0100
0010
0001
1000
,
1001
0000
0000
0000
;
#NOTES:
     dance-single:
     :
     Medium:
     7:
     :
0000
0000
0000
0000
,
0000
0000
0000
0000
,
0000
0000
0000
0000
,
0000
0000
0000
0000
,
1000
0100
1000
0000
0001
0010
0001
0000
,
1000
0001
1000
0000
0001
1000
0001
0000
,
1000
0010
0100
0001
1000
0000
0000
0000
,
0001
0010
0100
1000
0001
0000
1000
0000
,
1001
0000
0000
1001
,
1000
0100
1000
0000
0010
1000
0010
0000
,
0100
0010
0100
0000
0001
0100
0001
0000
,
0010
0000
0000
0001
0100
0000
0000
0000
,
0001
1000
0100
1000
0001
0000
1001
0000
,
0001
0100
0001
0000
0010
0001
0010
0000
,
0100
0010
0100
0000
1000
0100
1000
0000
,
0010
0000
0000
1000
0100
0000
0000
0000
,
1000
0001
0100
0001
1000
0000
0001
0000
,
0110
0000
0000
0000
,
1000
0100
1000
0000
0001
0010
0001
0000
,
0100
0001
0000
1001
0000
0000
0000
0000
,
0100
0001
0100
0000
0010
0000
1001
0000
,
0100
1000
0100
0000
0010
0000
0110
0000
,
1000
0100
1000
0000
0100
0010
0001
0000
,
0100
0001
0000
0100
0000
0000
0000
0000
,
0010
0100
0010
0100
0001
0000
0000
0000
,
0010
0100
0010
0100
1000
0000
0000
0000
,
0001
0000
1000
0001
1000
0000
0001
0100
,
0000
0010
0000
0010
0000
0010
0000
0000
,
1000
0100
1000
0000
0100
1000
0100
0000
,
1000
0100
0010
0001
0200
0000
0300
0000
,
0000
0000
0010
0000
1000
0000
0001
0010
,
0000
0100
0000
1000
0000
0001
0000
0000
,
1000
0100
1000
0000
0001
0000
1001
0000
,
0001
0100
0001
0000
1000
0000
1001
0000
,
0001
0010
0001
0000
0100
0001
1000
0000
,
0010
1000
0010
0000
1000
0100
0010
0000
,
0100
1000
0100
1000
0010
0000
0000
0000
,
0100
0001
0100
0001
0010
0000
0000
0000
,
1000
0100
1000
0000
0100
0010
0001
0000
,
0100
0001
0100
0000
0001
0010
0100
0000
,
1000
0100
1000
0100
1000
0000
0000
0000
,
0001
0100
0001
0100
0001
0000
0000
0000
,
1000
1000
0001
0001
,
1000
0100
1000
0000
0001
0100
0001
0000
,
1000
0000
0000
0001
1000
0000
0000
0000
,
0001
0010
1000
0010
0001
0000
1000
0000
,
0001
0001
1000
1000
,
0001
0010
0001
0000
1000
0100
1000
0000
,
0010
0000
0000
1000
0001
0000
0000
0000
,
1000
0100
0001
0100
1000
0000
0001
0000
,
2002
0000
0000
3003
,
0000
0000
0100
0010
0100
0000
1000
0001
,
0000
1000
0000
0001
0000
0100
0000
0000
,
0010
1000
0100
0001
,
0100
1000
0010
0001
,
0000
0000
0010
0000
1000
0000
0001
0010
,
0000
0100
0000
1000
0000
0001
0000
0000
,
1000
0100
1000
0100
1000
0000
0000
0000
,
0001
0100
0001
0100
0001
0000
0000
0000
,
0001
1000
0100
0000
1000
0001
0100
0000
,
0001
0010
0100
0000
1000
0010
0100
0000
,
0010
1000
0001
1000
0001
0000
0000
0000
,
0010
0001
1000
0001
0100
0000
0000
0000
,
0001
0010
0100
0000
1000
0010
0100
0000
,
0001
0100
0001
0000
1000
0100
1000
0000
,
0100
0010
0100
0010
0001
0000
0000
0000
,
0100
0010
0100
0010
1000
0000
0000
0000
,
1000
0100
0010
0001
,
0010
0001
1000
0000
0100
1000
0001
0000
,
0100
0000
0000
0001
1000
0000
0000
0000
,
0100
1000
0001
0010
0100
0000
0000
0000
,
0100
1000
0001
0010
,
0001
0100
0010
0000
1000
0001
0010
0000
,
0100
0000
0000
1000
0001
0000
0000
0000
,
0100
0001
0010
0100
1000
0000
0001
0000
,
1001
0000
0000
0000
;
#NOTES:
     dance-single:
     :
     Hard:
     8:
     :
0000
0000
0000
0000
,
0000
0000
0000
0000
,
0000
0000
0000
0000
,
0000
0000
0000
0000
,
1000
0100
1000
0010
0100
0001
0010
0000
,
0001
1000
0001
0000
1000
0001
1000
0000
,
0001
0010
0100
1000
0010
0000
0000
0000
,
1000
0010
0100
0001
0010
0000
1001
0000
,
0220
0000
0330
1001
,
1000
0100
1000
0100
1000
0010
1000
0010
,
0100
0010
0100
0010
0100
0001
0100
0001
,
0010
0000
0000
0001
0100
0000
0000
0001
,
0010
0001
0100
0010
1000
0000
1001
0000
,
0001
0100
0001
0100
0001
0010
0001
0010
,
0100
0010
0100
0010
0100
1000
0100
1000
,
0010
0000
0000
1000
0100
0000
0000
1000
,
0100
1000
0010
0100
0001
0000
1001
0000
,
2000
0000
0100
0100
3100
0000
0000
0000
,
1000
0100
1000
0100
0010
0001
0010
0001
,
0100
0001
0000
1001
0000
0000
0000
0001
,
0100
0001
0100
0001
0010
0100
0000
1000
,
0000
0100
1000
0010
0100
0000
0110
0000
,
0000
0010
1000
0010
1000
0100
0010
0001
,
0010
0001
0000
0100
0000
0000
0000
0001
,
0100
0001
0100
0010
1000
0000
0000
0000
,
0000
1000
0100
0010
0001
1000
0010
0000
,
0000
0000
1000
0001
1000
0000
0001
0100
,
0000
0010
0000
1010
0000
1010
0000
0000
,
0000
0010
1000
0100
1000
0100
1000
0000
,
0100
0010
0001
0100
0001
0100
0001
0000
,
0000
0000
0011
0000
1001
0000
1000
0010
,
0000
1010
0000
0110
0000
0101
0000
0000
,
0001
0100
0001
0100
1000
0100
0001
0000
,
1000
0100
1000
0100
0001
0100
1000
0000
,
0001
0010
0001
0010
0001
0100
0010
0000
,
1000
0010
1000
0010
1000
0100
0010
0000
,
0000
0100
1000
0001
0100
0010
1000
0000
,
0010
1000
0100
0010
0100
0000
0000
0000
,
1000
0100
1000
0100
1000
0010
0100
0000
,
0001
0100
0001
0100
0001
0010
0100
0000
,
1000
0100
0001
0100
1000
0000
0000
0000
,
0001
0100
1000
0100
0001
0000
1001
0000
,
1100
0101
1100
0101
,
0001
0100
0001
0100
0010
1000
0010
1000
,
0100
0000
0000
1000
0001
0000
0000
1000
,
0010
0001
0010
1000
0100
0000
0010
0000
,
0011
1010
0011
1010
,
1000
0010
1000
0010
0100
0001
0100
0001
,
0010
0000
0000
0001
1000
0000
0000
0001
,
0100
1000
0100
0001
0010
0000
0100
0000
,
0220
0000
0000
0330
,
0000
0000
0100
1000
0001
0000
1000
0001
,
0000
0010
0000
1100
0000
0101
0000
0000
,
0010
0011
0101
1001
,
0010
1010
1100
1001
,
0000
0000
0001
0000
1000
0000
0001
0010
,
0000
0100
0000
1100
0000
0101
0000
0000
,
0001
0100
1000
0100
0001
0010
0001
0000
,
1000
0100
0001
0100
1000
0010
1000
0000
,
0001
1000
0100
1000
0001
0100
0010
0000
,
1000
0001
0100
0001
1000
0100
0010
0000
,
0000
0100
1000
0010
0100
0001
0010
0000
,
0001
1000
0010
0100
0001
0000
0000
0000
,
1000
0010
0001
0010
1000
0100
0010
0000
,
0001
0010
1000
0010
0001
0100
0010
0000
,
1000
0100
0010
0001
1000
0000
0000
0000
,
0001
0100
0010
1000
0001
0000
1001
0000
,
1100
1010
0011
0101
,
0001
0100
0010
1000
0100
1000
0001
0010
,
0100
0000
0000
1000
0001
0000
0000
0010
,
0100
0010
0001
0100
1000
0000
0100
0000
,
0110
1010
0011
1001
,
1000
0001
0010
0100
1000
0010
0100
0001
,
0010
0000
0000
0001
1000
0000
0000
0001
,
0100
1000
0100
0001
0010
0000
0100
0000
,
1001
0000
0000
0000
;
#NOTES:
     dance-single:
     :
     Challenge:
     9:
     :
0000
0000
0000
0000
,
0000
0000
0000
0000
,
0000
0000
0000
0000
,
0000
0000
0000
0000
,
0101
0000
0001
0100
0001
0000
1000
0000
1100
0000
0100
0000
0010
0000
0000
0000
,
0001
0000
1000
0000
0010
0000
0100
0001
,
0101
0100
0010
1000
1100
0000
0100
1000
,
0001
0000
0010
0000
0100
0000
1000
0000
0001
1000
0001
1000
0001
1000
0001
1000
,
0001
0000
0000
0000
0001
0000
0100
0000
0010
0000
0000
0000
1000
0001
0000
0000
,
0011
1000
0100
0010
1000
0001
1000
0010
,
0001
0100
0010
1000
0001
0100
1000
0100
,
0001
0000
0000
1000
0100
0000
0000
0010
,
0001
0000
0001
0010
0100
0000
1000
0010
,
0100
0001
0100
0010
0001
1000
0001
0010
,
1000
0001
0010
0100
1000
0010
0100
0010
,
1000
0000
0001
0100
0010
0000
1000
0100
,
0010
0001
0010
0001
0010
0001
0010
0001
0010
0001
0010
0001
2000
0000
0000
0000
,
3001
0000
0000
0000
0001
0000
0010
0100
1000
0000
0010
0000
0010
0000
0000
0000
,
1001
1000
0000
1000
0000
0010
0000
0010
,
0000
0100
0000
0100
0001
0010
0100
1000
,
0000
0010
0000
0010
0000
0100
0000
0100
,
0000
0010
0000
0010
0000
1000
0001
0001
,
0010
0100
0010
0100
0000
1000
0001
1000
,
0000
0001
0100
0001
1000
0100
1000
0010
,
0100
0001
1000
0001
0000
0010
0100
0010
,
0001
0000
0100
0000
0010
0000
1000
0000
0000
0000
0001
0000
0100
0000
0001
1000
,
0100
0010
0001
0010
0100
0010
0001
0010
,
0100
1000
0001
1000
0100
1000
0001
1000
,
0010
0100
0001
0100
0010
0100
0001
0100
,
1000
0000
0100
0000
0010
0000
0100
0000
1000
0000
0100
0000
0010
0000
1000
0001
,
0010
0100
1000
0100
0010
0100
1000
0100
,
0010
0001
1000
0001
0010
0001
1000
0001
,
0100
0010
1000
0010
0100
0010
1000
0010
,
1000
0001
1000
0001
1000
0001
1000
0001
0100
0010
1000
0001
0010
0000
0000
0000
,
1000
0100
0010
0001
1000
0010
1010
0000
,
0001
0000
0010
0000
0100
0000
1000
0000
0001
0000
0100
0000
0001
0000
1000
0100
,
1000
0010
0100
0001
1000
0010
1001
0000
,
0001
0000
0010
0000
0100
0000
1000
0000
0100
0000
0010
0000
0010
0000
0001
1000
,
0001
0010
0100
1000
0001
0100
0101
0000
,
0010
1000
0100
0010
0001
1000
0001
0000
,
0100
0010
0100
0001
0010
0000
0100
0000
,
1000
0100
1000
0100
1000
0100
1000
0100
1000
0000
0001
0000
1001
0000
0000
0000
,
0021
1000
0001
0130
,
1000
0100
1000
0001
0100
0001
1000
0100
,
0010
0000
0000
0001
0100
0000
0000
0010
,
1000
0000
1000
0001
0010
0000
0001
1000
,
1200
0001
1000
0310
,
0001
0010
0100
1000
0010
0100
0001
0010
,
0001
0000
0000
1000
0010
0000
0000
0100
,
0001
1000
0001
1000
0001
1000
0001
1000
0001
0000
0100
0000
0010
0000
1000
0000
,
0002
0000
0000
0000
,
0103
0001
0010
0001
0100
0001
0010
0001
,
1000
0100
0010
0100
1000
0100
0010
0100
,
0001
1000
0010
1000
0001
1000
0010
1000
,
0001
0000
0100
0000
1000
0000
0100
0000
0001
0000
0100
0000
1000
0100
0010
0001
,
1000
0001
0100
0001
1000
0001
0100
0001
,
0010
0100
1000
0100
0010
0100
1000
0100
,
0010
0001
0100
0001
0010
0001
0100
0001
,
0010
0000
1000
0000
0010
0000
0001
0000
1000
0100
0010
0001
1000
0000
0000
0000
,
0001
0100
0010
1000
0001
0010
0011
0000
,
0100
1000
0100
0001
1000
0010
0001
0000
,
0000
1000
0010
0100
0001
1000
1100
0000
,
0100
0010
0001
0010
1000
0010
0000
0000
,
0001
0100
0010
0100
1000
0100
1001
0000
,
0010
0001
1000
0100
0010
0100
1000
0000
,
0010
0100
0010
1000
0001
0000
1000
0000
,
0010
0100
0010
0100
0010
0100
0010
0100
0010
0000
0100
0000
0110
0000
0010
0000
,
1020
0001
1000
0130
,
0001
0010
0100
0001
0100
1000
0010
0100
,
0001
0000
0000
1000
0100
0000
0000
0010
,
0001
0000
0001
1000
0010
0000
0100
0001
,
0201
1000
0001
0310
,
1000
0010
0100
1000
0100
0001
0010
0100
,
1000
0000
0000
0001
0100
0000
0000
0010
,
1000
0000
1000
0100
0010
0000
0001
0000
,
1001
0000
0000
0000
;
#NOTES:
     dance-double:
     :
     Beginner:
     1:
     :
00000000
00000000
00000000
00000000
,
00000000
00000000
00000000
00000000
,
00000000
00000000
00000000
00000000
,
00000000
00000000
00000000
00000000
,
10000000
00000000
00000000
00000000
,
00010000
00000000
00000000
00000000
,
01000000
00000000
00000000
00000000
,
00001000
00000000
00000000
00000000
,
00010000
00000000
00000000
00000000
,
00000100
00000000
00001000
00000000
,
00000100
00000000
00000000
00000000
,
00000010
00000000
00000000
00000000
,
00000000
00000000
00000000
00000000
,
00000001
00000000
00000100
00000000
,
00001000
00000000
00000000
00000000
,
00010000
00000000
00000000
00000000
,
00000000
00000000
00000000
00000000
,
00011000
00000000
00000000
00000000
,
00001000
00000000
00100000
00000000
,
00010000
00000000
00000000
00000000
,
10000000
00000000
00000000
00000000
,
01000000
00000000
00000000
00000000
,
00100000
00000000
00001000
00000000
,
00010000
00000000
00000000
00000000
,
00001000
00000000
00000000
00000000
,
00010000
00000000
00000000
00000000
,
00000100
00000000
00000000
00000000
,
00001000
00000000
00000000
00000000
,
00000001
00000000
00000000
00000000
,
00000010
00000000
00000000
00000000
,
00000100
00000000
00000000
00000000
,
00001000
00000000
00000000
00000000
,
00000100
00000000
00000000
00000000
,
00010000
00000000
00000000
00000000
,
00001000
00000000
00001000
00000000
,
00010000
00000000
00010000
00000000
,
00011000
00000000
00000000
00000000
,
00000000
00000000
00000000
00000000
,
01000000
00000000
01000000
00000000
,
00100000
00000000
00100000
00000000
,
01100000
00000000
00000000
00000000
,
00000000
00000000
00000000
00000000
,
10000000
00000000
00000000
00000000
,
01000000
00000000
00000000
00000000
,
00010000
00000000
00000000
00000000
,
00001000
00000000
00000000
00000000
,
00000100
00000000
00000000
00000000
,
00000001
00000000
00000000
00000000
,
00000010
00000000
00000000
00000000
,
00000001
00000000
00000000
00000000
,
00000100
00000000
00000000
00000000
,
00001000
00000000
00000000
00000000
,
00000000
00000000
00000000
00000000
,
00010000
00000000
00000000
00000000
,
00100000
00000000
00000000
00000000
,
01000000
00000000
00000000
00000000
,
00000000
00000000
00000000
00000000
,
00010000
00000000
00000000
00000000
,
10000000
00000000
00000000
00000000
,
01000000
00000000
01000000
00000000
,
00100000
00000000
00100000
00000000
,
01100000
00000000
00000000
00000000
,
00000000
00000000
00000000
00000000
,
00001000
00000000
00001000
00000000
,
00010000
00000000
00010000
00000000
,
00011000
00000000
00000000
00000000
,
00000000
00000000
00000000
00000000
,
00000100
00000000
00000000
00000000
,
00001000
00000000
00000000
00000000
,
00000001
00000000
00000000
00000000
,
00000100
00000000
00000000
00000000
,
00000010
00000000
00000000
00000000
,
00010000
00000000
00000000
00000000
,
00001000
00000000
00000000
00000000
,
00010000
00000000
00000000
00000000
,
00011000
00000000
00000000
00000000
;
#NOTES:
     dance-double:
     :
     Easy:
     4:
     :
00000000
00000000
00000000
00000000
,
00000000
00000000
00000000
00000000
,
00000000
00000000
00000000
00000000
,
00000000
00000000
00000000
00000000
,
10000000
01000000
00010000
00000000
,
00001000
00010000
00001000
00000000
,
00000010
00000000
00000001
00000000
,
00001000
00000001
00001001
00000000
,
00001001
00000000
00000000
00000000
,
00000001
00000100
00000001
00000000
,
00001000
00000100
00010000
00000000
,
00001000
00000000
00010000
00000000
,
00001000
01000000
00010000
00000000
,
10000000
01000000
00100000
00000000
,
00010000
10000000
00010000
00000000
,
01000000
00000000
00001000
00000000
,
00010000
00000000
00001000
00010000
,
00011000
00000000
00000000
00000000
,
00000100
00001000
00000001
00000010
,
00000001
00000100
00001000
00000000
,
00010000
01000000
00100000
00000000
,
00010000
10000000
00100000
00000000
,
01000000
00001000
00010000
00000100
,
00001000
00000010
00000100
00000000
,
00000001
00000100
00001000
00000000
,
00010000
01000000
10000000
00000000
,
00100000
10000000
01000000
00010000
,
00001000
00010000
00001000
00000000
,
00000100
00000100
00000100
00000000
,
00000010
00000010
00000010
00000000
,
00001000
00000001
00000100
00000010
,
00010000
00001000
00000000
00000000
,
00010000
00001000
00010000
00000000
,
01000000
00100000
01000000
00000000
,
10000000
10000000
01000000
01000000
,
00010000
00001000
00010000
00000000
,
00001000
00010000
00000100
00000000
,
00001000
00000001
00000100
00000000
,
00000010
00000010
00001000
00001000
,
00000100
00010000
00001000
00000000
,
01000000
00010000
00100000
00000000
,
01000000
10000000
00100000
00000000
,
01000000
00001000
01000000
00000000
,
00001000
00010000
00000100
00000000
,
00001000
00000000
00000001
00000000
,
00000100
00000010
00000110
00000000
,
00000001
00000100
00000001
00000000
,
00001000
00000010
00001000
00000000
,
00000100
00000000
00010000
00000000
,
00001000
00010000
00011000
00000000
,
00011000
00000000
00000000
00000000
,
01000000
00000000
00100000
00000000
,
10000000
00000000
01000000
00000000
,
00100000
00000000
00001000
00000000
,
00010000
00000000
00000000
00000000
,
00000100
00000000
00001000
00000000
,
00000010
00000000
00000100
00000000
,
00000001
00000001
00000001
00000000
,
00001000
00001000
00001000
00000000
,
00000100
00000010
00010000
00000000
,
00001000
00100000
00010000
00000000
,
10000000
00000000
00010000
00000000
,
10000000
00010000
10010000
00000000
,
10000000
01000000
00100000
00000000
,
00001000
00010000
00000100
00000000
,
00001000
00000000
00000001
00000000
,
00001000
00000001
00001001
00000000
,
00000001
00000001
00000100
00000000
,
00001000
00010000
01000000
00100000
,
00010000
00000000
10000000
00000000
,
01000000
00100000
01100000
00000000
,
10000000
10000000
01000000
00000000
,
00010000
00001000
00010000
00000100
,
00001000
00000000
00000001
00000000
,
00000100
00000010
00001000
00000001
,
00001001
00000000
00000000
00000000
;
#NOTES:
     dance-double:
     :
     Medium:
     7:
     :
00000000
00000000
00000000
00000000
,
00000000
00000000
00000000
00000000
,
00000000
00000000
00000000
00000000
,
00000000
00000000
00000000
00000000
,
00100000
10000000
00100000
00000000
01000000
00010000
01000000
00000000
,
00001000
00100000
00001000
00000000
00010000
00000010
00010000
00000000
,
00000100
00001000
00000001
00000100
00000010
00000000
00000000
00000000
,
00000100
00001000
00010000
00001000
00010000
00000000
00001000
00000000
,
00011000
00000000
00000000
00110000
,
10000000
01000000
10000000
00000000
01000000
00010000
01000000
00000000
,
00010000
00001000
00010000
00000000
00001000
00000100
00001000
00000000
,
00000100
00000000
00000000
00000001
00000010
00000000
00000000
00000000
,
00000001
00000010
00000001
00000100
00000001
00000000
00001000
00000000
,
00000100
00010000
00000100
00000000
00010000
00001000
00010000
00000000
,
00001000
01000000
00001000
00000000
01000000
00100000
01000000
00000000
,
00100000
00000000
00000000
10000000
01000000
00000000
00000000
00000000
,
10000000
01000000
10000000
00100000
10000000
00000000
00010000
00000000
,
00110000
00000000
00000000
00000000
,
00001000
00010000
00001000
00000000
00010000
00001000
00010000
00000000
,
00000100
00001000
00000000
00001100
00000000
00000000
00000000
00000000
,
00000010
00000100
00000010
00000000
00000001
00000000
00001001
00000000
,
00000100
00001000
00000100
00000000
00010000
00000000
00011000
00000000
,
01000000
00010000
01000000
00000000
00010000
10000000
01000000
00000000
,
10000000
00010000
00000000
00100000
00000000
00000000
00000000
00000000
,
00001000
00010000
00001000
00010000
00000100
00000000
00000000
00000000
,
00001000
00000100
00001000
00000100
00000010
00000000
00000000
00000000
,
00000001
00000000
00000100
00000001
00000100
00000000
00000010
00010000
,
00000000
00001000
00000000
00001000
00000000
00001000
00000000
00000000
,
01000000
00010000
01000000
00000000
00100000
10000000
00100000
00000000
,
10000000
01000000
00010000
00001000
00020000
00000000
00030000
00000000
,
00000000
00001000
00000100
00000010
,
00000000
00000001
00000000
00000100
00000000
00001000
00000000
00000000
,
00010000
00000100
00010000
00000000
00000100
00000000
00010100
00000000
,
00001000
01000000
00001000
00000000
01000000
00000000
01001000
00000000
,
00010000
00100000
00010000
00000000
01000000
00010000
10000000
00000000
,
00100000
10000000
00100000
00000000
10000000
01000000
00010000
00000000
,
00001000
00010000
00001000
00010000
00000010
00000000
00000000
00000000
,
00001000
00000100
00001000
00000100
00000001
00000000
00000000
00000000
,
00000100
00000010
00000100
00000000
00000010
00000001
00000100
00000000
,
00001000
00010000
00001000
00000000
00010000
01000000
00100000
00000000
,
01000000
10000000
01000000
00010000
01000000
00000000
00000000
00000000
,
00010000
00001000
00010000
00001000
00000100
00000000
00000000
00000000
,
00000001
00000001
00001000
00001000
,
00000010
00000100
00000010
00000000
00010000
00001000
00010000
00000000
,
00001000
00000000
00000000
00100000
00010000
00000000
00000000
00000000
,
00100000
01000000
10000000
00100000
01000000
00000000
00010000
00000000
,
01000000
01000000
00001000
00001000
,
00010000
00001000
00010000
00000000
00000100
00000010
00000100
00000000
,
00000010
00000000
00000000
00000001
00001000
00000000
00000000
00000000
,
00000001
00000100
00001000
00010000
00001000
00000000
00010000
00000000
,
00022000
00000000
00000000
00033000
,
00000000
00000000
01000000
00010000
01000000
00000000
00010000
10000000
,
00000000
01000000
00000000
00010000
00000000
00001000
00000000
00000000
,
00010000
00001000
00000100
00000001
,
00000010
00000001
00000100
00001000
,
00000000
00000000
00000100
00000000
00000010
00000000
00010000
00001000
,
00000000
01000000
00000000
00010000
00000000
10000000
00000000
00000000
,
00100000
01000000
00100000
01000000
00100000
00000000
00000000
00000000
,
01000000
00001000
00010000
00001000
00010000
00000000
00000000
00000000
,
00000100
00001000
00000100
00000000
00000010
00000001
00000010
00000000
,
00000001
00000100
00000010
00000000
00001000
00000100
00010000
00000000
,
00001000
01000000
00010000
01000000
00010000
00000000
00000000
00000000
,
00100000
00010000
10000000
00010000
10000000
00000000
00000000
00000000
,
01000000
10000000
01000000
00000000
10000000
00010000
10000000
00000000
,
00010000
01000000
00001000
00000000
00010000
00000100
00001000
00000000
,
00000100
00001000
00000100
00000010
00000100
00000000
00000000
00000000
,
00001000
00000001
00000100
00000001
00000010
00000000
00000000
00000000
,
00000001
00000100
00001000
00010000
,
00001000
00010000
00001000
00000000
01000000
00010000
01000000
00000000
,
00010000
00000000
00000000
10000000
00010000
00000000
00000000
00000000
,
00100000
01000000
10000000
00100000
01000000
00000000
00000000
00000000
,
00100000
10000000
01000000
00010000
,
00001000
00010000
00001000
00000000
00010000
00001000
00000010
00000000
,
00000100
00000000
00000000
00001000
00000001
00000000
00000000
00000000
,
00000100
00000010
00001000
00000100
00010000
00000000
00001000
00000000
,
00011000
00000000
00000000
00000000
;
#NOTES:
     dance-double:
     :
     Hard:
     9:
     :
00000000
00000000
00000000
00000000
,
00000000
00000000
00000000
00000000
,
00000000
00000000
00000000
00000000
,
00000000
00000000
00000000
00000000
,
00010000
10000000
01000000
00100000
00001000
00010000
00000100
00000000
,
00001000
00000001
00001000
00000000
00000001
00000010
00000001
00000000
,
00000100
00000010
00010000
00001000
00100000
00000000
00000000
00000000
,
00001000
01000000
00010000
00100000
01000000
00000000
10010000
00000000
,
02200000
00000000
03300000
10010000
,
01000000
10000000
01000000
10000000
01000000
00010000
01000000
00010000
,
00001000
00010000
00001000
00010000
00001000
00000100
00001000
00000100
,
00000001
00000000
00000000
00000100
00000010
00000000
00000000
00010000
,
00000100
00001000
00000010
00000100
00000001
00000000
00001001
00000000
,
00000100
00000001
00000100
00000001
00000100
00001000
00000100
00001000
,
00010000
00001000
00010000
00001000
00010000
01000000
00010000
01000000
,
10000000
00000000
00000000
00100000
01000000
00000000
00000000
00010000
,
00100000
00010000
01000000
00000000
00001000
00000000
00011000
00000000
,
00020000
00000000
00000100
00000100
00030100
00000000
00000000
00000000
,
00001000
00000100
00001000
00000100
00000010
00000001
00000010
00000001
,
00000100
00001000
00000000
00011000
00000000
00000000
00000000
00001000
,
01000000
00001000
01000000
00100000
10000000
01000000
00000000
00010000
,
00000000
01000000
00010000
00001000
00000100
00000000
00000110
00000000
,
00000000
00000001
00000100
00000001
00000100
00000010
00001000
00000010
,
00001000
00000100
00000000
00010000
00000000
00000000
00000000
00001000
,
01000000
00001000
01000000
00100000
10000000
00000000
00000000
00000000
,
00000000
01000000
00010000
00001000
00010000
00001000
00010000
00000000
,
00000000
00000000
00000010
00001000
00000010
00000000
00001000
00000100
,
00000000
00000010
00000000
00000101
00000000
00000101
00000000
00000000
,
00000000
00000010
00001000
00000100
00010000
00000100
00010000
00000000
,
00001000
01000000
00010000
10000000
00100000
10000000
00100000
00000000
,
00000000
00000000
10010000
00000000
01010000
00000000
00001000
00100000
,
00000000
00011000
00000000
00001100
00000000
00001001
00000000
00000000
,
00000001
00000100
00000001
00000100
00001000
00010000
00001000
00000000
,
00010000
00001000
00010000
01000000
10000000
01000000
10000000
00000000
,
00100000
10000000
00100000
10000000
01000000
00010000
00001000
00000000
,
00010000
00001000
00000100
00000001
00000010
00000001
00000010
00000000
,
00000000
00000001
00000100
00000010
00001000
00000100
00010000
00000000
,
00001000
01000000
00010000
00100000
01000000
00000000
00000000
00000000
,
10000000
01000000
00010000
01000000
00010000
00001000
00010000
00000000
,
00001000
00010000
00001000
00000100
00001000
00000100
00000001
00000000
,
00000001
00000100
00001000
00010000
00001000
00000000
00000000
00000000
,
00010000
00001000
00010000
01000000
10000000
00000000
00100000
00000000
,
11000000
10100000
00110000
00011000
,
00001000
00010000
00001000
00010000
00000010
00001000
00000010
00001000
,
00000100
00000000
00000000
00001000
00000001
00000000
00000000
00000010
,
00000001
00000100
00000001
00000010
00000100
00000000
00010000
00000000
,
00011000
01010000
11000000
10100000
,
01000000
00100000
01000000
00100000
01000000
00010000
01000000
00010000
,
00100000
00000000
00000000
00001000
00010000
00000000
00000000
00001000
,
00010000
00001000
00000100
00000001
00000010
00000000
00000001
00000000
,
00002002
00000000
00000000
00003003
,
00000000
00000000
00000010
00001000
00000100
00000000
00010000
00001000
,
00000000
00010000
00000000
00011000
00000000
00110000
00000000
00000000
,
10000000
01100000
01010000
00011000
,
00001000
00001010
00000110
00001001
,
00000000
00000000
00000010
00000000
00001000
00000000
00000100
00010000
,
00000000
00001000
00000000
01010000
00000000
11000000
00000000
00000000
,
00100000
01000000
00100000
01000000
00010000
01000000
00001000
00000000
,
00010000
00000100
00001000
00000100
00000010
00000100
00000010
00000000
,
00000001
00000010
00000001
00000100
00000010
00001000
00000100
00000000
,
00010000
00001000
01000000
00010000
00100000
01000000
10000000
00000000
,
00000000
01000000
10000000
00100000
01000000
00001000
00010000
00000000
,
00001000
00010000
00000100
00000010
00000001
00000000
00000000
00000000
,
00000010
00000001
00000100
00001000
00010000
00001000
00010000
00000000
,
00001000
00010000
01000000
10000000
00100000
10000000
00100000
00000000
,
10000000
01000000
00100000
00001000
00010000
00000000
00000000
00000000
,
00001000
00010000
00000100
00000010
00000001
00000000
00000000
00000000
,
00000101
00001100
00011000
01010000
,
00010000
01000000
00100000
10000000
00010000
01000000
00001000
00010000
,
00000100
00000000
00000000
00001000
00000010
00000000
00000000
00000100
,
00000001
00000100
00001000
00010000
00001000
00000000
00010000
00000000
,
00011000
01010000
11000000
01100000
,
01000000
10000000
00100000
01000000
00010000
00100000
00001000
00010000
,
00000100
00000000
00000000
00001000
00000010
00000000
00000000
00000100
,
00000001
00000100
00001000
00010000
01000000
00000000
10000000
00000000
,
00010000
00000000
00000000
00000000
;
#NOTES:
     dance-double:
     :
     Challenge:
     9:
     :
00000000
00000000
00000000
00000000
,
00000000
00000000
00000000
00000000
,
00000000
00000000
00000000
00000000
,
00000000
00000000
00000000
00000000
,
10010000
00000000
00000000
01000000
00000000
00000000
00001000
00000000
00011000
00000000
00000000
00000000
00010000
00000000
00000000
00000000
,
00001000
00000000
00000010
00000000
00000001
00000000
00001000
00000010
,
00001010
00000000
00000000
00010000
00011000
00000000
00000000
00001000
,
00100000
00000000
00010000
00000000
10000000
00000000
01000000
00000000
00100000
00001000
00100000
00001000
00100000
00001000
00100000
00001000
,
00010000
00000000
00000000
00000000
00010000
00000000
00000010
00000000
00001000
00000000
00000000
00000000
00000001
00001000
00000000
00000000
,
00000001
00000100
00001000
00010000
00100000
10000000
00100000
00010000
,
00001000
00000100
00000010
00001000
00000001
00000010
00001000
00000010
,
00000001
00000000
00000000
00000010
00000100
00000000
00000000
00000100
,
00010000
00000000
00001000
01000000
00100000
00000000
10000000
00010000
,
10000000
01000000
00010000
00001000
00000010
00000001
00000010
00001000
,
00010000
01000000
00100000
00010000
10000000
00100000
00010000
00100000
,
10000000
00000000
00000000
00100000
01000000
00000000
00000000
00001000
,
00010000
00000000
00000100
00000010
00000001
00000000
00001000
00000000
,
00000010
00000000
00000000
00000000
00000010
00000000
00001000
00000100
00000010
00000000
00000001
00000000
00000011
00000000
00000000
00000000
,
00000101
00000100
00000000
00000100
00000000
00000010
00000000
00000010
,
00000000
00010000
00000000
00010000
00001000
01000000
00100000
00010000
,
00000000
00100000
00000000
00100000
00000000
10000000
00000000
10000000
,
00000000
00100000
00000000
00100000
00000000
01000000
00001000
00001000
,
00010000
00000100
00001000
00000100
00000000
00000010
00000001
00000010
,
00000000
00000001
00000100
00001000
00010000
00001000
00100000
00010000
,
10000000
01000000
10000000
00100000
00000000
01000000
00010000
00100000
,
00001000
00000000
00000010
00000000
00001000
00000000
00000010
00000000
00000001
00000000
00001000
00000000
00000010
00000000
00000100
00000001
,
00001000
00000100
00000010
00000100
00001000
00000100
00000010
00000100
,
00010000
00001000
00100000
00001000
00010000
00001000
00100000
00001000
,
01000000
00100000
00010000
00100000
01000000
00100000
00010000
00100000
,
10000000
00000000
01000000
00000000
00010000
00000000
01000000
00000000
10000000
00000000
01000000
00000000
00010000
00000000
00001000
00010000
,
00001000
00010000
00000100
00010000
00001000
00010000
00000100
00010000
,
00000010
00000100
00001000
00000100
00000010
00000100
00001000
00000100
,
00000001
00000010
00000100
00000010
00000001
00000010
00000100
00000010
,
00000001
00001000
00000001
00001000
00000001
00001000
00000001
00001000
00000010
00000100
00000010
00000100
00000010
00000000
00000000
00000000
,
00001000
00000100
00000001
00000100
00010000
00001000
00011000
00000000
,
00001000
00000000
00010000
00000000
00100000
00000000
10000000
00000000
00010000
00000000
01000000
00000000
00010000
00000000
10000000
00010000
,
10000000
01000000
00010000
00001000
00010000
00000100
00010100
00000000
,
00010000
00000000
00000100
00000000
00000010
00000000
00000001
00000000
00001000
00000000
00000010
00000000
00000010
00000000
00001000
00000001
,
00001000
00000001
00000100
00001000
00010000
00001000
00011000
00000000
,
00100000
10000000
00010000
10000000
01000000
00010000
01000000
00000000
,
00100000
00001000
00010000
00000010
00001000
00000000
00000001
00000000
,
00001000
00000001
00000100
00001000
00010000
00001000
00011000
00000000
,
00021000
00100000
01000000
00031000
,
00100000
00010000
10000000
01000000
00010000
01000000
10000000
00010000
,
01000000
00000000
00000000
00001000
00010000
00000000
00000000
00000100
,
00000010
00000000
00000010
00000001
00000100
00000000
00001000
00010000
,
00012000
00000010
00000100
00013000
,
00001000
00100000
00010000
10000000
01000000
00010000
01000000
10000000
,
00100000
00000000
00000000
01000000
00001000
00000000
00000000
00010000
,
00001000
00010000
00001000
00010000
00001000
00010000
00001000
00010000
00001000
00000000
00010000
00000000
00000100
00000000
00000010
00000000
,
00000002
00000000
00000000
00000000
,
00000103
00000010
00001000
00000010
00000100
00000010
00001000
00000010
,
00010000
00001000
00000010
00001000
00010000
00001000
00000010
00001000
,
00010000
00001000
00100000
00001000
00010000
00001000
00100000
00001000
,
01000000
00000000
00100000
00000000
00010000
00000000
00100000
00000000
01000000
00000000
00100000
00000000
10000000
00010000
01000000
00100000
,
10000000
01000000
00100000
01000000
10000000
01000000
00100000
01000000
,
00010000
01000000
00100000
01000000
00010000
01000000
00100000
00001000
,
00010000
00001000
00000100
00001000
00010000
00001000
00000100
00000010
,
00001000
00000000
00000001
00000000
00000100
00000000
00000001
00000000
00001000
00000010
00000100
00000001
00001000
00000000
00000000
00000000
,
00000001
00000010
00001000
00010000
01000000
10000000
10010000
00000000
,
00010000
10000000
01000000
00100000
10000000
00100000
00001000
00000000
,
00000000
00010000
00000100
00001000
00000010
00000100
00000101
00000000
,
00000001
00000100
00001000
00010000
00001000
00010000
00000000
00000000
,
00001000
00100000
00010000
10000000
01000000
00010000
01010000
00000000
,
01000000
10000000
00100000
00010000
00001000
00010000
00000100
00000000
,
00001000
00000001
00001000
00000100
00000001
00000000
00000100
00000000
,
00010000
00001000
00010000
00001000
00010000
00001000
00010000
00001000
00010000
00000000
00001000
00000000
00011000
00000000
00000000
00000000
,
00012000
00000010
00000100
00013000
,
00001000
00100000
01000000
00100000
00010000
01000000
10000000
01000000
,
00010000
00000000
00000000
10000000
01000000
00000000
00000000
01000000
,
00100000
00000000
00100000
00001000
00010000
00000000
00001000
00010000
,
00021000
00100000
01000000
00031000
,
00010000
00000100
00001000
00000100
00000010
00000001
00000010
00000100
,
00001000
00000000
00000000
00000100
00010000
00000000
00000000
00001000
,
01000000
00000000
01000000
00100000
10000000
00000000
01000000
00000000
,
01100000
00000000
00000000
00000000
;
