#TITLE:Dance Till The Sun Come Up;
#ARTIST:Big Idea;
#BANNER:Dance Till The Sun Come Up.png;
#BACKGROUND:Dance Till The Sun Come Up-bg.png;
#LYRICSPATH:Dance Till The Sun Come Up.lrc;
#CDTITLE:./CDTITLES/DanceDanceRevolution UNIVERSE3.png;
#MUSIC:Dance Till The Sun Come Up.ogg;
#SAMPLESTART:16.615;
#SAMPLELENGTH:15;
#BPMS:0=130;

//---------------dance-single - ----------------
#NOTES:
     dance-single:
     :
     Beginner:
     1:
     :
0000
0000
0000
0000
,
0000
0000
0000
0000
,
0000
0000
0000
0000
,
0000
0000
0000
0000
,
0000
0000
0000
0000
,
1000
1000
0000
0000
,
0000
0000
0000
0000
,
0001
0001
0000
0000
,
0000
0000
0000
0000
,
0100
0000
0000
0000
,
0010
0000
0000
0000
,
1000
0000
0000
0000
,
0001
0000
0000
0000
,
0100
0010
0100
0000
,
0000
0000
0000
0000
,
0001
1000
0001
0000
,
0000
0000
0000
0000
,
1000
0000
0200
0000
,
0000
0300
0000
0000
,
0010
0000
0002
0000
,
0000
0003
0000
0000
,
0001
0000
0200
0000
,
0000
0300
0000
0000
,
0010
0000
2000
0000
,
0000
3000
0000
0000
,
1000
0000
0000
0000
,
0001
0001
0000
0000
,
0100
0000
0000
0000
,
0010
0010
0000
0000
,
1000
0000
0000
0000
,
0100
0010
0000
0000
,
0001
0000
0000
0000
,
1000
0001
0000
0000
,
1001
0000
0000
0000
,
0000
0000
0000
0000
,
0110
0000
0000
0000
,
0000
0000
0000
0000
,
1001
0000
0000
0000
,
0000
0000
0000
0000
,
0110
0000
0000
0000
,
0000
0000
0000
0000
,
1000
0001
1000
0000
,
0000
0000
0000
0000
,
0010
0100
0010
0000
,
0000
0000
0000
0000
,
0001
1000
0001
0000
,
0000
0000
0000
0000
,
0100
0010
0100
0000
,
0000
0000
0000
0110
;

//---------------dance-single - ----------------
#NOTES:
     dance-single:
     :
     Easy:
     2:
     :
0000
0000
0000
0000
,
0000
0000
0000
0000
,
0000
0000
0000
0000
,
0000
0000
0000
0000
,
0000
0000
0000
0000
,
1000
0001
0000
0000
,
0100
0000
0001
0000
,
0010
0100
0000
0000
,
1000
0000
0001
0000
,
1000
0000
0100
0000
,
0010
0000
0110
0000
,
0010
0000
0001
0000
,
1000
0000
1001
0000
,
1000
0010
1000
0000
,
1001
0000
0000
0000
,
0001
0100
0001
0000
,
1001
0000
0000
0000
,
1000
0100
2000
0000
,
3000
0000
0000
0000
,
0001
0100
0002
0000
,
0003
0000
0000
0000
,
1000
0010
2000
0000
,
3000
0000
0000
0000
,
0001
0010
0002
0000
,
0003
0000
0000
0000
,
1000
0000
0100
0000
,
0010
0001
0100
0000
,
0001
0000
0100
0000
,
0010
1000
0100
0000
,
1000
0000
0001
0000
,
1000
0100
0010
0000
,
0001
0000
1000
0000
,
0001
0100
0010
0000
,
1000
0000
0001
0000
,
1001
0000
0000
0000
,
1000
0000
0001
0000
,
1001
0000
0000
0000
,
0100
0000
0010
0000
,
0110
0000
0000
0000
,
0010
0000
0100
0000
,
0110
0000
0000
0000
,
0001
1000
0001
0000
,
1000
0001
1000
0000
,
0001
0100
0001
0000
,
0100
0000
0110
0000
,
0010
0100
0010
0000
,
0100
0010
0100
0000
,
0010
1000
0010
0000
,
1000
0000
0001
1001
;

//---------------dance-single - ----------------
#NOTES:
     dance-single:
     :
     Medium:
     4:
     :
0000
0000
0000
0000
,
0000
0000
0000
0000
,
0000
0000
0000
0000
,
0000
0000
0000
0000
,
0000
0000
0000
0000
,
0001
2000
0000
3000
,
0100
0010
2002
3003
,
1000
0002
0000
0003
,
0010
0001
0220
0330
,
0001
0100
2000
3000
,
0100
0001
0020
0030
,
1000
0100
0002
0003
,
0100
1000
0020
0030
,
1000
0001
1000
0000
0001
0000
0100
0000
,
0020
0000
0000
0030
,
0001
1000
0001
0000
1000
0000
0100
0000
,
0020
0000
0000
0030
,
0001
0100
0001
0000
,
2200
0000
0000
3300
,
1000
0010
1000
0000
,
0022
0000
0000
0033
,
1000
0001
1000
0000
,
0220
0000
0000
0330
,
0010
0100
0010
0000
,
2002
0000
0000
3003
,
1000
0100
0020
0030
,
0001
0100
0020
0030
,
1000
0001
0220
0330
,
0001
0100
1000
0100
,
0001
0010
0200
0300
,
1000
0010
0200
0300
,
0001
1000
2002
3003
,
0001
0010
1000
0010
,
0001
0100
0010
0000
,
2020
0000
0000
3030
,
1000
0100
0010
0000
,
0202
0000
0000
0303
,
1000
0001
0100
0000
,
0022
0000
0000
0033
,
0001
1000
0010
0000
,
2200
0000
0000
3300
,
0100
1000
0100
1000
,
0001
0100
0001
0100
,
0010
1000
0010
1000
,
2002
0000
0000
3003
,
0001
0010
0001
0010
,
0100
1000
0100
1000
,
0001
1000
0001
1000
,
0220
0000
0330
0000
0001
0000
1000
1001
;

//---------------dance-single - ----------------
#NOTES:
     dance-single:
     :
     Hard:
     7:
     :
0000
0000
0000
0000
,
0000
0000
0000
0000
,
0000
0000
0000
0000
,
0000
0000
0000
0000
,
0000
0000
0000
0000
,
0001
0000
0000
0000
1000
0000
0000
0000
0000
0000
0010
0000
0000
1000
0000
0000
,
0100
0010
1001
0000
,
1000
0000
0000
0000
0001
0000
0000
0000
0000
0000
0100
0000
0000
0001
0000
0000
,
0010
0000
0000
0000
0000
0000
0100
0000
1000
0000
0000
0100
0000
0000
1000
0000
,
0010
0100
1001
0000
,
0001
0000
0010
0000
0000
1100
1100
0000
,
0010
0100
1001
0000
,
0100
0000
0010
0000
0000
0101
0101
0000
,
1000
0000
0000
0000
0000
0000
0000
0100
0000
1000
0000
0100
0000
0000
0000
0000
,
1001
0000
0000
0000
0000
0000
0000
0001
0000
0100
0000
0001
0000
0000
0000
0000
,
0011
0000
0000
0000
0000
0000
0000
0010
0000
0001
0000
0010
0000
0000
0000
0000
,
1001
0000
0000
0000
0000
0000
0000
1000
0000
0010
0000
1000
0000
0000
0000
0000
,
0001
0000
0000
0000
0000
0000
0000
1000
0000
0100
0000
1000
0000
0000
0000
0001
,
0000
0100
0000
0001
0000
0000
0000
1000
0000
0100
0000
1000
0000
0000
0000
0000
,
0001
0000
0000
0000
0000
0000
0000
1000
0000
0010
0000
1000
0000
0000
0000
0001
,
0000
0010
0000
0001
0000
0000
0000
1000
0000
0010
0000
1000
0000
0000
0000
0000
,
1000
0000
0000
0000
0000
0000
0000
0001
0000
0100
0000
0001
0000
0000
0000
1000
,
0000
0100
0000
1000
0000
0000
0000
0001
0000
0100
0000
0001
0000
0000
0000
0000
,
1000
0000
0000
0100
0200
0000
0000
0010
,
0320
0000
0000
0001
0032
0000
0000
1000
,
1003
0000
0000
0000
0010
0000
0000
0100
0000
0100
0000
0001
0000
0000
0000
0000
,
0010
0000
0000
0000
0100
0000
0000
1000
0000
1000
0000
0001
0000
0000
0000
0000
,
1000
0000
0000
0000
0100
0000
0000
0010
0000
0010
0000
0001
0000
0000
0000
0000
,
0010
0001
0100
1001
,
0001
0000
0000
0000
0100
0000
0000
0010
0000
0010
0000
1000
0000
0000
0000
0000
,
0010
0000
0000
0000
1000
0000
0000
0100
0000
0100
0000
0010
0000
0000
0000
0000
,
0001
0000
0000
0000
1000
0000
0000
0010
0000
0010
0000
0100
0000
0000
0000
0000
,
0001
0010
1000
0110
,
1000
0000
0000
0000
0000
0000
0000
0001
0000
1000
0000
0100
0000
0000
0000
1000
,
0000
0001
0000
0100
0000
0000
0000
0001
0000
1000
0000
0100
0000
0000
0000
0000
,
0010
0000
0000
0000
0000
0000
0000
0100
0000
1000
0000
0001
0000
0000
0000
0100
,
0000
0001
0000
1000
0000
0000
0000
0100
0000
1000
0000
0001
0000
0000
0000
0000
,
0001
0000
0000
0000
0000
0000
0000
1000
0000
0001
0000
0100
0000
0000
0000
0001
,
0000
1000
0000
0100
0000
0000
0000
1000
0000
0001
0000
0100
0000
0000
0000
0000
,
0001
0000
0000
0100
0200
0000
0000
0010
,
0320
0000
0000
1000
2030
0000
0000
0001
,
3001
0000
0000
0000
0010
0000
0000
0000
0000
0000
0001
0000
0000
0010
0000
0000
,
0100
1100
0101
0000
,
1001
0000
0000
0000
0010
0000
0000
0000
0000
0000
1000
0000
0000
0001
0000
0000
,
0010
0011
1000
1010
,
0010
0000
0000
0000
0100
0000
0000
0000
0000
0000
0001
0000
0000
1000
0000
0000
,
0100
0011
1010
0000
,
0110
0000
0000
0000
0100
0000
0000
0000
0000
0000
0001
0000
0000
0010
0000
0000
,
0100
0000
0000
0000
1000
0000
0000
0000
0001
0000
0000
1000
0000
0000
0001
0000
;

//---------------dance-double - ----------------
#NOTES:
     dance-double:
     :
     Beginner:
     1:
     :
00000000
00000000
00000000
00000000
,
00000000
00000000
00000000
00000000
,
00000000
00000000
00000000
00000000
,
00000000
00000000
00000000
00000000
,
00000000
00000000
00000000
00000000
,
10000000
10000000
00000000
00000000
,
00000000
00000000
00000000
00000000
,
00010000
00010000
00000000
00000000
,
00000000
00000000
00000000
00000000
,
01000000
00000000
00000000
00000000
,
00001000
00000000
00000000
00000000
,
00010000
00000000
00000000
00000000
,
00000100
00000000
00000000
00000000
,
00000010
00000001
00000010
00000000
,
00000000
00000000
00000000
00000000
,
00000001
00001000
00000001
00000000
,
00000000
00000000
00000000
00000000
,
00000100
00000000
00002000
00000000
,
00000000
00003000
00000000
00000000
,
00010000
00000000
02000000
00000000
,
00000000
03000000
00000000
00000000
,
10000000
00000000
00200000
00000000
,
00000000
00300000
00000000
00000000
,
10000000
00000000
00020000
00000000
,
00000000
00030000
00000000
00000000
,
01000000
00000000
00000000
00000000
,
00001000
00001000
00000000
00000000
,
00010000
00000000
00000000
00000000
,
00000100
00000100
00000000
00000000
,
00001000
00000000
00000000
00000000
,
00000001
00000001
00000000
00000000
,
00000100
00000000
00000000
00000000
,
00000010
00000010
00000000
00000000
,
00000110
00000000
00000000
00000000
,
00000000
00000000
00000000
00000000
,
00011000
00000000
00000000
00000000
,
00000000
00000000
00000000
00000000
,
01100000
00000000
00000000
00000000
,
00000000
00000000
00000000
00000000
,
10010000
00000000
00000000
00000000
,
00000000
00000000
00000000
00000000
,
10000000
00010000
10000000
00000000
,
00000000
00000000
00000000
00000000
,
01000000
00100000
01000000
00000000
,
00000000
00000000
00000000
00000000
,
00010000
00001000
00010000
00000000
,
00000000
00000000
00000000
00000000
,
00000100
00000010
00000100
00000000
,
00000000
00000000
00000000
00000110
;

//---------------dance-double - ----------------
#NOTES:
     dance-double:
     :
     Easy:
     2:
     :
00000000
00000000
00000000
00000000
,
00000000
00000000
00000000
00000000
,
00000000
00000000
00000000
00000000
,
00000000
00000000
00000000
00000000
,
00000000
00000000
00000000
00000000
,
10000000
00010000
00000000
00000000
,
01000000
00000000
00001000
00000000
,
00010000
00001000
00000000
00000000
,
00000010
00000000
00000100
00000000
,
00001000
00000000
00000001
00000000
,
00001000
00000000
00001001
00000000
,
00000100
00000000
00010000
00000000
,
00001000
00000000
00011000
00000000
,
00001000
00000000
01000000
00000000
,
00100000
00000000
00000000
00000000
,
10000000
00000000
01000000
00000000
,
00010000
00000000
00000000
00000000
,
00001000
00010000
00002000
00000000
,
00003000
00000000
00000000
00000000
,
00010000
00000100
00020000
00000000
,
00030000
00000000
00000000
00000000
,
00000100
00000010
00000200
00000000
,
00000300
00000000
00000000
00000000
,
00001000
00000001
00002000
00000000
,
00003000
00000000
00000000
00000000
,
00000001
00000000
00000100
00000000
,
00001000
00010000
00001000
00000000
,
00010000
00000000
01000000
00000000
,
10000000
00010000
10000000
00000000
,
00100000
00000000
01000000
00000000
,
00001000
00010000
00001000
00000000
,
00010000
00000000
00000100
00000000
,
00000010
00000100
00000010
00000000
,
00000001
00000000
00001000
00000000
,
00001001
00000000
00000000
00000000
,
00000100
00000000
00000010
00000000
,
00000110
00000000
00000000
00000000
,
00010000
00000000
00001000
00000000
,
00011000
00000000
00000000
00000000
,
00100000
00000000
01000000
00000000
,
01100000
00000000
00000000
00000000
,
10000000
01000000
10000000
00000000
,
01000000
00010000
01000000
00000000
,
00010000
00001000
00010000
00000000
,
00001000
00000000
00011000
00000000
,
00001000
00000100
00001000
00000000
,
00000100
00000010
00000100
00000000
,
00000010
00001000
00000010
00000000
,
00001000
00000000
00000001
00001001
;

//---------------dance-double - ----------------
#NOTES:
     dance-double:
     :
     Medium:
     4:
     :
00000000
00000000
00000000
00000000
,
00000000
00000000
00000000
00000000
,
00000000
00000000
00000000
00000000
,
00000000
00000000
00000000
00000000
,
00000000
00000000
00000000
00000000
,
10000000
00020000
00000000
00030000
,
00100000
00001000
00022000
00033000
,
00010000
00000200
00000000
00000300
,
00001000
00000010
00000202
00000303
,
00000010
00001000
00000200
00000300
,
00010000
00001000
00200000
00300000
,
00010000
01000000
00200000
00300000
,
10000000
01000000
00200000
00300000
,
00001000
00010000
00001000
00000000
00010000
00000000
00000100
00000000
,
00000020
00000000
00000000
00000030
,
00000001
00001000
00000001
00000000
00000100
00000000
00000010
00000000
,
00020000
00000000
00000000
00030000
,
00001000
01000000
00001000
00000000
,
00220000
00000000
00000000
00330000
,
10000000
00100000
10000000
00000000
,
02020000
00000000
00000000
03030000
,
00001000
00010000
00001000
00000000
,
00020200
00000000
00000000
00030300
,
00001000
00000010
00001000
00000000
,
00000202
00000000
00000000
00000303
,
00000001
00000100
00002000
00003000
,
00000100
00001000
00020000
00030000
,
00001000
00010000
02000000
03000000
,
00010000
01000000
10000000
00100000
,
10000000
01000000
00020000
00030000
,
01000000
00010000
00002000
00003000
,
00010000
00001000
00000200
00000300
,
00001000
00000100
00000001
00000010
,
00000001
00000100
00000010
00000000
,
00002002
00000000
00000000
00003003
,
00000100
00001000
00000010
00000000
,
00022000
00000000
00000000
00033000
,
00100000
00010000
01000000
00000000
,
20020000
00000000
00000000
30030000
,
01000000
00010000
00001000
00000000
,
00022000
00000000
00000000
00033000
,
00010000
00001000
00010000
00001000
,
00010000
00000100
00010000
00000100
,
00000010
00000100
00000010
00000100
,
00002002
00000000
00000000
00003003
,
00000100
00010000
00000100
00010000
,
00001000
00010000
00001000
00010000
,
00001000
00100000
00001000
00100000
,
00010000
00000000
00000000
00000000
01000000
00000000
00100000
01100000
;

//---------------dance-double - ----------------
#NOTES:
     dance-double:
     :
     Hard:
     7:
     :
00000000
00000000
00000000
00000000
,
00000000
00000000
00000000
00000000
,
00000000
00000000
00000000
00000000
,
00000000
00000000
00000000
00000000
,
00000000
00000000
00000000
00000000
,
10000000
00000000
00000000
00000000
00010000
00000000
00000000
00000000
00000000
00000000
00100000
00000000
00000000
01000000
00000000
00000000
,
00010000
00001000
00011000
00000000
,
00000100
00000000
00000000
00000000
00000010
00000000
00000000
00000000
00000000
00000000
00000001
00000000
00000000
00001000
00000000
00000000
,
00000010
00000000
00000000
00000000
00000000
00000000
00001000
00000000
00000100
00000000
00000000
00010000
00000000
00000000
00001000
00000000
,
00100000
01000000
11000000
00000000
,
00100000
00000000
00010000
00000000
00000000
00110000
00110000
00000000
,
00001000
00010000
00011000
00000000
,
00000100
00000000
00001000
00000000
00000000
00001100
00001100
00000000
,
00000010
00000000
00000000
00000000
00000000
00000000
00000000
00000001
00000000
00000100
00000000
00000001
00000000
00000000
00000000
00000000
,
00000110
00000000
00000000
00000000
00000000
00000000
00000000
00001000
00000000
00000100
00000000
00001000
00000000
00000000
00000000
00000000
,
00011000
00000000
00000000
00000000
00000000
00000000
00000000
00100000
00000000
00010000
00000000
00100000
00000000
00000000
00000000
00000000
,
10010000
00000000
00000000
00000000
00000000
00000000
00000000
10000000
00000000
00100000
00000000
10000000
00000000
00000000
00000000
00000000
,
00010000
00000000
00000000
00000000
00000000
00000000
00000000
10000000
00000000
01000000
00000000
10000000
00000000
00000000
00000000
01000000
,
00000000
00010000
00000000
01000000
00000000
00000000
00000000
00010000
00000000
00001000
00000000
00010000
00000000
00000000
00000000
00000000
,
00001000
00000000
00000000
00000000
00000000
00000000
00000000
00010000
00000000
00001000
00000000
00010000
00000000
00000000
00000000
00001000
,
00000000
00000010
00000000
00001000
00000000
00000000
00000000
00000010
00000000
00000001
00000000
00000010
00000000
00000000
00000000
00000000
,
00000001
00000000
00000000
00000000
00000000
00000000
00000000
00000100
00000000
00000001
00000000
00000100
00000000
00000000
00000000
00001000
,
00000000
00000100
00000000
00001000
00000000
00000000
00000000
00010000
00000000
00001000
00000000
00010000
00000000
00000000
00000000
00000000
,
00001000
00000000
00000000
00010000
00020000
00000000
00000000
01000000
,
02030000
00000000
00000000
10000000
23000000
00000000
00000000
00100000
,
30100000
00000000
00000000
00000000
00100000
00000000
00000000
10000000
00000000
10000000
00000000
01000000
00000000
00000000
00000000
00000000
,
00100000
00000000
00000000
00000000
00010000
00000000
00000000
01000000
00000000
01000000
00000000
00001000
00000000
00000000
00000000
00000000
,
00010000
00000000
00000000
00000000
00001000
00000000
00000000
00000010
00000000
00000010
00000000
00000100
00000000
00000000
00000000
00000000
,
00001000
00000001
00000100
00001010
,
00000001
00000000
00000000
00000000
00000100
00000000
00000000
00000010
00000000
00000010
00000000
00001000
00000000
00000000
00000000
00000000
,
00000100
00000000
00000000
00000000
00010000
00000000
00000000
00001000
00000000
00001000
00000000
01000000
00000000
00000000
00000000
00000000
,
00010000
00000000
00000000
00000000
01000000
00000000
00000000
00100000
00000000
00100000
00000000
10000000
00000000
00000000
00000000
00000000
,
00010000
10000000
01000000
10010000
,
10000000
00000000
00000000
00000000
00000000
00000000
00000000
00010000
00000000
01000000
00000000
00100000
00000000
00000000
00000000
00100000
,
00000000
01000000
00000000
00001000
00000000
00000000
00000000
00001000
00000000
00010000
00000000
00000100
00000000
00000000
00000000
00000000
,
00000010
00000000
00000000
00000000
00000000
00000000
00000000
00000001
00000000
00000100
00000000
00000010
00000000
00000000
00000000
00000100
,
00000000
00000010
00000000
00001000
00000000
00000000
00000000
00001000
00000000
00000010
00000000
00010000
00000000
00000000
00000000
00000000
,
00001000
00000000
00000000
00000000
00000000
00000000
00000000
00010000
00000000
00001000
00000000
01000000
00000000
00000000
00000000
01000000
,
00000000
00010000
00000000
00100000
00000000
00000000
00000000
00100000
00000000
00010000
00000000
10000000
00000000
00000000
00000000
00000000
,
00010000
00000000
00000000
01000000
02000000
00000000
00000000
00001000
,
03002000
00000000
00000000
00010000
00023000
00000000
00000000
00001000
,
00031000
00000000
00000000
00000000
00010000
00000000
00000000
00000000
00000000
00000000
00000100
00000000
00000000
00001000
00000000
00000000
,
00000010
00001010
00000011
00000000
,
00001001
00000000
00000000
00000000
00000100
00000000
00000000
00000000
00000000
00000000
00000010
00000000
00000000
00010000
00000000
00000000
,
00001000
00011000
00100000
00110000
,
00010000
00000000
00000000
00000000
10000000
00000000
00000000
00000000
00000000
00000000
01000000
00000000
00000000
00100000
00000000
00000000
,
00010000
00110000
00011000
00000000
,
00001010
00000000
00000000
00000000
00000100
00000000
00000000
00000000
00000000
00000000
00000001
00000000
00000000
00000010
00000000
00000000
,
00000100
00000000
00000000
00000000
00010000
00000000
00000000
00000000
00001000
00000000
00000000
00010000
00000000
00000000
00011000
00000000
;
